#TITLE:ノるどん2000;
#SUBTITLE:;
#ARTIST:Linda AI-CUE;
#TITLETRANSLIT:Norudon2000;
#SUBTITLETRANSLIT:;
#ARTISTTRANSLIT:;
#GENRE:VARIETY;
#CREDIT:MUINELIM;
#BANNER:Norudon2000.png;
#BACKGROUND:Norudon2000-bg.png;
#LYRICSPATH:;
#CDTITLE:;
#MUSIC:Norudon2000.ogg;
#OFFSET:-0.225000;
#SAMPLESTART:15.225000;
#SAMPLELENGTH:11.980000;
#SELECTABLE:YES;
#BPMS:0.000000=200,290.000000=140,338.000000=154,341.000000=166,344.000000=179,347.000000=196,350.000000=200;
#STOPS:
;
#BGCHANGES:;
#KEYSOUNDS:;
#ATTACKS:;

//---------------dance-single - ----------------
#NOTES:
     dance-single:
     :
     Hard:
     16:
     0.863235,0.982562,0.484279,0.477051,0.357788,836.000000,769.000000,67.000000,66.000000,0.000000,0.000000,0.863235,0.982562,0.484279,0.477051,0.357788,836.000000,769.000000,67.000000,66.000000,0.000000,0.000000:
0000
0000
0000
0000
,
0000
0000
0000
0000
,
0000
0000
0000
0000
,
0000
0000
0000
0000
,
0000
0000
0000
0000
1001
0010
0100
0010
,
0000
1000
1000
0000
0001
0100
0010
0100
,
0000
0001
0001
0000
1000
0100
0010
0100
,
0000
0001
0001
0000
0001
0100
0010
0100
,
1000
1000
0010
0100
0202
0000
0000
0000
,
0000
0303
0000
0010
2020
0000
0000
0000
,
0000
0000
3030
0000
0000
0000
0100
0000
0110
0000
0000
0001
0000
0000
1000
0000
,
0110
0000
0000
1000
0000
0000
0001
0000
1001
0000
0000
0000
1001
0000
0000
0000
,
1000
0010
0100
0001
2000
0000
0000
0000
3100
0000
1000
0100
1000
0000
0010
0000
,
0010
0000
1000
0100
1000
0000
0100
0000
0010
0000
0100
0000
0010
0000
0001
0000
,
0100
0000
1010
0000
0001
0010
0100
0010
,
0100
1000
0010
0100
0001
1000
0100
0010
,
0001
0000
0000
0000
0110
0000
0000
0000
0010
0000
0001
0100
0001
0000
0010
0000
,
0010
0000
0001
0100
0001
0000
0100
0000
0010
0000
0100
0000
0010
0000
1000
0000
,
0100
0000
0011
0000
1000
0020
0000
0130
,
0100
0001
0010
1000
0001
0100
1000
0010
,
0110
0000
2002
3003
1000
0010
0001
0100
,
1000
0000
0010
0100
0101
0000
0010
1010
,
0000
0100
0110
0001
0100
1000
0100
0001
,
0010
1000
0010
0001
0101
0000
1000
1100
,
0000
0000
0011
0000
0010
0100
0010
0100
1000
0000
0010
0000
0001
0000
0010
0000
,
1000
0010
0001
0000
1000
0100
0001
0100
,
1000
0100
0001
0000
1000
0010
0001
1000
,
0100
0001
0010
1000
0001
0100
1000
0010
,
0100
0001
0001
1001
1000
0010
0001
0100
,
0001
0010
1000
0000
0001
0100
1000
0010
,
1000
0100
0001
0000
1000
0010
0001
1000
,
0001
0000
0100
0000
1000
0000
0010
0000
0100
0000
0100
0000
0001
0010
0001
0000
,
0100
0000
0010
1000
0010
0000
0100
0000
0102
0000
0000
0000
0103
0000
0010
0000
,
2000
0000
3100
0010
0002
0000
0013
0100
,
2000
0000
3010
0100
0120
0000
0000
1030
,
0202
0003
1000
0010
,
0301
0000
0001
0010
2000
0000
3001
0100
,
0020
0000
1030
0010
0200
0000
1300
0010
,
0002
0000
0000
0003
0000
0110
0000
1000
,
0100
0001
0010
0110
0000
1001
0000
0001
,
0100
1000
0010
0001
2002
0000
0000
0000
,
0000
3003
0210
0302
,
2003
0000
0000
0000
3020
0000
0000
0000
0130
0001
0100
0000
0001
0000
0010
0000
,
0011
0000
0001
0100
0010
1010
0000
1000
,
0100
0000
0010
0001
0010
0001
0010
0001
1000
0000
0000
0000
1000
0000
0100
0000
,
0000
0100
0001
0000
0001
0010
0000
0010
,
1000
0100
0020
0001
0030
0001
0100
0000
,
0100
1000
0000
1000
1001
0000
0001
0100
,
0000
0100
1000
0000
1000
0010
0000
0010
,
0001
0100
0020
1000
0030
1000
0100
0000
,
0100
0001
0000
0001
1001
0000
1000
0010
,
0100
1000
0001
0010
0100
0001
1000
0010
,
0101
0100
0001
1000
0010
0001
1000
0100
,
0001
1000
0100
0010
1100
1000
0100
0010
,
1000
0010
0100
0001
0100
0010
0001
0100
,
1001
1000
0001
0100
1000
0001
0010
1000
,
0001
0000
0010
0100
0010
0100
1000
0001
2000
0000
0000
0000
0000
0000
0000
0000
,
0002
0000
3003
0010
0200
0000
0000
0000
,
0000
0000
0000
0310
2010
0000
0000
3100
,
0012
0000
0000
0103
0110
0000
1001
0000
,
0010
0100
0001
1000
0020
0000
0000
0000
0130
0000
0100
0000
0001
0000
0001
0000
,
0010
0010
0100
0100
1000
1000
0010
0010
,
0001
0001
1000
1000
0100
0100
0001
0001
,
0010
0010
1000
1000
0001
0001
0100
0100
,
1000
1000
0010
0010
0110
1000
0100
1100
,
0000
0022
0033
0000
0101
0100
0010
1000
,
1010
0000
0010
0100
1001
0100
0001
0101
,
0001
0000
1010
0000
1000
0000
0100
0000
0010
0000
0001
0000
0100
0010
1000
0000
,
0010
0000
0100
0001
0100
0001
0010
0000
0011
0000
0001
0000
1000
0000
0200
0000
,
0000
0000
1300
0000
1000
0001
0100
0000
0100
0000
0001
0000
1000
0000
0020
0000
,
0000
0000
0130
0000
0100
0001
0010
0000
0001
0010
0100
0000
0010
0000
0001
0010
,
0100
0000
0010
0000
0010
0100
1000
0000
0100
0000
0010
0100
1000
0000
1000
0000
,
0010
0100
0001
0100
0001
1000
0010
1000
0020
0000
0000
0000
0000
0000
0100
0000
,
0001
0100
2030
0000
0000
0010
0100
0010
,
3002
0000
0000
0010
0100
0010
2000
3003
,
1000
0000
0100
0000
0010
0000
0001
0000
0100
0000
0010
0000
2000
0000
0000
0000
0000
0000
3002
0000
0000
0000
0000
0000
0103
0000
0000
0000
0000
0000
0000
0000
0000
0100
0000
0000
1000
0000
0000
0000
0000
0000
0010
0000
0000
0000
0000
0000
,
0100
0000
0001
0010
1000
0000
1000
0010
0001
0000
0100
0000
1000
0000
0001
0000
,
0010
0000
0100
0000
0010
1000
0100
0000
1100
0000
0001
0000
0020
0000
0000
0031
,
0100
0000
0000
0100
1000
0000
0000
1000
0010
0000
0000
0010
0001
0000
0100
0000
,
0010
2000
3100
0002
0013
1000
0100
0001
,
1000
0000
0010
0000
0100
0010
0100
0010
0001
0000
0100
0000
0010
0000
0000
0010
,
1000
0000
0000
1000
0100
0000
0000
0100
0001
0000
0000
0001
0010
0000
0100
0000
,
0110
0000
0000
0010
1000
0000
0000
1000
0100
0000
0000
0100
0001
0000
0000
0001
,
1000
0000
0000
1000
0010
0000
0100
0000
0110
0000
0000
0010
0001
0000
0000
0001
,
1000
0000
0000
1000
0100
0000
0000
0100
0002
0000
0000
0023
0000
0000
0130
0000
,
1000
0000
0010
0000
0210
0000
0000
0302
0000
0000
1003
0000
0001
0000
0010
0000
,
0210
0000
0000
2300
0000
0000
3001
0000
1000
0000
0100
0000
0120
0000
0000
0032
,
0000
1003
0001
0100
1010
1000
0100
0010
,
0002
0000
0103
0001
0011
0010
0100
1000
,
0020
0000
0130
0100
1001
0010
0100
0010
,
1001
0000
0100
0000
0010
0000
0100
0000
0010
1000
0100
0000
0010
0001
0100
0000
,
0010
1000
0001
0100
0020
0000
0000
0000
1030
0000
0010
0100
0001
0000
0010
0000
,
0001
0100
0010
0100
0001
0000
0010
0000
1000
0000
0100
0000
0010
0000
1000
0000
,
0100
0000
0011
0000
0001
0100
1000
0001
,
0010
0100
1000
0001
0010
1000
0100
0010
,
0001
0000
0000
0000
1100
0000
0000
0000
0100
0000
1000
0010
0100
0000
0010
0000
,
1000
0100
0010
0100
1000
0000
0010
0000
0001
0000
0100
0000
0010
0000
0001
0000
,
0100
0000
1010
0000
1000
0100
0001
1000
,
0010
0000
0100
0000
1000
0000
0010
0000
0100
0001
1000
0001
0100
0000
0010
1000
,
0001
1000
0010
0000
0200
0000
0010
0000
0310
0000
1000
0100
0010
0000
0100
0000
,
1000
0100
0010
0001
0010
0000
0001
0000
0100
0010
1000
0000
0010
0100
0001
0000
,
0010
0100
0010
0001
0100
0000
1000
0000
1000
0000
0001
0000
0010
0000
0100
0000
,
0001
0010
1000
0100
0020
1030
0200
0301
,
0020
0000
0130
0000
2000
0000
0001
0000
3001
0000
0001
0100
0010
0000
0100
0000
,
0001
0100
0010
1000
0010
0000
0100
0000
0001
0010
1000
0000
0001
0100
1000
0000
,
0010
0100
0001
1000
0100
0000
0010
0000
0001
0100
0010
0000
0001
0000
0010
0000
,
1000
0010
0100
0000
1000
0000
0100
0000
0001
0010
0001
0010
0100
1000
0100
1000
,
0010
0100
0110
0000
2002
3003
1010
1100
,
0000
0011
0101
2002
0000
0000
3003
0000
;

//---------------dance-double - ----------------
#NOTES:
     dance-double:
     :
     Hard:
     16:
     0.846714,0.982562,0.505963,0.404770,0.386700,820.000000,750.000000,70.000000,56.000000,0.000000,0.000000,0.846714,0.982562,0.505963,0.404770,0.386700,820.000000,750.000000,70.000000,56.000000,0.000000,0.000000:
00000000
00000000
00000000
00000000
,
00000000
00000000
00000000
00000000
,
00000000
00000000
00000000
00000000
,
00000000
00000000
00000000
00000000
,
00000000
00000000
00000000
00000000
00011000
00010000
01000000
10000000
,
00000000
00100000
00010000
00000000
00011000
00001000
00000100
00000001
,
00000000
00000010
00001000
00000000
00011000
00010000
00100000
10000000
,
00000000
01000000
00010000
00000000
00011000
00001000
00000010
00000001
,
00000100
00001000
00010000
00001000
00022000
00000000
00000000
00000000
,
00000000
00033000
00000000
00010000
00022000
00000000
00000000
00000000
,
00000000
00000000
00033000
00000000
00000000
00000000
00001000
00000000
01001000
00000000
00000000
00001000
00000000
00000000
00010000
00000000
,
00010010
00000000
00000000
00010000
00000000
00000000
00001000
00000000
00101000
00000000
00000000
00000000
00010100
00000000
00000000
00000000
,
00010000
00001000
00010000
00001000
00020000
00000000
00000000
00000000
00030100
00000000
00000100
00001000
00000100
00000000
00000010
00000000
,
00000100
00000000
00000010
00000001
00000010
00000000
00000001
00000000
00000100
00000000
00000001
00000000
00000100
00000000
00001000
00000000
,
00010000
00000000
00011000
00000000
00001000
00010000
00100000
00010000
,
00001000
00010000
00100000
10000000
01000000
00100000
01000000
00010000
,
00001000
00000000
00000000
00000000
00011000
00000000
00100000
00000000
00100000
00000000
01000000
00010000
01000000
00000000
00100000
00000000
,
01000000
00000000
00100000
10000000
00100000
00000000
10000000
00000000
01000000
00000000
10000000
00000000
01000000
00000000
00010000
00000000
,
00001000
00000000
00001010
00000000
00000001
00000200
00000000
00001300
,
00010000
00001000
00000010
00001000
00010000
00001000
00000010
00000001
,
00000101
00000000
00002020
00003030
00001000
00000100
00010000
01000000
,
20000000
00000000
30100000
01000000
01010000
00000000
00001000
00011000
,
00000000
00000100
00001100
00000001
00000010
00000100
00000100
00001000
,
00000010
00000100
00000100
00000001
00000011
00000000
00001000
00001010
,
00000000
00000000
00011000
00000000
00010000
00001000
00010000
00001000
00100000
00000000
01000000
00000000
10000000
00000000
00000000
00000000
,
01000000
00100000
00010000
00000000
00100000
00010000
00001000
00000000
,
00010000
00001000
00000100
00000000
00000100
00000010
00000001
00000000
,
00000010
00000100
00001000
00000000
00000100
00001000
00010000
00000000
,
00001000
00010000
00100000
00100000
00010000
01000000
10000000
01000000
,
00010000
00000000
00011000
00000000
00001000
00000010
00000001
00000010
,
00001000
00000000
00011000
00000000
00010000
00100000
10000000
01000000
,
00010000
00000000
00001000
00000000
00000010
00000000
00000001
00000000
00000100
00000000
00001000
00000000
00010000
00001000
00010000
00000000
,
00001000
00000000
00010000
00001000
00010000
00000000
01000000
00000000
20000000
00000000
00000000
00000000
31000000
00000000
00010000
00000000
,
00002000
00000000
00013000
01000000
20000000
00000000
31000000
00010000
,
00002000
00000000
00013000
01000000
21000000
00000000
00000000
30100000
,
00220000
00300000
00100000
00000010
,
00031000
00000000
00001000
00000010
00000002
00000000
00000013
00001000
,
00020000
00000000
00031000
00000010
00000002
00000000
00000013
00001000
,
00020000
00000000
00000000
00030000
00000000
00011000
00000000
00010000
,
01000000
10000000
00100000
01010000
00000000
00011000
00000000
00001000
,
00000100
00000001
00000010
00000100
00002200
00000000
00000000
00000000
,
00000000
00003300
00020020
00000000
,
00000000
00000000
00000000
00000000
00030030
00000000
00000000
00000000
00000010
00001000
00000010
00000000
00010000
00000000
00001000
00000000
,
00100000
00100000
01000000
10000000
00100000
01100000
00000000
01000000
,
00010000
00000000
00100000
00001000
00100000
00001000
00100000
00001000
00010000
00000000
00000000
00000000
00010000
00000000
00001000
00000000
,
00000000
00001000
00000010
00000000
00000010
00000001
00000000
00000001
,
00000100
00001000
00010000
00011000
00000000
00001000
00100000
00000000
,
00100000
01000000
00000000
01000000
11000000
00000000
10000000
00100000
,
00000000
00100000
00010000
00000000
00010000
00001000
00000000
00001000
,
00000010
00000001
00001000
00001100
00000000
00000100
00000010
00000000
,
00000010
00001000
00000000
00001000
00011000
00000000
00010000
01000000
,
10000000
00100000
00010000
00000000
10000000
01000000
00010000
00100000
,
01000000
00010000
00001000
00100000
01000000
10000000
00100000
00000000
,
00100000
00001000
00000010
00010000
00001000
00000000
00001000
00000100
,
00000001
00000010
00001000
00000000
00000001
00000100
00001000
00000010
,
00000001
00000010
00000100
00001000
00010000
00100000
01000000
10000000
,
01000000
00000000
00100000
00000000
00010000
00001000
00010000
00001000
00020000
00000000
00000000
00000000
00000000
00000000
00000000
00000000
,
00002000
00000000
00033000
01001000
00020200
00000000
00000000
00000000
,
00000000
00030300
00000000
00010010
00202000
00300000
00000000
00013000
,
00020200
00000300
00000000
00031000
01001000
00000000
00011000
00000000
,
00010000
00000100
00010000
00001000
02000000
00000000
00000000
00000000
03010000
00000000
00010000
10000000
00000000
00000000
10000000
00100000
,
00000000
00000000
00100000
01000000
00000000
00000000
01000000
00010000
00000000
00000000
00010000
00100000
00000000
00000000
00100000
00001000
,
00000000
00000000
00001000
00010000
00000000
00000000
00010000
00000010
00000000
00000000
00000010
00000100
00000000
00000000
00000100
00000001
,
00000000
00000000
00000001
00000010
00000000
00000000
00000010
00001000
00000000
00000000
00001000
00010000
00000000
00000000
00010000
00100000
,
00000000
00000000
00100000
10000000
00000000
00000000
10000000
00000000
11000000
00000000
01000000
00000000
00100000
00000000
00110000
00000000
,
00000000
00022000
00033000
00000000
00001010
00000010
00000100
00000001
,
00000101
00000000
00000001
00000010
00000011
00000100
00010000
00011000
,
00100000
00000000
00100000
00000000
00010000
00000000
01000000
00000000
00100000
00000000
10000000
00000000
01000000
00100000
01000000
00000000
,
00010000
00000000
00001000
00010000
00001000
00000000
00000100
00000000
00000101
00000000
00001000
00000000
00000100
00000000
00000020
00000000
,
00000000
00000000
00001030
00000000
00001000
00010000
00001000
00000000
00010000
00000000
00100000
00000000
01000000
00000000
00020000
00000000
,
00000000
00000000
10030000
00000000
10000000
01000000
10000000
00000000
00100000
00010000
00001000
00000000
00100000
00000000
00001000
00010000
,
00100000
00000000
00010000
00000000
00100000
00010000
00001000
00000000
00100000
00000000
00001000
00010000
00100000
00000000
10000000
00000000
,
01000000
00010000
01000000
00010000
00001000
00010000
00001000
00010000
00000200
00000000
00000000
00000000
00000000
00000000
00000010
00000000
,
00000001
00000010
00020300
00000000
00000000
00001000
00000010
00001000
,
00230000
00000000
00000000
01000000
00001000
01000000
20000000
30300000
,
00100000
01000000
00001000
00010000
00000100
00000010
00000001
00000100
00000010
00000000
00000000
00000010
00001000
00000000
00000100
00000000
,
00000010
00000000
00000001
00000100
00001000
00000000
00010000
00100000
10000000
00000000
01000000
00000000
00100000
00000000
00010000
00000000
,
01000000
00000000
00001000
00000000
00010000
00000100
00001000
00000100
00000010
00000000
00000001
00000000
00000200
00000000
00000000
00001300
,
00010000
00000000
00000000
00010000
00100000
00000000
00000000
00100000
10000000
00000000
00000000
10000000
01000000
00000000
00100000
00000000
,
00010000
02000000
03001000
00020000
00030010
00000010
00001000
00000100
,
00000010
00000000
00000001
00000000
00000100
00001000
00010000
00001000
00000100
00000000
00000010
00000000
00010000
00000000
00000000
00010000
,
00001000
00000000
00000000
00001000
00100000
00000000
00000000
00100000
01000000
00000000
00000000
01000000
10000000
00000000
00100000
00000000
,
01100000
00000000
00000000
01000000
00010000
00000000
00000000
00010000
00001000
00000000
00000000
00001000
00000100
00000000
00000000
00000100
,
00000010
00000000
00000000
00000010
00000001
00000000
00000100
00000000
00000110
00000000
00000000
00000010
00001000
00000000
00000000
00001000
,
00010000
00000000
00000000
00010000
00100000
00000000
00000000
00100000
01000000
00000000
00000000
11000000
00000000
00000000
10000000
00000000
,
00100000
00000000
01000000
00000000
00010000
00000000
00000000
00110000
00000000
00000000
00100000
00000000
00001000
00000000
00010000
00000000
,
00000100
00000000
00000000
00001100
00000000
00000000
00001000
00000000
00000010
00000000
00000100
00000000
00000001
00000000
00000000
00000011
,
00000000
00000010
00001000
00010000
00011000
00001000
00010000
00100000
,
20000000
00000000
31000000
00010000
00011000
00010000
00001000
00000010
,
00000002
00000000
00000103
00001000
00011000
00100000
01000000
00100000
,
00011000
00000000
00000100
00000000
00000010
00000000
00000100
00000000
00010000
00001000
00010000
00000000
00001000
00010000
00001000
00000000
,
00010000
00000010
00010000
00001000
00200000
00000000
00000000
00000000
01300000
00000000
01000000
10000000
00100000
00000000
01000000
00000000
,
00100000
10000000
01000000
00000000
00010000
00000000
00001000
00000000
00100000
00000000
10000000
00000000
00100000
00000000
00001000
00000000
,
00010000
00000000
00011000
00000000
00001000
00010000
00000100
00000001
,
00000100
00010000
00001000
00000100
00000001
00000010
00000100
00001000
,
00000010
00000000
00000000
00000000
00000110
00000000
00000000
00000000
00000100
00000000
00000100
00000001
00000010
00000000
00000100
00000000
,
00000010
00000001
00000100
00000000
00001000
00000000
00010000
00000000
00000010
00000000
00000001
00000000
00000010
00000000
00010000
00000000
,
00001000
00000000
00011000
00000000
00010000
00001000
01000000
10000000
,
01000000
00000000
00001000
00000000
00010000
00000000
01000000
00000000
10000000
00000000
00100000
00000000
00010000
00001000
00010000
00000000
,
00100000
00000000
00010000
00001000
00020000
00000000
00001000
00000000
00031000
00000000
00001000
00100000
00010000
00000000
01000000
00000000
,
00010000
00100000
00001000
00100000
00010000
00000000
01000000
00000000
10000000
01000000
00100000
00000000
10000000
01000000
00100000
00000000
,
01000000
00010000
00001000
00000000
00010000
00000000
00001000
00000000
00011000
00000000
00010000
00000000
00000100
00000000
00010000
00000000
,
00011000
00001000
01000000
00001000
00020000
00030010
00002000
00103000
,
00020000
00000000
00030100
00000000
00002000
00000000
01000000
00000000
01003000
00000000
00001000
00010000
00000100
00000000
00001000
00000000
,
00000100
00010000
00001000
00010000
00000100
00000000
00000010
00000000
00000001
00000100
00001000
00000000
00000100
00001000
00010000
00000000
,
00001000
00010000
00100000
00000000
10000000
00000000
01000000
00000000
00100000
00001000
00010000
00000000
00100000
00000000
00010000
00000000
,
00000010
00010000
00001000
00000000
00000010
00000000
00001000
00000000
00010000
00001000
00010000
00001000
00000100
00001000
00000100
00000010
,
00000100
00000001
00001001
00000000
00000220
00000330
00001000
00011000
,
00000000
00010000
01100000
20020000
00000000
00000000
30030000
00000000
;

//---------------dance-single - ----------------
#NOTES:
     dance-single:
     :
     Beginner:
     5:
     0.213744,0.352909,0.050596,0.072280,0.000000,207.000000,200.000000,7.000000,10.000000,0.000000,0.000000,0.213744,0.352909,0.050596,0.072280,0.000000,207.000000,200.000000,7.000000,10.000000,0.000000,0.000000:
0000
0000
0000
0000
,
0000
0000
0000
0000
,
0000
0000
0000
0000
,
0000
0000
0000
0000
,
0000
0000
1000
0000
,
0000
0000
0001
0000
,
0000
0000
1000
0000
,
0001
0000
1000
1000
,
1000
1000
1000
0000
,
0000
0000
0001
0000
,
0000
0000
1000
0000
,
0001
0000
1000
1000
,
0000
0001
0001
0000
,
0100
0000
0001
0000
,
0100
0000
0001
0000
,
0100
0000
0001
0000
,
0001
0000
1000
0000
,
0010
0000
1000
0000
,
0010
0000
1000
0000
,
0010
0000
1000
0000
,
1000
0000
1001
0000
,
0000
0000
0010
0000
,
0000
0000
1001
0000
,
0000
0000
0100
0000
,
0000
0000
0010
0000
,
0010
0000
1000
0000
,
1000
0000
0100
0000
,
0100
0000
0010
0000
,
0010
0000
0001
0000
,
0001
0000
0100
0000
,
0100
0000
0010
0000
,
0010
0000
0100
0100
,
0100
0000
0001
0000
,
1000
0000
0001
0000
,
1000
0000
0002
0003
,
2000
0000
0000
0000
,
3000
0000
0001
0000
,
1000
0000
0001
0000
,
1000
0000
0001
0001
,
0001
0001
0000
1000
,
1000
1000
2000
0000
,
0000
0000
3000
0000
,
0000
0000
0010
0000
,
0010
0000
0010
0000
,
0010
0010
0010
0000
,
0100
0000
0010
0000
,
0100
0000
0010
0000
,
0100
0000
0001
0000
,
1000
0000
0001
0000
,
1000
0000
0001
0000
,
1000
0000
0100
0000
,
0010
0000
0100
0000
,
0010
0000
0100
0000
,
0010
0000
0001
0000
,
1000
0000
0001
0000
,
1000
0000
0001
0000
,
1000
0000
0020
0030
,
0200
0000
0000
0000
,
0000
0000
0300
0000
,
0000
0000
0100
0100
,
0100
0100
0100
0000
,
0000
0000
0001
0000
,
0000
0000
0010
0000
,
0000
0000
1000
0000
,
0000
0000
0100
0000
,
0100
0000
0001
0000
,
0001
0000
0010
0000
,
0010
0000
1000
0000
,
1000
0000
0100
0100
,
0000
0000
0010
0010
,
0000
0000
0100
0000
,
0010
0000
1000
0000
,
0001
0000
1001
0000
,
0000
1001
0000
0000
,
1001
0000
0000
1001
,
0000
0000
1000
0010
,
1000
0100
1000
0010
,
1000
0100
0010
0020
,
0000
0030
0000
0001
,
0100
0001
0010
0001
,
0100
0001
0010
0200
,
0000
0300
0000
1000
,
0020
0000
0000
0030
,
0000
0001
0200
0000
,
0000
0300
0100
0000
,
0000
0100
0000
0000
,
0100
0000
0000
0100
,
0000
0000
0100
0000
,
0100
0000
0100
0000
,
0100
0000
0100
0000
,
0100
0000
0100
0100
,
0200
0300
1000
0000
,
0100
0000
1000
0000
,
0100
0000
1000
0000
,
0100
0000
1000
0000
,
1000
0000
0001
0000
,
0010
0000
0001
0000
,
0010
0000
0001
0000
,
0010
0000
0001
0000
,
0001
0000
1000
0000
,
0010
0000
0001
0000
,
0010
0000
1000
0000
,
0010
0000
0001
0000
,
0010
0000
1000
0000
,
0100
0000
0001
0000
,
0100
0000
1000
0000
,
0100
0000
0001
0000
,
0100
0000
1000
0000
,
0001
0000
1001
0000
;

//---------------dance-single - ----------------
#NOTES:
     dance-single:
     :
     Easy:
     9:
     0.361402,0.470004,0.144561,0.122877,0.000000,350.000000,330.000000,20.000000,17.000000,0.000000,0.000000,0.361402,0.470004,0.144561,0.122877,0.000000,350.000000,330.000000,20.000000,17.000000,0.000000,0.000000:
0000
0000
0000
0000
,
0000
0000
0000
0000
,
0000
0000
0000
0000
,
0000
0000
0000
0000
,
0000
0000
1000
0001
,
1000
0001
0100
0010
,
0100
0010
1000
0001
,
0100
0010
1000
0001
,
0100
0010
0110
0000
,
0000
0000
0000
1000
1000
0000
0000
0000
,
0000
0000
0000
0001
0001
0000
0000
0100
,
0100
0000
0000
0010
0010
0000
0100
0000
,
0010
0110
1000
1000
,
0001
0001
1000
0010
,
0100
0000
0001
0001
,
1000
1000
0001
0100
,
0010
0000
1000
1000
,
0001
0001
0010
0100
,
1000
0000
0001
0001
,
1000
1000
0100
0010
,
0001
1001
0100
0100
,
0100
0000
0000
0010
0010
0000
0000
1000
,
0000
0001
0010
0100
,
1000
0000
0010
0000
0100
0000
0000
0010
,
0000
0100
0200
0000
0301
0000
0010
0000
,
0001
0000
1000
0100
,
1000
0000
0001
0010
,
0001
1000
0100
1000
,
1000
0000
0010
1000
,
0010
0000
0100
0001
,
0100
0000
0010
1000
,
0010
0100
0001
0100
,
0100
0000
1000
0000
,
0010
0000
0001
0000
,
0100
0000
1000
0001
,
0101
0000
0001
1000
,
1010
0000
0001
0000
,
0010
0000
1000
0000
,
0100
0000
0000
0001
,
1000
1100
0000
1000
,
1000
0001
0022
0000
,
0000
0033
1001
0000
,
0000
0000
0100
0010
,
0100
0000
0001
1000
0001
1000
0000
0000
,
0020
0000
0000
0000
0130
0000
0000
0100
,
0000
0000
0001
0000
0000
0001
0000
0000
,
0010
0100
1000
0100
,
0100
0000
0000
0000
1000
0000
0000
1000
,
0000
0000
0010
0000
0000
0010
0000
0000
,
0100
0001
0100
0010
,
1000
0000
0002
0000
0103
0000
0000
0100
,
0000
0000
0010
0000
0000
0010
0000
0000
,
1000
0000
0000
1000
0000
0000
0001
0000
,
0000
0001
0000
0000
0010
0000
0100
0000
,
1000
0010
0001
1000
,
0100
0001
0010
0100
,
1000
0010
0110
0000
,
2002
0000
0000
0000
,
3003
0000
0000
1000
1000
0000
0000
0001
,
0001
0000
0000
0100
0100
0000
0010
0000
,
0010
1001
1000
0000
,
0100
0000
0001
0000
,
0010
0000
1000
0000
,
0100
0000
0001
0000
,
0010
0000
1000
0100
,
0020
0030
0001
0010
,
0200
0300
1000
0100
,
0010
0001
0010
0100
,
1000
0000
0001
0000
0100
0010
0100
0000
,
0001
0000
0000
0000
0100
0010
0100
0000
,
1000
0000
0000
0000
0100
0000
0000
0001
,
0000
0000
1000
0000
0000
0010
0000
0000
,
0100
0110
2000
0000
,
3000
0020
0000
0030
,
0002
0000
0003
0200
,
0000
0300
1000
0010
,
0100
1000
0001
0100
,
1000
0010
0100
2000
,
0000
3000
0100
0001
,
0010
0100
0001
0010
,
1000
0001
0010
0200
,
0000
0300
1000
0010
,
0200
0000
0000
0300
,
0001
0100
0020
0000
,
0000
0030
1010
0000
,
0000
1100
0000
0000
,
0011
0000
0000
0101
,
0000
0000
1001
0010
,
0010
0000
0000
0100
0100
0000
0010
0000
,
0100
0000
0000
0001
0001
0000
0000
1000
,
1000
0000
0000
0001
0001
0000
1000
0000
,
0001
1001
1000
1000
,
0010
0010
0001
0100
,
1000
0000
0001
0001
,
0010
0010
1000
0100
,
0001
0000
1000
1000
,
0100
0100
0001
0010
,
1000
0000
0001
0001
,
0100
0100
1000
0010
,
0001
0000
1000
0010
,
0100
1000
0100
0010
,
0001
0010
0100
0001
,
1000
0100
0010
1000
,
0010
0001
1000
0100
,
0001
0100
0010
0001
,
0100
1000
0100
0010
,
0001
0010
1000
0100
,
0010
0000
1001
0000
0110
0000
1000
1000
,
0000
0001
0001
0100
0000
0000
0000
0000
;

//---------------dance-double - ----------------
#NOTES:
     dance-double:
     :
     Easy:
     9:
     0.347979,0.430837,0.137333,0.122877,0.000000,337.000000,318.000000,19.000000,17.000000,0.000000,0.000000,0.347979,0.430837,0.137333,0.122877,0.000000,337.000000,318.000000,19.000000,17.000000,0.000000,0.000000:
00000000
00000000
00000000
00000000
,
00000000
00000000
00000000
00000000
,
00000000
00000000
00000000
00000000
,
00000000
00000000
00000000
00000000
,
00000000
00000000
01000000
00100000
,
01000000
00100000
00010000
00001000
,
00010000
00001000
00000100
00000010
,
00000100
00000010
00010000
00001000
,
00010000
00001000
00011000
00000000
,
00000000
00000000
00000000
01000000
01000000
00000000
00000000
00000000
,
00000000
00000000
00000000
00000100
00000100
00000000
00000000
00100000
,
00100000
00000000
00000000
00000010
00000010
00000000
00000100
00000000
,
00000010
00000110
00000001
00000001
,
00000100
00000100
00000010
00010000
,
00001000
00000000
00010000
00010000
,
00001000
00001000
01000000
00010000
,
10000000
00000000
10000000
10000000
,
01000000
01000000
00100000
00001000
,
00010000
00000000
00001000
00001000
,
00010000
00010000
00000100
00000010
,
00000001
00001001
00000100
00000100
,
00000100
00000000
00000000
00000010
00000010
00000000
00000000
00010000
,
00000000
00001000
00100000
01000000
,
10000000
00000000
00100000
00000000
00010000
00000000
00000000
00001000
,
00000000
00010000
00020000
00000000
00030100
00000000
00000000
00000000
,
00010000
00000000
01000000
00000000
,
00001000
00000000
00000100
00000000
,
00010000
00000000
01000000
00000000
,
00001000
00000000
00010000
00000000
,
00100000
00000000
00001000
00000000
,
00000010
00000000
00010000
00000000
,
00100000
00000000
00001000
00000000
,
00000010
00000000
00000100
00000000
,
00000001
00000000
00000010
00000000
,
00001000
00000000
00010000
01000000
,
11000000
00000000
10000000
01000000
,
01010000
00000000
01000000
00000000
,
10000000
00000000
00100000
00000000
,
00010000
00000000
00000000
00001000
,
00000010
00000011
00000000
00000010
,
00001000
00010000
00022000
00000000
,
00000000
00033000
00011000
00000000
,
00000000
00000000
00001000
00010000
,
00001000
00000000
00010000
00001000
00010000
00001000
00000000
00000000
,
00020000
00000000
00000000
00000000
00031000
00000000
00000000
00001000
,
00000000
00000000
00000010
00000000
00000000
00000010
00000000
00000000
,
00000001
00000100
00001000
00010000
,
01000000
00000000
00000000
00000000
10000000
00000000
00000000
10000000
,
00000000
00000000
00100000
00000000
00000000
00100000
00000000
00000000
,
00010000
00001000
00000010
00000001
,
00000100
00000000
00002000
00000000
00013000
00000000
00000000
00010000
,
00000000
00000000
00100000
00000000
00000000
00100000
00000000
00000000
,
00001000
00000000
00000000
00001000
00000000
00000000
00000010
00000000
,
00000000
00000010
00000000
00000000
00010000
00000000
00001000
00000000
,
00000100
00010000
01000000
00001000
,
00010000
00100000
00010000
00001000
,
00000010
00001000
00011000
00000000
,
00022000
00000000
00000000
00000000
,
00033000
00000000
00000000
00100000
00100000
00000000
00000000
00000010
,
00000010
00000000
00000000
01000000
01000000
00000000
00000100
00000000
,
00000100
00001001
00000001
00000000
,
00000010
00000000
00001000
00000000
,
00010000
00000000
00100000
00000000
,
10000000
00000000
01000000
00000000
,
00010000
00000000
00001000
00010000
,
00000020
00000030
00010000
00001000
,
02000000
03000000
00001000
00010000
,
00000100
00010000
00001000
00100000
,
00001000
00000000
00010000
00000000
00000010
00000100
00000010
00000000
,
00001000
00000000
00000000
00000000
01000000
00100000
01000000
00000000
,
00010000
00000000
00000000
00000000
00001000
00000000
00000000
00001000
,
00000000
00000000
00010000
00000000
00000000
00010000
00000000
00000000
,
00001000
00011000
02000000
00000000
,
03000000
00002000
00000000
00003000
,
00020000
00000000
00030000
00000020
,
00000000
00000030
00001000
00000001
,
00000100
00001000
00010000
00100000
,
10000000
01000000
00100000
00020000
,
00000000
00030000
10000000
01000000
,
00010000
00001000
00000010
00000001
,
00000100
00000010
00001000
00000002
,
00000000
00000003
00000100
00001000
,
00020000
00000000
00000000
00030000
,
01000000
00010000
00002000
00000000
,
00000000
00003000
01001000
00000000
,
00000000
00010100
00000000
00000000
,
00101000
00000000
00000000
00010010
,
00000000
00000000
00011000
00100000
,
00100000
00000000
00000000
00010000
00010000
00000000
00000100
00000000
,
00000010
00000000
00000000
00000001
00000001
00000000
00000000
00010000
,
00010000
00000000
00000000
00001000
00001000
00000000
10000000
00000000
,
00010000
10010000
10000000
10000000
,
01000000
01000000
00010000
00001000
,
00000010
00000000
00000001
00000001
,
00000100
00000100
00001000
00010000
,
01000000
00000000
10000000
10000000
,
01000000
01000000
00010000
00001000
,
00000100
00000000
00000001
00000001
,
00000010
00000010
00001000
00010000
,
00100000
00000000
10000000
01000000
,
00100000
01000000
00010000
00001000
,
00000010
00000000
00000001
00000100
,
00000010
00000100
00001000
00010000
,
01000000
00000000
10000000
00100000
,
00010000
01000000
00010000
00001000
,
00000100
00001000
00000010
00000001
,
00000100
00001000
00010000
00100000
,
10000000
00000000
01000000
00000000
01100000
00000000
00010000
00010000
,
00000000
00001000
00001000
00000010
00000000
00000000
00000000
00000000
;

//---------------dance-single - ----------------
#NOTES:
     dance-single:
     :
     Medium:
     13:
     0.605091,0.746747,0.368630,0.209613,0.050596,586.000000,535.000000,51.000000,29.000000,0.000000,0.000000,0.605091,0.746747,0.368630,0.209613,0.050596,586.000000,535.000000,51.000000,29.000000,0.000000,0.000000:
0000
0000
0000
0000
,
0000
0000
0000
0000
,
0000
0000
0000
0000
,
0000
0000
0000
0000
,
0000
0000
1001
1000
,
0010
0100
0001
0100
,
0010
1000
1100
0100
,
0010
0001
0011
1000
,
1010
0001
0202
0000
,
0000
0303
0000
0001
2000
0000
0000
0000
,
0000
0000
3000
0000
0000
0000
1000
0000
0010
0000
0000
0010
0000
0000
0010
0000
,
0100
0000
0000
0100
0000
0000
0100
0000
0001
0000
0000
0000
1000
0000
0000
0000
,
0001
1000
1001
0000
0001
0010
0001
0000
,
1000
0010
1000
0000
0001
0010
0001
0010
,
0001
0000
0000
0000
1000
0100
1000
0000
,
0001
0100
0001
0000
1000
0100
1000
0100
,
1000
0000
0000
0000
0010
0100
0010
0000
,
1000
0001
1000
0000
0010
0100
0010
0100
,
0010
0000
0000
0000
1000
0100
0010
0000
,
0001
0100
0010
0000
1000
0100
0010
0001
,
0200
0000
0000
0000
0301
0010
0100
1000
,
0100
0000
1000
0010
0110
0000
0100
0001
,
0000
1000
0010
0010
0100
0001
0010
0000
,
0100
1000
0010
0000
0110
0000
0100
0001
,
0000
1000
0010
0100
0010
0000
0010
0000
,
1000
0000
1000
0000
0100
0010
0001
1000
,
0010
0100
0001
0001
,
0010
0000
0010
0000
0100
1000
0001
0100
,
0010
1000
0100
0100
,
0010
0000
0010
0000
0001
0100
0010
1000
,
0001
0010
0100
0100
,
1000
0000
1000
0000
0010
0100
0001
1000
,
0100
0000
0110
0000
0001
0100
0010
0000
,
0001
0010
0100
0000
1000
0100
0010
0000
,
1000
0010
0100
0000
1000
0100
0001
0010
,
0200
0000
0001
0001
,
1000
0000
1300
0000
1000
0010
0001
0000
,
1000
0100
0001
0000
0001
0010
1000
0000
,
0001
0100
2000
0000
0000
3001
0100
0010
,
1000
0001
0100
0100
0000
1000
0100
0010
,
0001
1000
0100
0010
0220
0000
0000
0000
,
0000
0330
2002
0000
,
0000
0000
0000
3003
,
1001
0000
0001
0010
0100
0010
0000
0000
,
1000
0010
0100
0010
0001
0000
0000
0101
,
0000
0000
1000
0000
0000
1010
0000
0000
,
0010
0100
0001
0000
0100
0000
0010
0000
,
0100
0010
1000
0000
0001
0000
0000
0011
,
0000
0000
1000
0000
0000
1100
0000
0000
,
0100
0010
0001
0100
,
1000
0000
0010
0000
0110
0000
0000
0101
,
0000
0000
0011
0000
0000
1100
0000
0000
,
1010
0000
0000
0110
0000
0000
1001
0000
,
0000
0110
0000
0000
1001
0000
0001
0000
,
0100
1000
0001
0010
,
1000
0100
0010
0001
,
0100
0010
1000
0001
0200
0000
0300
0000
,
0120
0000
0000
1030
2000
0000
0000
0000
,
0000
0000
3000
0001
0002
0000
0003
0100
,
0200
0000
0300
0010
0010
0000
0110
0000
,
1000
0000
1001
0000
0001
0100
0000
1010
,
0000
1100
0000
0011
0000
0101
0000
1000
,
0000
0010
0000
0100
0100
0001
0000
0110
,
0000
1010
0000
0101
0000
0011
0000
1100
,
0000
0110
0000
0010
0001
0100
0000
0100
,
0010
1000
0000
1000
0001
0100
0000
0100
,
0001
1000
0000
1000
0010
0001
0000
0001
,
0010
1000
0000
1000
0100
0010
0000
0100
,
0010
0001
0000
0100
0100
0010
1000
0001
,
0100
0000
0100
0000
0010
1000
0001
0100
,
0010
0000
0010
0000
1000
0100
0000
0001
,
0100
0000
1000
0100
0000
0001
0100
0000
,
1000
0100
0010
0001
0200
0000
0000
0310
,
0010
0010
0020
0000
0000
1030
1000
1000
,
2000
0000
0000
3001
0001
0001
0002
0000
,
0013
0100
0010
0100
1000
0000
1000
0000
0010
0000
0000
0010
0001
0000
0100
0000
,
0010
0000
0000
0010
0001
0000
1000
0000
0010
0000
0000
0010
0001
0000
0100
0000
,
0010
0000
0000
0010
0001
0000
1000
0000
0100
0000
0010
0000
0002
0000
0000
0000
,
0100
0000
0000
0000
1000
0000
0000
0000
0013
0000
0000
0010
1000
0000
0100
0000
,
0010
0000
0000
0010
1000
0000
0001
0000
0010
0000
0000
0010
1000
0000
0100
0000
,
0010
0000
0000
0010
1000
0000
0001
0000
0100
0000
0010
0000
2000
0000
0000
0000
,
0100
0000
0000
0000
0001
0000
0000
0000
3010
0000
0000
0010
0001
0000
0100
0000
,
0002
0010
1000
0100
,
0013
0000
0000
0010
1000
0000
0100
0000
2000
0000
0000
0000
0010
0000
0000
0000
,
0001
0000
3100
0000
0110
0000
0000
0010
,
0001
0100
0101
0000
0000
0100
1000
0010
,
1010
0000
0000
1000
0001
0010
0011
0000
,
0000
0001
1000
0100
1100
0000
0001
0010
,
0200
0000
0000
1300
0010
0000
0100
0000
,
0002
0000
0000
1003
0200
0000
0000
0310
,
0002
0000
0000
0103
0010
0000
0110
0000
,
0101
0000
1010
0000
1000
0100
0010
0000
,
0100
1000
0010
0000
1000
0100
0010
0100
,
1000
0000
0000
0000
0001
0010
0100
0000
,
0010
0001
0100
0000
0001
0010
0100
0010
,
0001
0000
0000
0000
1000
0010
0100
0000
,
1000
0100
0010
0000
1000
0100
0001
0100
,
1000
0000
0000
0000
0001
0100
0010
0000
,
0001
0010
0100
0000
0001
0010
1000
0010
,
0001
0000
1001
0000
1000
0010
0100
0000
,
0010
1000
0100
0000
0001
0100
1000
0010
,
0001
0000
0110
0000
0001
0010
0100
0000
,
0010
0001
0100
0000
1000
0100
0001
0010
,
1000
0000
0110
0000
1000
0010
0001
0100
,
1000
0100
0010
0000
0001
0010
1000
0100
,
0001
0100
0010
0000
0001
0100
1000
0100
,
0001
0100
0010
1000
0010
0001
0010
0100
,
0001
1000
0100
0000
0110
0000
0010
0001
,
0000
0100
1000
2002
0000
0000
3003
0000
;

//---------------dance-double - ----------------
#NOTES:
     dance-double:
     :
     Medium:
     13:
     0.566885,0.668142,0.260210,0.187929,0.050596,549.000000,513.000000,36.000000,26.000000,0.000000,0.000000,0.566885,0.668142,0.260210,0.187929,0.050596,549.000000,513.000000,36.000000,26.000000,0.000000,0.000000:
// measure 0
00000000
00000000
00000000
00000000
,  // measure 1
00000000
00000000
00000000
00000000
,  // measure 2
00000000
00000000
00000000
00000000
,  // measure 3
00000000
00000000
00000000
00000000
,  // measure 4
00000000
00000000
00011000
00001000
,  // measure 5
00100000
00001000
00010000
00000100
,  // measure 6
00010000
00000010
00010010
00010000
,  // measure 7
00001000
01000000
01001000
00001000
,  // measure 8
00010100
00010000
00202000
00000000
,  // measure 9
00000000
00303000
00000000
00001000
00020000
00000000
00000000
00000000
,  // measure 10
00000000
00000000
00030000
00000000
00000000
00000000
00010000
00000000
00000100
00000000
00000000
00000100
00000000
00000000
00000100
00000000
,  // measure 11
00000010
00000000
00000000
00000010
00000000
00000000
00000010
00000000
00000001
00000000
00000000
00000000
00000100
00000000
00000000
00000000
,  // measure 12
00001000
00010000
00011000
00000000
00001000
00000000
00010000
00000000
,  // measure 13
00100000
00000000
10000000
00000000
01000000
00100000
01000000
00100000
,  // measure 14
01000000
00000000
00010000
00001000
,  // measure 15
00000010
00000000
00000001
00000000
00000100
00000010
00000100
00000010
,  // measure 16
00000100
00000000
00001000
00010000
,  // measure 17
01000000
00000000
10000000
00000000
00100000
01000000
00100000
01000000
,  // measure 18
00100000
00000000
00010000
00001000
,  // measure 19
00000100
00000000
00000001
00000000
00000010
00000100
00000010
00000100
,  // measure 20
00000020
00000000
00000000
00000000
00000031
00000100
00001000
00010000
,  // measure 21
00100000
00000000
10000000
01000000
00100000
00000000
01000000
00010000
,  // measure 22
00000000
00001000
00010000
00001000
00000010
00000001
00000100
00000000
,  // measure 23
00000010
00001000
00000100
00000000
00000110
00000000
00000001
00000100
,  // measure 24
00000000
00001000
00010000
00001000
01000000
00000000
01000000
00000000
,  // measure 25
00100000
00000000
00100000
00000000
10000000
01000000
00010000
00001000
,  // measure 26
00000100
00000001
00000010
00000010
,  // measure 27
00000100
00000000
00000100
00000000
00010000
00001000
00000010
00000001
,  // measure 28
00000100
00001000
00010000
00010000
,  // measure 29
00100000
00000000
00100000
00000000
10000000
01000000
00100000
00010000
,  // measure 30
01000000
00001000
00010000
00010000
,  // measure 31
00000100
00000000
00000100
00000000
00000010
00000001
00001000
00000010
,  // measure 32
00000100
00000000
00000110
00000000
00000001
00000100
00001000
00000000
,  // measure 33
00010000
00100000
10000000
00000000
10000000
01000000
00010000
00000000
,  // measure 34
00001000
00000010
00000001
00000000
00000100
00001000
00010000
00100000
,  // measure 35
02000000
00000000
10000000
00100000
,  // measure 36
00010000
00000000
03001000
00000000
00001000
00010000
01000000
00000000
,  // measure 37
00010000
00001000
00000100
00000000
00001000
00010000
00100000
00000000
,  // measure 38
00010000
00001000
00000020
00000000
00000000
00000031
00000001
00000100
,  // measure 39
00001000
00010000
01000000
10000000
00000000
10000000
10000000
00100000
,  // measure 40
00010000
00001000
00000010
00000001
00002002
00000000
00000000
00000000
,  // measure 41
00000000
00003003
00000220
00000000
,  // measure 42
00000000
00000000
00000000
00000330
,  // measure 43
00011000
00000000
00001000
00010000
00100000
00010000
00000000
00000000
,  // measure 44
00001000
00000010
00001000
00010000
00100000
00000000
00000000
10100000
,  // measure 45
00000000
00000000
01000000
00000000
00000000
01010000
00000000
00000000
,  // measure 46
00010000
00100000
10000000
00000000
00100000
00000000
01000000
00000000
,  // measure 47
00010000
00001000
00000010
00000000
00000100
00000000
00000000
00001100
,  // measure 48
00000000
00000000
00000010
00000000
00000000
00000011
00000000
00000000
,  // measure 49
00000001
00000100
00001000
00010000
,  // measure 50
00100000
00000000
10000000
00000000
11000000
00000000
00000000
01010000
,  // measure 51
00000000
00000000
00011000
00000000
00000000
00001010
00000000
00000000
,  // measure 52
00000011
00000000
00000000
00001100
00000000
00000000
00010010
00000000
,  // measure 53
00000000
01001000
00000000
00000000
00110000
00000000
00100000
00000000
,  // measure 54
01000000
10000000
00100000
00010000
,  // measure 55
00001000
00000100
00000001
00000010
,  // measure 56
00000100
00010000
00001000
01000000
00200000
00000000
00300000
00000000
,  // measure 57
20100000
00000000
00000000
30010000
00020000
00000000
00000000
00000000
,  // measure 58
00000000
00000000
00000000
01030000
02000000
00000000
00000000
03001000
,  // measure 59
00002000
00000000
00000000
00013000
00010000
00000000
00011000
00000000
,  // measure 60
00000100
00000000
00001001
00000000
00000001
00000010
00000000
00000100
,  // measure 61
00000000
00010000
00000000
01000000
00000000
00001000
00000000
00000100
,  // measure 62
00000000
00010000
00000000
00100000
00100000
10000000
00000000
01000000
,  // measure 63
00000000
00001000
00000000
00000100
00000000
00010000
00000000
00100000
,  // measure 64
00000000
00001000
00000000
00000010
00000010
00000100
00000000
00000100
,  // measure 65
00000001
00000010
00000000
00000010
00001000
00010000
00000000
00001000
,  // measure 66
00010000
00100000
00000000
00100000
10000000
01000000
00000000
01000000
,  // measure 67
00010000
00001000
00000000
00010000
00001000
00000100
00000000
00000100
,  // measure 68
00000001
00000010
00000000
00001000
00010000
00100000
00010000
00001000
,  // measure 69
00000010
00000000
00000010
00000000
00001000
00000010
00001000
00010000
,  // measure 70
00100000
00000000
00100000
00000000
10000000
01000000
00000000
01000000
,  // measure 71
00010000
00000000
00010000
00001000
00000000
00001000
00000010
00000000
,  // measure 72
00000010
00000001
00000100
00000010
00001001
00000000
00000000
00000001
,  // measure 73
00001000
00000001
00001000
00000000
00000000
00001000
00010000
00001000
,  // measure 74
00010000
00000000
00000000
00010000
10000000
00010000
20000000
00000000
,  // measure 75
30100000
01000000
00100000
01000000
00010000
00000000
00010000
00000000
10000000
00000000
00000000
00100000
00010000
00000000
00000000
00000000
,  // measure 76
10000000
00000000
00000000
01000000
00010000
00000000
00000000
00000000
10000000
00000000
00000000
00100000
00010000
00000000
00000000
00000000
,  // measure 77
10000000
00000000
00000000
01000000
00010000
00000000
00100000
00000000
01000000
00000000
00010000
00000000
00002000
00000000
00000000
00000000
,  // measure 78
00100000
00000000
00000000
00000000
00000010
00000000
00000000
00000000
00003001
00000000
00000000
00000100
00001000
00000000
00000000
00000000
,  // measure 79
00000001
00000000
00000000
00000010
00001000
00000000
00000000
00000000
00000001
00000000
00000000
00000100
00001000
00000000
00000000
00000000
,  // measure 80
00000001
00000000
00000000
00000010
00001000
00000000
00000100
00000000
00000010
00000000
00001000
00000000
00020000
00000000
00000000
00000000
,  // measure 81
00000100
00000000
00000000
00000000
01000000
00000000
00000000
00000000
10030000
00000000
00000000
10000000
00100000
00000000
00010000
00000000
,  // measure 82
00002000
01000000
00010000
00000010
,  // measure 83
00003001
00000000
00000000
00000001
00000100
00000000
00001000
00000000
00020000
00000000
00000000
00000000
00000010
00000000
00000000
00000000
,  // measure 84
00001000
00000000
00130000
00000000
10100000
00000000
00000000
10000000
,  // measure 85
01000000
00010000
00001000
00000000
00000000
01000000
00010000
00001000
,  // measure 86
00000100
00000000
00000000
00100000
00010000
00001000
00000010
00000000
,  // measure 87
00000000
00010000
00001000
00000010
00000001
00000000
00001000
00000100
,  // measure 88
00000020
00000000
00000000
00001030
00010000
00000000
00100000
00000000
,  // measure 89
20000000
00000000
00000000
31000000
00020000
00000000
00000000
00031000
,  // measure 90
00000020
00000000
00000000
00000031
00000100
00000000
00001000
00000000
,  // measure 91
00011000
00011000
00010000
00100000
,  // measure 92
10000000
00000000
01000000
00000000
00010000
00100000
01000000
00010000
,  // measure 93
00001000
00000000
00001000
00000010
,  // measure 94
00000001
00000000
00000100
00000000
00001000
00000010
00000100
00001000
,  // measure 95
00010000
00000000
00010000
01000000
,  // measure 96
10000000
00000000
00100000
00000000
00010000
01000000
00100000
00010000
,  // measure 97
00001000
00000000
00001000
00000100
,  // measure 98
00000001
00000000
00000010
00000000
00001000
00000100
00000010
00001000
,  // measure 99
00010000
00000000
00011000
00000000
00001000
00010000
01000000
00000000
,  // measure 100
00001000
00010000
00100000
00000000
00001000
00010000
01000000
10000000
,  // measure 101
00100000
00000000
00011000
00000000
00010000
00001000
00000010
00000000
,  // measure 102
00010000
00001000
00000100
00000000
00010000
00001000
00000010
00000001
,  // measure 103
00000100
00000000
00011000
00000000
00010000
00001000
00010000
01000000
,  // measure 104
10000000
01000000
00010000
00000000
00001000
00010000
00001000
00000010
,  // measure 105
00000001
00000010
00001000
00000000
00010000
00001000
00010000
01000000
,  // measure 106
10000000
00100000
00010000
00001000
00000100
00000001
00000010
00001000
,  // measure 107
00010000
00001000
01000000
00000000
01100000
00000000
10000000
01000000
,  // measure 108
00000000
00010000
00000100
00000220
00000000
00000000
00000330
00000000
;
