#TITLE:熱情のスペクトラム (TEGRA39 Remix);
#SUBTITLE:;
#ARTIST:いきものがかり;
#TITLETRANSLIT:Netsujou no Spectrum (TEGRA39 Remix);
#SUBTITLETRANSLIT:;
#ARTISTTRANSLIT:Ikimono-gakari;
#GENRE:WORLD MUSIC;
#CREDIT:MUINELIM;
#BANNER:Netsujou no Spectrum (TEGRA39 Remix).png;
#BACKGROUND:Netsujou no Spectrum (TEGRA39 Remix)-bg.png;
#LYRICSPATH:;
#CDTITLE:;
#MUSIC:Netsujou no Spectrum (TEGRA39 Remix).ogg;
#OFFSET:-0.050000;
#SAMPLESTART:62.800003;
#SAMPLELENGTH:14.299999;
#SELECTABLE:YES;
#BPMS:0.000000=150.000000
;
#STOPS:
;
#BGCHANGES:;
#KEYSOUNDS:;
#ATTACKS:;

//---------------dance-single - ----------------
#NOTES:
     dance-single:
     :
     Beginner:
     1:
     0.072213,0.172791,0.009721,0.000000,0.000000,52.000000,51.000000,1.000000,0.000000,0.000000,0.000000,0.072213,0.172791,0.009721,0.000000,0.000000,52.000000,51.000000,1.000000,0.000000,0.000000,0.000000:
0000
0000
0000
0000
,
0000
0000
0000
0000
,
0000
0000
0000
0000
,
0000
0000
0000
0000
,
0000
0000
0000
0000
,
0000
0000
0000
0000
,
0000
0000
0000
0000
,
0000
0000
0000
0000
,
0000
0000
0000
0000
,
0000
1000
0000
0000
,
0000
1000
0000
0000
,
0000
1000
0000
0000
,
0000
1000
0000
0000
,
0000
0001
0000
0000
,
0000
0001
0000
0000
,
0000
0001
0000
0000
,
0000
0001
0000
0000
,
0000
1000
0000
0000
,
0000
0001
0000
0000
,
0000
1000
0000
0000
,
0000
0001
0000
0000
,
0000
1000
0000
0000
,
0000
1000
0000
0000
,
0000
1000
0000
0000
,
0000
0000
0000
0000
,
0000
0001
0000
0000
,
0000
0001
0000
0000
,
0000
0001
0000
0000
,
0000
0000
0000
0000
,
0000
1000
0000
0000
,
0000
0001
0000
0000
,
0000
1000
0000
0000
,
0000
0001
0000
0000
,
0000
1000
0000
0000
,
0000
0001
0000
0000
,
0000
1000
0000
0000
,
0000
0001
0000
0000
,
0000
1000
0000
0000
,
0000
0001
0000
0000
,
0000
1000
0000
0000
,
0000
1000
0000
0000
,
0000
1000
0000
0000
,
0000
1000
0000
0000
,
0000
0001
0000
0000
,
0000
0001
0000
0000
,
0000
0001
0000
0000
,
0000
0001
0000
0000
,
0000
1000
0000
0000
,
0000
1000
0000
0000
,
0000
0001
0000
0000
,
0000
0001
0000
0000
,
0000
1000
0000
0000
,
0000
0001
0000
0000
,
0000
1000
0000
0000
,
0000
0001
0000
0000
,
0000
1000
0000
0000
,
0000
0001
0000
0000
,
0000
1000
0000
0001
,
0000
1000
0000
0001
,
0000
1001
0000
0000
;

//---------------dance-single - ----------------
#NOTES:
     dance-single:
     :
     Easy:
     4:
     0.147204,0.201589,0.009721,0.009721,0.000000,106.000000,105.000000,1.000000,1.000000,0.000000,0.000000,0.147204,0.201589,0.009721,0.009721,0.000000,106.000000,105.000000,1.000000,1.000000,0.000000,0.000000:
0000
0000
0000
0000
,
0000
0000
0000
0000
,
0000
0000
0000
0000
,
0000
0000
0000
0000
,
0000
0000
0000
0000
,
0000
0000
0000
0000
,
0000
0000
0000
0000
,
0000
0000
0000
0000
,
0000
0000
0000
0000
,
0000
1000
0000
0001
,
0000
1000
0000
0001
,
0000
0100
0000
0010
,
0000
0100
0000
0010
,
0000
1000
0000
0001
,
0000
0100
0000
0010
,
0000
1000
0000
0001
,
0000
0100
0000
0010
,
0010
0010
0000
1000
,
0000
0100
0000
0010
,
0000
0001
0000
0100
,
0000
0010
0010
0010
,
0010
0010
0000
1000
,
0000
0100
0000
1000
,
0000
0010
0000
1000
,
0000
0100
0000
1000
,
0000
0001
0000
0010
,
0000
0001
0000
0100
,
0000
0001
0000
0010
,
0000
0001
0000
0100
,
0000
1000
0000
0001
,
0000
1000
0000
0001
,
0000
0010
0000
0100
,
0000
0010
0000
0100
,
0000
1000
0000
0001
,
0000
0010
0000
0100
,
0000
1000
0000
0010
,
0000
0100
0000
0001
,
0000
1000
0000
0100
,
0000
0010
0010
0010
,
0010
0010
0000
0001
,
0000
0100
0000
1000
,
0000
0010
0000
0001
,
0000
0100
0000
1000
,
0000
0010
0000
0000
,
0000
0010
0000
0000
,
0000
0010
0000
0010
,
0000
0010
0010
0010
,
0010
0010
0000
1000
,
0000
0100
0000
0001
,
0000
0010
0000
1000
,
0000
0100
0000
0001
,
0000
0010
0000
0000
,
0000
0010
0000
0000
,
0000
0010
0000
0010
,
0000
0020
0030
0010
,
0100
0010
0000
0001
,
0000
0100
0000
1000
,
0000
0010
0000
0001
,
0000
0100
0000
1000
,
0000
1001
0000
0000
;

//---------------dance-single - ----------------
#NOTES:
     dance-single:
     :
     Medium:
     6:
     0.251357,0.287985,0.068047,0.145815,0.000000,181.000000,174.000000,7.000000,15.000000,0.000000,0.000000,0.251357,0.287985,0.068047,0.145815,0.000000,181.000000,174.000000,7.000000,15.000000,0.000000,0.000000:
0000
0000
0000
0000
,
0000
0000
0000
0000
,
0000
0000
0000
0000
,
0000
0000
0000
0000
,
0000
0000
0000
0000
,
0000
0000
0000
0000
,
0000
0000
0000
0000
,
0000
0000
0000
0000
,
0000
0000
0000
0000
,
0000
0010
1000
0100
,
1000
0010
0000
0100
,
0000
0001
0010
0100
,
0010
0001
0000
0100
,
0000
0010
1000
0100
,
0000
0010
0001
0100
,
0000
0010
1000
0100
,
0010
0002
0000
1000
,
1003
1000
0100
1000
,
0001
1000
0100
1000
,
0001
1000
0100
0010
,
0001
1000
0100
0010
,
0110
0001
0100
0001
,
0010
0001
0100
0001
,
0010
0002
0000
0103
,
0000
0100
0010
1000
,
1001
1000
0100
1000
,
0010
1000
0100
1000
,
0010
2000
0000
3100
,
0000
0100
0010
0001
,
1001
0010
0001
0100
,
0001
0010
0100
0010
,
0001
0100
0010
1000
,
0100
0010
0100
1000
,
0010
1000
0100
1000
,
0001
0100
0010
1000
,
0001
0010
0000
0010
,
0001
1000
0000
1000
,
0001
0010
0100
1000
,
0010
0220
0000
0000
,
0330
0001
0100
1000
,
0100
0002
0003
1000
,
0010
0001
0010
1000
,
0100
0020
0000
0030
,
0010
0100
1000
0020
,
0030
0100
0001
0020
,
0030
0100
1000
0010
,
0100
0001
1000
0001
,
1001
1000
0010
0001
,
0010
2000
3000
0001
,
0100
1000
0100
0001
,
0010
0200
0000
0300
,
0100
1000
0010
0200
,
0300
0001
0010
0200
,
0300
1000
0010
0100
,
0001
1000
0001
2002
,
3003
1000
0100
0010
,
0001
1000
0010
0001
,
0100
1000
0001
0010
,
0100
1000
0010
0100
,
0010
0110
0000
0000
;

//---------------dance-single - ----------------
#NOTES:
     dance-single:
     :
     Hard:
     10:
     0.402727,0.489574,0.106931,0.223583,0.000000,290.000000,279.000000,11.000000,23.000000,0.000000,0.000000,0.402727,0.489574,0.106931,0.223583,0.000000,290.000000,279.000000,11.000000,23.000000,0.000000,0.000000:
0000
0000
0000
0000
,
0000
0000
0000
0000
,
0000
0000
0000
0000
,
0000
0000
0000
0000
,
0000
0000
0000
0000
,
0000
0000
0000
0000
,
0000
0000
0000
0000
,
0000
0000
0000
0000
,
0000
0000
0000
0000
,
0000
0001
1000
0001
,
0100
0101
0001
1000
,
0100
2000
3010
0002
,
0013
2000
0010
0001
,
3010
0000
0010
1000
0100
0010
0001
0000
,
0010
0000
0001
0010
0100
1000
0010
0000
,
0100
0000
0010
1000
0100
0000
0010
0001
,
0100
0000
0010
1000
0001
0100
0010
0000
,
0110
2000
3100
0002
,
0103
2000
3010
0002
,
0013
2000
3001
0020
,
0130
0000
0100
1000
0010
0100
0001
0010
,
0010
0001
0100
0001
,
0010
0001
0100
0001
,
0010
0000
0002
0000
0000
0100
0103
0000
,
0000
0100
0010
1000
,
1001
1000
0100
1000
,
0010
1000
0100
1000
,
0010
0000
2000
0000
0000
0100
3100
0000
,
0000
0000
0100
0010
0001
1000
0100
0000
,
0110
0000
0001
0010
0100
0000
1000
0010
,
0100
0000
0010
1000
0100
0000
0100
0010
,
0001
0000
1000
0010
0100
0000
0010
1000
,
0100
0000
0010
0100
1000
0000
0010
0100
,
0001
0000
1000
0100
0010
0000
0001
0010
,
0100
0000
1000
0010
0100
0000
0001
0100
,
0010
0000
1001
0010
0100
0000
0010
1000
,
0100
0000
0010
0001
1000
0000
0100
1000
,
0001
0000
0010
0100
1000
0010
0100
0001
,
0100
0010
2000
0000
3002
0000
1003
0001
,
1001
0000
1000
0100
0001
0100
1000
0100
,
0001
0100
2000
0001
0000
0001
3000
0001
,
1000
0000
0001
0010
1000
0010
0001
0010
,
1000
0010
0002
0100
0000
0100
0000
0100
,
0103
0001
0010
0100
1000
0010
0100
0000
,
0100
0001
0010
0100
1000
0010
0100
0000
,
0100
0001
0010
0000
0011
0000
1000
0000
,
1010
0000
0001
0010
0100
1000
0010
0100
,
0110
0000
0010
1000
0100
0001
0100
1000
,
0010
0001
0020
1000
0000
1000
0030
1000
,
0010
0000
0100
0001
0010
1000
0010
0001
,
0100
1000
0200
0001
0000
0001
0000
0001
,
0301
0100
0010
1000
0100
0010
0001
0000
,
0001
0100
0010
1000
0100
0010
0001
0000
,
0001
0100
0010
1000
0001
0010
0100
1000
,
0010
0100
0010
0010
0010
1000
0001
0000
,
1001
2000
3100
0002
,
0013
2000
3010
0002
,
0103
0020
0130
2000
,
3001
0000
0001
0100
1000
0010
0001
0100
,
0100
0110
0000
0000
;

//---------------dance-double - ----------------
#NOTES:
     dance-double:
     :
     Easy:
     5:
     0.154147,0.230388,0.058326,0.009721,0.000000,111.000000,105.000000,6.000000,1.000000,0.000000,0.000000,0.154147,0.230388,0.058326,0.009721,0.000000,111.000000,105.000000,6.000000,1.000000,0.000000,0.000000:
00000000
00000000
00000000
00000000
,
00000000
00000000
00000000
00000000
,
00000000
00000000
00000000
00000000
,
00000000
00000000
00000000
00000000
,
00000000
00000000
00000000
00000000
,
00000000
00000000
00000000
00000000
,
00000000
00000000
00000000
00000000
,
00000000
00000000
00000000
00000000
,
00000000
00000000
00000000
00000000
,
00000000
00001000
00000000
00100000
,
00000000
01000000
00000000
10000000
,
00000000
00100000
00000000
01000000
,
00000000
00001000
00000000
00010000
,
00000000
00000100
00000000
00000010
,
00000000
00000001
00000000
00001000
,
00000000
00000010
00000000
00010000
,
00000000
00001000
00000000
00100000
,
00010000
00110000
00000000
00100000
,
00000000
00001000
00000000
00010000
,
00000000
01000000
00000000
10000000
,
00000000
00100000
01000000
00010000
,
10000000
11000000
00000000
01000000
,
00000000
00010000
00000000
00001000
,
00000000
00100000
00000000
00010000
,
00000000
01000000
00000000
00001000
,
00000000
00010000
00000000
00000100
,
00000000
00000010
00000000
00000001
,
00000000
00000100
00000000
00001000
,
00000000
00010000
00000000
01000000
,
00000000
10000000
00000000
00100000
,
00000000
01000000
00000000
00010000
,
00000000
00100000
00000000
00001000
,
00000000
00010000
00000000
00000100
,
00000000
00000010
00000000
00000001
,
00000000
00000100
00000000
00001000
,
00000000
00010000
00000000
00001000
,
00000000
00000100
00000000
00000001
,
00000000
00000010
00000000
00001000
,
00000000
00010000
00100000
10000000
,
01000000
01100000
00000000
00100000
,
00000000
00010000
00000000
01000000
,
00000000
00001000
00000000
00010000
,
00000000
00000100
00000000
00000010
,
00000000
00000001
00000000
00000000
,
00000000
00000001
00000000
00000000
,
00000000
00000001
00000000
00000001
,
00000000
00000001
00000100
00001000
,
00010000
00011000
00000000
00001000
,
00000000
00100000
00000000
01000000
,
00000000
00010000
00000000
00001000
,
00000000
00000100
00000000
00000001
,
00000000
00000010
00000000
00000000
,
00000000
00000010
00000000
00000000
,
00000000
00000010
00000000
00000010
,
00000000
00000020
00000030
00001000
,
00010000
00010100
00000000
00000100
,
00000000
00000010
00000000
00000001
,
00000000
00000100
00000000
00010000
,
00000000
01000000
00000000
00100000
,
00000000
10100000
00000000
00000000
;

//---------------dance-double - ----------------
#NOTES:
     dance-double:
     :
     Medium:
     7:
     0.254135,0.287985,0.068047,0.136094,0.000000,183.000000,176.000000,7.000000,14.000000,0.000000,0.000000,0.254135,0.287985,0.068047,0.136094,0.000000,183.000000,176.000000,7.000000,14.000000,0.000000,0.000000:
00000000
00000000
00000000
00000000
,
00000000
00000000
00000000
00000000
,
00000000
00000000
00000000
00000000
,
00000000
00000000
00000000
00000000
,
00000000
00000000
00000000
00000000
,
00000000
00000000
00000000
00000000
,
00000000
00000000
00000000
00000000
,
00000000
00000000
00000000
00000000
,
00000000
00000000
00000000
00000000
,
00000000
00100000
00010000
00001000
,
00100000
01000000
00000000
00100000
,
00000000
00010000
01000000
00100000
,
00010000
00001000
00000000
00100000
,
00000000
00001000
00010000
01000000
,
00000000
10000000
00100000
00010000
,
00000000
00001000
00000100
00000001
,
00000010
00002000
00000000
00010000
,
00013000
00010000
00000100
00010000
,
00001000
00010000
00000100
00010000
,
00001000
00010000
01000000
10000000
,
00100000
00010000
00001000
00010000
,
00011000
00001000
01000000
00001000
,
00010000
00001000
01000000
00001000
,
00010000
00001000
00000100
00000001
,
00000010
00001000
00010000
00001000
,
00011000
00010000
01000000
10000000
,
00100000
00010000
00001000
00000100
,
00000001
00000020
00000000
00000130
,
00000000
00000100
00000010
00000001
,
00000101
00000100
00001000
00010000
,
00001000
00000100
00001000
00010000
,
00100000
10000000
01000000
00100000
,
01000000
00010000
00001000
00010000
,
00000010
00000100
00000010
00001000
,
00000100
00000010
00000001
00000100
,
00001000
00010000
00000000
01000000
,
00010000
00001000
00000000
00000010
,
00001000
00010000
00100000
10000000
,
01000000
02200000
00000000
00000000
,
03300000
00100000
00010000
01000000
,
00100000
00020000
00030000
00100000
,
10000000
01000000
00100000
00010000
,
01000000
00200000
00000000
00300000
,
01000000
00010000
00100000
00002000
,
00003000
00010000
00001000
00000020
,
00000030
00000001
00000100
00001000
,
00010000
00001000
00000100
00000010
,
00001010
00001000
00000100
00000010
,
00000001
00000200
00000300
00001000
,
00010000
00001000
00000100
00000001
,
00000010
00000200
00000000
00000300
,
00001000
00000010
00010000
00002000
,
00003000
00100000
01000000
20000000
,
30000000
00100000
00010000
00001000
,
00000010
00000001
00000100
00000220
,
00000330
00000010
00010000
00001000
,
00100000
01000000
10000000
00100000
,
00010000
00100000
01000000
00010000
,
00100000
01000000
00010000
00001000
,
00000010
00000110
00000000
00000000
;

//---------------dance-double - ----------------
#NOTES:
     dance-double:
     :
     Hard:
     11:
     0.412448,0.518373,0.087489,0.379119,0.000000,297.000000,288.000000,9.000000,39.000000,0.000000,0.000000,0.412448,0.518373,0.087489,0.379119,0.000000,297.000000,288.000000,9.000000,39.000000,0.000000,0.000000:
00000000
00000000
00000000
00000000
,
00000000
00000000
00000000
00000000
,
00000000
00000000
00000000
00000000
,
00000000
00000000
00000000
00000000
,
00000000
00000000
00000000
00000000
,
00000000
00000000
00000000
00000000
,
00000000
00000000
00000000
00000000
,
00000000
00000000
00000000
00000000
,
00000000
00000000
00000000
00000000
,
00000000
00010000
00001000
00010000
,
01000000
11000000
10000000
00100000
,
00010000
00002000
00203000
00320000
,
02030000
03002000
00023000
00030020
,
00001030
00000000
00001000
00000001
00000100
00001000
00010000
00000000
,
00100000
00000000
00010000
00001000
00000100
00000001
00000010
00000000
,
00001000
00000000
00000010
00000001
00000100
00001000
00010000
00100000
,
10000000
01000000
00100000
00010000
01000000
00100000
00010000
00001000
,
00000020
00000032
00000203
00002300
,
00023000
00230000
20300000
32000000
,
03200000
00320000
02030000
03002000
,
00013000
00000000
00010000
00001000
00000010
00001000
00010000
00100000
,
10000000
01000000
00100000
00010000
,
10000000
01000000
00100000
00010000
,
00001000
00000000
00000020
00000000
00000000
00000100
00000130
00000000
,
00000000
00000100
00000001
00001000
,
00001001
00000010
00000100
00001000
,
00000001
00000010
00000100
00001000
,
00010000
00000000
02000000
00000000
00000000
00100000
03100000
00000000
,
00000000
00000000
00100000
10000000
01000000
00010000
00001000
00000000
,
00010000
00000000
00001000
00010000
01000000
00000000
10000000
00100000
,
01000000
00000000
00100000
10000000
01000000
00000000
00010000
00001000
,
00000010
00000000
00000001
00000100
00000010
00000000
00000100
00000001
,
00000010
00000000
00001000
00010000
01000000
00000000
00010000
00001000
,
00000100
00000000
00001000
00010000
00100000
00000000
00010000
00001000
,
00000010
00000000
00000001
00000100
00001000
00000000
00010000
00100000
,
10000000
00000000
01000000
00100000
00010000
00001000
00100000
00010000
,
01000000
00001000
00010000
00000100
00001000
00000010
00010000
00001000
,
00000100
00000001
00000010
00001000
00010000
01000000
10000000
00100000
,
00010000
00001000
00021000
00000000
00032000
00000000
00013000
00001000
,
00011000
00000000
00010000
01000000
10000000
01000000
00010000
00001000
,
00010000
01000000
20000000
00010000
00000000
00010000
30000000
00010000
,
01000000
00001000
00001000
00000100
00000001
00000100
00001000
00010000
,
00001000
00000100
00000002
00001000
00000000
00001000
00000000
00001000
,
00001003
00000001
00000100
00001000
00010000
00100000
10000000
00000000
,
01000000
00100000
00010000
01000000
00100000
00010000
00001000
00000000
,
00100000
01000000
00010000
00000000
00011000
00000000
00101000
00000000
,
00010010
00000000
00010000
00001000
00000100
00000001
00000010
00000100
,
00001000
00000000
00000001
00000100
00001000
00010000
01000000
10000000
,
00100000
00010000
00002000
00100000
00000000
00100000
00000000
00103000
,
01000000
01000000
10000000
00100000
00010000
00001000
00000100
00000001
,
00000010
00001000
00020000
00000100
00000000
00000100
00000000
00030100
,
00000010
00000001
00001000
00000100
00000010
00000001
00000100
00000000
,
00001000
00010000
00100000
10000000
01000000
00100000
01000000
00000000
,
00010000
00001000
00000010
00001000
00010000
00100000
00010000
00001000
,
00000100
00001000
00010000
01000000
10000000
00100000
00010000
00000000
,
00011000
00002000
00203000
02300000
,
03020000
00032000
00003020
00000032
,
00000203
00002300
00023000
02030000
,
23000000
00000000
30100000
00010000
00001000
00000100
00000001
00000010
,
00000100
00001001
00000000
00000000
;

//---------------dance-single - ----------------
#NOTES:
     dance-single:
     :
     Challenge:
     12:
     0.548543,0.625182,0.388840,0.466608,0.145815,395.000000,355.000000,40.000000,48.000000,0.000000,0.000000,0.548543,0.625182,0.388840,0.466608,0.145815,395.000000,355.000000,40.000000,48.000000,0.000000,0.000000:
0000
0000
0000
0000
,
0000
0000
0000
0000
,
0000
0000
0000
0000
,
0000
0000
0000
0000
,
0000
0000
0000
0000
,
0000
1000
0000
0000
,
0000
0001
0000
0000
,
0000
0000
1000
0000
1000
0000
1000
0001
,
1000
0000
0001
0000
1000
0000
0001
0100
0001
0000
0010
0000
0100
0000
1000
0000
,
1001
0000
0002
0103
2000
3100
0002
0103
,
2000
3100
0002
0103
0000
1100
0000
1010
,
0000
0011
2000
3010
0002
0013
2000
3010
,
0002
0013
2000
3010
0000
0011
0000
0101
,
0100
0010
1010
0001
0010
0100
1000
0000
,
0010
0100
0101
1000
0100
0010
0001
0000
,
0100
0010
0110
0100
0001
0010
0110
0100
,
1000
0000
0010
0000
0110
0000
0100
0010
0100
0000
0001
0000
2000
0000
0000
0000
,
3001
0002
0023
2030
,
3200
2300
3020
0032
,
0203
0302
0023
2030
,
3200
0000
0000
0000
0301
0000
0000
0001
1000
0000
0020
0000
0000
0000
0130
0000
,
0110
0000
0010
1000
0100
0001
0100
1000
,
0010
0001
0010
1000
0100
0001
0100
1000
,
0010
0100
0002
0000
0103
0010
2000
0000
,
3001
0010
0200
0000
1300
0100
0020
0000
,
0031
0000
0001
0100
1000
0100
0001
0010
,
1000
0010
0001
0100
1000
0100
0001
0010
,
0100
1000
0002
0000
0013
0001
2000
0000
,
3010
0000
0100
0000
0010
0000
1000
0001
1000
0000
0001
0000
1001
0000
0000
0000
,
1010
0010
0101
0000
0001
0010
0100
0001
,
0100
0010
0001
0100
0000
1100
0000
0011
,
0001
0100
0010
0000
1010
0000
1000
0100
,
0001
0010
1000
0000
1001
0000
0110
0000
,
0101
0010
1010
0000
1000
0100
0010
1000
,
0010
0100
1000
0010
0000
0011
0000
1100
,
1000
0010
0101
0000
0001
0010
0100
0000
,
0001
0100
1010
0000
1000
0100
0010
0000
,
1000
0010
0110
0000
0001
0100
0110
0000
,
1000
0000
0001
0000
1000
0000
0000
0010
0100
0000
0020
0000
0000
0000
0130
0000
,
0110
0000
0000
0001
0100
0000
0000
1000
0100
0000
0000
0001
0100
0000
0000
1000
,
0100
0000
0000
0001
0100
0000
0010
0000
1000
0000
0001
0000
0100
0000
0010
0000
,
1000
0000
0000
0001
0010
0000
0000
1000
0010
0000
0000
0001
0010
0000
0000
1000
,
0010
0000
0000
0001
0010
0000
0100
0000
1000
0000
0001
0000
0010
0000
0100
0000
,
1000
0010
0101
1000
0100
0010
0100
0000
,
0001
0100
1010
0001
0010
0100
0010
0000
,
1000
0100
0011
0010
0001
0010
1100
0100
,
1000
0000
0100
0000
0010
0100
0000
0100
0010
0000
0002
0000
0000
0000
1000
0000
,
1003
0000
0000
1000
0010
0000
0000
0010
0001
0000
0000
0001
0100
0000
0000
0100
,
1000
0000
0000
1000
0010
0000
0100
0000
0001
0000
0100
0000
1000
0000
0100
0000
,
0001
0000
0000
0001
0010
0000
0000
0010
1000
0000
0000
1000
0100
0000
0000
0100
,
0001
0000
0000
0001
0010
0000
0100
0000
1000
0000
0100
0000
0001
0000
0100
0000
,
1000
0010
0101
1000
0100
0010
1000
0010
,
0001
0100
1010
0001
0010
0100
0001
0100
,
1000
0010
1001
0100
0001
0010
1001
0100
,
1000
0000
0010
0000
1001
0000
0001
1000
0001
0000
0100
0000
0020
0000
0000
0000
,
0130
2000
3020
0032
,
0203
0302
0023
2030
,
3200
2300
3020
0032
,
0203
0000
0000
0000
1300
0001
1000
0001
1000
0000
0020
0000
0000
0000
0130
0000
,
0101
2020
0000
0000
,
0000
0000
0000
0000
,
0000
3030
0000
0000
;

//---------------dance-double - ----------------
#NOTES:
     dance-double:
     :
     Challenge:
     12:
     0.517991,0.595412,0.418003,0.243025,0.000000,373.000000,330.000000,43.000000,25.000000,0.000000,0.000000,0.517991,0.595412,0.418003,0.243025,0.000000,373.000000,330.000000,43.000000,25.000000,0.000000,0.000000:
// measure 0
00000000
00000000
00000000
00000000
,  // measure 1
00000000
00000000
00000000
00000000
,  // measure 2
00000000
00000000
00000000
00000000
,  // measure 3
00000000
00000000
00000000
00000000
,  // measure 4
00000000
00000000
00000000
00000000
,  // measure 5
00000000
00010000
00000000
00000000
,  // measure 6
00000000
00001000
00000000
00000000
,  // measure 7
00000000
00000000
00010000
00000000
00010000
00000000
00010000
00001000
,  // measure 8
00010000
01000000
00100000
00001000
00010000
00000100
00000010
00001000
,  // measure 9
00011000
00000000
00010000
00001000
00010000
01000000
10000000
01000000
,  // measure 10
00010000
00001000
00010000
01000000
00000000
11000000
00000000
10010000
,  // measure 11
00000000
00110000
00001000
00010000
00001000
00000100
00000001
00000100
,  // measure 12
00001000
00010000
00001000
00000100
00000000
00000101
00000000
00001001
,  // measure 13
00000000
00001010
00000101
00000001
00000010
00001000
00010000
00000000
,  // measure 14
01000000
01010000
10100000
10000000
01000000
00010000
00001000
00000000
,  // measure 15
00000010
00000100
00000110
00000010
00001000
00010000
00011000
00001000
,  // measure 16
00010000
01000000
01100000
00100000
01000000
00100000
00020000
00000000
,  // measure 17
10030000
00000000
10100000
00000000
01010000
00000000
00010000
00200000
,  // measure 18
00000000
02000000
00300000
00000000
03020000
00000000
00031000
00000020
,  // measure 19
00000000
00000200
00000030
00000000
00020300
00000000
00031000
00200000
,  // measure 20
00000000
01300000
10000000
00100000
00010000
00002000
00000000
00013000
,  // measure 21
00011000
00000000
00010000
00001000
00000000
00000100
00000000
00010000
,  // measure 22
00000000
01000000
00000000
00001000
00000000
00000010
00000000
00010000
,  // measure 23
00000000
00100000
00000000
00001000
00000000
00000100
00000000
00010000
,  // measure 24
00000000
01000000
00000000
00001000
00000000
00000010
00000000
00010000
,  // measure 25
00100000
00001000
00011000
00010000
00000000
00100000
00000000
10000000
,  // measure 26
00000000
01000000
01010000
00001000
00000000
00000010
00000000
00000001
,  // measure 27
00000000
00000100
00001100
00010000
00000000
00001000
00011000
00100000
,  // measure 28
00000000
01000000
01100000
10000000
00100000
00010000
00002000
00000000
,  // measure 29
00013000
00001000
00000020
00000000
00000031
00000100
00001000
00000100
,  // measure 30
00000001
00000010
00001000
00000000
00010000
01000000
10000000
00000000
,  // measure 31
00100000
01000000
01010000
00000000
10100000
00000000
10000000
01000000
,  // measure 32
00100000
00010000
01010000
00000000
01001000
00000000
00011000
00000000
,  // measure 33
00001000
00010000
00200000
00000000
10300000
01000000
00010000
01000000
,  // measure 34
10000000
00100000
00010000
00000000
00001000
00000100
00000001
00000000
,  // measure 35
00000010
00000100
00001100
00000000
00000010
00000001
00000100
00001000
,  // measure 36
00010000
00100000
10100000
00000000
10000000
01000000
00010000
00001000
,  // measure 37
00000010
00000001
00000101
00000010
00001000
00000100
00010100
00010000
,  // measure 38
00001000
01000000
01001000
00001000
00010000
00100000
10000000
01000000
,  // measure 39
00100000
00000000
00001000
00010000
00100000
00010000
00001000
00010000
,  // measure 40
00100000
10000000
01000000
00010000
01000000
10000000
01000000
00010000
,  // measure 41
00001000
00000010
00000001
00000100
00001000
00000100
00000001
00000100
,  // measure 42
00001000
00010000
00001000
00000100
00001000
00010000
00001000
00000100
,  // measure 43
00000001
00000010
00000110
00001000
00010000
01000000
00100000
00000000
,  // measure 44
10000000
01000000
01100000
00010000
00001000
00000010
00000100
00000000
,  // measure 45
00000001
00001000
00001001
00000000
00000100
00000000
00011000
00000000
,  // measure 46
00100000
00000000
10010000
10000000
00100000
00010000
00001000
00000100
,  // measure 47
00000001
00000000
00000010
00001000
00010000
00100000
00010000
00001000
,  // measure 48
00000010
00001000
00010000
00100000
10000000
01000000
00010000
01000000
,  // measure 49
10000000
00100000
00010000
00001000
00000100
00001000
00010000
01000000
,  // measure 50
00010000
00001000
00000100
00000001
00000010
00001000
00000010
00000001
,  // measure 51
00000100
00001000
00110000
10000000
01000000
00010000
00001000
00000000
,  // measure 52
01000000
00010000
00001010
00000001
00000100
00001000
00010000
00000000
,  // measure 53
00001000
00010000
00010010
00000010
00010000
00001000
00101000
00100000
,  // measure 54
01000000
00010000
00011000
00001000
00000010
00000001
00000200
00000000
,  // measure 55
00000310
00000000
00001010
00000000
00000101
00000000
00000001
00000020
,  // measure 56
00000000
00000200
00000030
00000000
00002300
00000000
00013000
02000000
,  // measure 57
00000000
00200000
03000000
00000000
20300000
00000000
31000000
00200000
,  // measure 58
00000000
00320000
00000000
00032000
00000000
00003020
00000000
00000130
,  // measure 59
00000002
00002000
00000000
00000000
,  // measure 60
00000000
00000000
00000000
00000000
,  // measure 61
00000000
00003003
00000000
00000000
;
