#VERSION:0.83;
#TITLE:七色シンフォニー;
#SUBTITLE:;
#ARTIST:コアラモード;
#TITLETRANSLIT:Nanairo Symphony;
#SUBTITLETRANSLIT:;
#ARTISTTRANSLIT:Coalamode;
#GENRE:J-MUSIC;
#ORIGIN:;
#CREDIT:MUINELIM;
#BANNER:Nanairo Symphony.png;
#BACKGROUND:Nanairo Symphony-bg.png;
#PREVIEWVID:;
#JACKET:Nanairo Symphony-jacket.png;
#CDIMAGE:;
#DISCIMAGE:;
#LYRICSPATH:;
#CDTITLE:;
#MUSIC:Nanairo Symphony.mp3;
#OFFSET:-0.049000;
#SAMPLESTART:65.468361;
#SAMPLELENGTH:15.423870;
#SELECTABLE:YES;
#DISPLAYBPM:155.000000;
#BPMS:0.000=155.000;
#STOPS:;
#DELAYS:;
#WARPS:;
#TIMESIGNATURES:0.000=4=4;
#TICKCOUNTS:0.000=1;
#COMBOS:0.000=1;
#SPEEDS:0.000=1.000=0.000=0;
#SCROLLS:0.000=1.000;
#FAKES:;
#LABELS:0.000=Song Start;
#BGCHANGES:0.000=Nanairo Symphony-bg.png=0.000=1=0=0=StretchNoLoop==CrossFade=#000000=#000000,
3.000=Nanairo Symphony.avi=1.000=0=0=0=StretchNoLoop====,
99999=-nosongbg-=1.000=0=0=0 // don't automatically add -songbackground-
;
#KEYSOUNDS:;
#ATTACKS:
;

//---------------dance-single - ----------------
#NOTEDATA:;
#CHARTNAME:;
#STEPSTYPE:dance-single;
#DESCRIPTION:;
#CHARTSTYLE:;
#DIFFICULTY:Beginner;
#METER:1;
#RADARVALUES:0.095641,0.159140,0.010975,0.032925,0.000000,61.000000,60.000000,1.000000,3.000000,0.000000,0.000000,0.000000,0.000000,0.000000,0.095641,0.159140,0.010975,0.032925,0.000000,61.000000,60.000000,1.000000,3.000000,0.000000,0.000000,0.000000,0.000000,0.000000;
#CREDIT:MILEN;
#DISPLAYBPM:155.000000;
#NOTES:
0000
0000
0000
0000
,
0000
0000
0000
0000
,
0000
0000
0000
0000
,
0000
0000
0000
0000
,
0000
0000
0000
1000
,
0000
0000
0000
1000
,
0000
0000
0000
1000
,
0000
0000
0000
1000
,
0000
0000
0000
2000
,
0000
0000
0000
0000
,
0000
3000
0000
1000
,
0000
0001
0000
1000
,
0000
0001
0000
1000
,
0000
0000
0000
0000
,
0000
0000
0000
0001
,
0000
1000
0000
0001
,
0000
1000
0000
0001
,
0000
0000
0000
0000
,
0000
0000
0000
0100
,
0000
0010
0000
0100
,
0000
0010
0000
0100
,
0000
0000
0000
0000
,
0000
0000
0000
0010
,
0000
0100
0000
0010
,
0000
0100
0000
0010
,
0000
0000
0000
0010
,
0000
0010
0000
1000
,
0000
0000
0000
0100
,
0000
0000
0000
0010
,
0000
0000
0000
0001
,
0000
0000
0000
0100
,
0000
0000
0000
0010
,
0000
0000
0000
1000
,
0000
0000
0000
0001
,
0000
0000
0000
0010
,
0000
0000
0000
0100
,
0000
0000
0000
1000
,
0000
0000
0000
0010
,
0000
0000
0000
0100
,
0000
0000
0000
0001
,
0000
0000
0000
1000
,
0000
0000
0000
0010
,
0010
0000
0000
0100
,
0000
0000
0000
0001
,
0000
0000
0000
1000
,
0000
0000
0000
0010
,
0000
0000
0000
0100
,
0000
0000
0000
0100
,
0000
0000
0000
0100
,
0000
0000
0000
0000
,
0100
0100
0000
0001
,
0000
0000
0000
0010
,
0000
0000
0000
1000
,
0000
0000
0000
0100
,
0000
0000
0000
0001
,
0000
0000
0000
1000
,
0000
0000
0000
2002
,
0000
0000
0000
0000
,
3003
0000
0000
0000
;

//---------------dance-single - ----------------
#NOTEDATA:;
#CHARTNAME:;
#STEPSTYPE:dance-single;
#DESCRIPTION:;
#CHARTSTYLE:;
#DIFFICULTY:Easy;
#METER:5;
#RADARVALUES:0.239885,0.350107,0.098776,0.109751,0.000000,153.000000,144.000000,9.000000,10.000000,0.000000,0.000000,0.000000,0.000000,0.000000,0.239885,0.350107,0.098776,0.109751,0.000000,153.000000,144.000000,9.000000,10.000000,0.000000,0.000000,0.000000,0.000000,0.000000;
#CREDIT:MILEN;
#DISPLAYBPM:155.000000;
#NOTES:
0000
0000
0000
0000
,
0000
0000
0000
0000
,
0000
0000
0000
0000
,
0000
0000
0000
0000
,
0000
0000
0000
1000
,
0000
0000
0000
0001
,
0000
0000
0000
1000
,
0000
0000
0000
0001
,
0000
0000
0000
2002
,
0000
0000
0000
0000
,
0000
3003
0000
0001
,
0000
0100
0000
0001
,
0000
0100
0000
0001
,
0000
0001
0000
1000
,
0001
1000
0000
1000
,
0000
0100
0000
1000
,
0000
0100
0000
1000
,
0000
1000
0000
1000
,
0001
1000
0000
0010
,
0000
1000
0000
0010
,
0000
1000
0000
0010
,
0000
0010
0000
0100
,
0010
0100
0000
0100
,
0000
0001
0000
0100
,
0000
0001
0000
0100
,
0000
0100
0000
0010
,
0100
0020
0030
1000
,
0000
0001
0000
1000
,
0001
0100
0010
1000
,
0000
0001
0000
1000
,
0100
0010
0001
1000
,
0000
0001
0000
0100
,
0000
0010
0000
1000
,
0010
0100
0001
0100
,
0010
1000
0001
1001
,
0000
1001
0000
0001
,
0100
0010
1000
0002
,
0003
1000
0100
0010
,
0001
1000
1000
0010
,
0100
0001
0100
0010
,
0100
0001
0100
0020
,
0000
0000
0030
1001
,
1001
0000
0000
1000
,
0100
0010
0001
1000
,
0100
0010
0001
1000
,
0010
0100
0001
1000
,
0010
0100
0001
1000
,
0100
0010
0100
1000
,
0100
0010
0010
0001
,
0010
0100
0020
0030
,
0001
0100
1000
0010
,
0001
1000
0001
0100
,
0010
0100
0001
1000
,
1010
0001
0101
2000
,
3000
0001
1000
1001
,
0000
0010
0100
0010
,
1000
0100
0001
0020
,
0030
2002
0000
0000
,
3003
0000
0000
0000
;

//---------------dance-single - ----------------
#NOTEDATA:;
#CHARTNAME:;
#STEPSTYPE:dance-single;
#DESCRIPTION:;
#CHARTSTYLE:;
#DIFFICULTY:Medium;
#METER:9;
#RADARVALUES:0.396673,0.477419,0.109751,0.318279,0.005488,253.000000,243.000000,10.000000,29.000000,0.000000,0.000000,0.000000,0.000000,0.000000,0.396673,0.477419,0.109751,0.318279,0.005488,253.000000,243.000000,10.000000,29.000000,0.000000,0.000000,0.000000,0.000000,0.000000;
#CREDIT:MILEN;
#DISPLAYBPM:155.000000;
#NOTES:
0000
0000
0000
0000
,
0000
0000
0000
0000
,
0000
0000
0000
0000
,
0000
0000
0000
0000
,
0000
0000
0000
1000
,
0001
0100
0010
1000
,
0001
0001
0000
0000
0000
0000
0001
0000
,
1000
0010
0100
0001
,
1000
1000
0000
0000
0000
0000
2002
0000
,
3003
0000
0010
0000
0100
0100
0000
0010
,
0100
0000
0220
0000
0330
0000
0010
1000
,
0010
0000
1000
0000
0010
0000
1000
0010
,
1000
0010
1000
0100
,
0000
0100
0000
0000
0000
0000
1000
0100
,
0010
0002
0000
0000
0003
0000
0010
0001
,
0010
0000
0001
0000
0010
0000
0001
0010
,
0001
0010
0001
0100
,
0000
0100
0000
0000
0000
0000
0001
0100
,
0010
2000
0000
0000
3000
0000
0001
0100
,
0001
0000
1000
0010
1000
0000
0001
0010
,
0001
0000
1000
0100
1000
0000
0001
0000
,
0000
1000
0000
0000
0000
0000
0010
0100
,
0001
2000
0000
0000
3000
0000
1000
0010
,
0100
0000
0001
0100
0010
0000
1000
0100
,
0010
0000
0001
0010
0100
0000
1000
0000
,
0000
0001
0000
0000
0100
0010
1000
0001
,
1000
1001
0000
0000
0001
0000
0200
0000
,
0000
0310
0000
0010
1000
0000
0200
0000
,
0000
0310
0000
0010
0001
0000
0200
0000
,
0000
0310
0000
0010
1000
0000
0200
0000
,
0000
0310
0000
0010
0001
0000
0200
0000
,
0000
0310
0010
0000
0100
0010
2000
0000
,
0000
0000
3002
0000
1003
0001
0100
0000
,
1000
0010
0001
2002
,
3003
1000
0010
0000
0010
0100
0002
0000
,
0000
1003
0000
1000
0010
0100
0002
0000
,
0000
1003
0000
1000
0100
0010
0002
0000
,
0000
1003
0000
1000
0010
0100
0002
0000
,
0023
0230
2300
3020
,
0100
0001
0100
1000
,
0100
0000
0001
0000
0100
0130
0000
0000
,
1001
0000
0000
0000
0010
0000
0000
0010
0000
0000
0010
0000
0100
0000
0010
0000
,
0110
0000
1000
0000
0001
0000
1000
0100
,
1000
0000
0001
0100
0001
0000
1000
0010
,
1000
0000
0001
0010
0001
0000
0100
0010
,
1000
0000
0010
0100
0001
0000
1000
0100
,
0010
0000
0001
0010
0100
0000
1000
0010
,
1000
0010
0100
0000
0001
0000
1000
0000
,
0100
0000
0010
0000
0001
0000
0100
0010
,
0100
0010
1000
0000
0001
0200
0000
0310
,
1000
0001
0010
0001
0010
0100
1000
0010
,
0100
0000
0001
0000
1000
0000
0100
0010
,
0001
1000
0010
0110
,
1001
0000
0110
0000
1001
0000
0010
0100
,
0010
0020
0000
0000
2030
0000
3001
0100
,
0010
0000
1000
0010
0100
0000
0001
0000
,
0010
1000
0100
0002
,
0000
1000
2000
0000
0000
0000
0000
0000
,
3003
0000
0000
0000
;

//---------------dance-single - ----------------
#NOTEDATA:;
#CHARTNAME:;
#STEPSTYPE:dance-single;
#DESCRIPTION:;
#CHARTSTYLE:;
#DIFFICULTY:Hard;
#METER:11;
#RADARVALUES:0.550325,0.604730,0.482906,0.230478,0.027438,351.000000,307.000000,44.000000,21.000000,0.000000,0.000000,0.000000,0.000000,0.000000,0.550325,0.604730,0.482906,0.230478,0.027438,351.000000,307.000000,44.000000,21.000000,0.000000,0.000000,0.000000,0.000000,0.000000;
#CREDIT:MILEN;
#DISPLAYBPM:155.000000;
#NOTES:
// measure 0
0000
0000
0000
0000
,  // measure 1
0000
0000
0000
0000
,  // measure 2
0000
0000
0000
0000
,  // measure 3
0000
0000
0000
0000
,  // measure 4
0000
0000
0000
1000
,  // measure 5
0010
0100
0001
1000
,  // measure 6
0010
0110
0000
0000
0000
0000
0001
0000
,  // measure 7
0100
0010
1000
0001
,  // measure 8
0100
0110
0000
0000
0000
0000
2002
0000
,  // measure 9
3003
0000
0001
0000
0001
0000
0000
0100
0000
0000
0020
0000
0000
0000
1030
0000
,  // measure 10
1010
0000
0101
0001
0010
0100
1000
0100
,  // measure 11
0010
0100
1000
0100
0010
0100
1000
0100
,  // measure 12
0001
0100
1000
0100
0001
0100
2000
0000
,  // measure 13
0000
0002
0000
0000
3003
0000
0001
0100
,  // measure 14
0010
0110
0000
1000
0100
0010
0001
0010
,  // measure 15
0100
0010
0001
0010
0100
0010
0001
0010
,  // measure 16
1000
0010
0001
0010
1000
0010
0002
0000
,  // measure 17
0000
2000
0000
0000
3003
0000
1000
0010
,  // measure 18
0100
0110
0000
0001
0010
0100
1000
0010
,  // measure 19
0001
0010
1000
0100
0001
0100
1000
0010
,  // measure 20
0001
0000
0010
0000
1000
0000
0000
0100
0000
0000
0010
0000
0002
0000
0000
0000
,  // measure 21
0000
2000
0000
0000
3003
0000
0001
0100
,  // measure 22
0010
0110
0000
1000
0100
0010
0001
0100
,  // measure 23
1000
0100
0001
0010
1000
0010
0001
0100
,  // measure 24
1000
0100
0001
0010
1000
0010
0001
0100
,  // measure 25
0000
0220
0000
0330
0010
1000
0001
0100
,  // measure 26
0010
1010
0000
0101
0000
1001
0010
0000
,  // measure 27
0010
1000
0000
0100
0110
0000
0001
0000
,  // measure 28
0100
0010
0000
1000
1001
0000
0010
0000
,  // measure 29
0100
0001
0000
0010
0110
0000
1000
0000
,  // measure 30
0010
0100
0000
0001
1001
0000
0010
0000
,  // measure 31
1000
0100
0000
0010
0011
0000
0002
0000
,  // measure 32
0203
0000
0320
0000
1030
0010
0110
0000
,  // measure 33
0101
1010
1100
0011
,  // measure 34
0001
0100
0010
1000
0100
0010
0001
0000
,  // measure 35
0100
0010
0000
1000
1100
0000
0010
0000
,  // measure 36
0100
0001
0000
1000
1010
0000
0100
0000
,  // measure 37
0001
1000
0000
0100
0110
0000
0002
0000
,  // measure 38
0203
2300
3010
0110
,  // measure 39
1100
0101
0011
1010
,  // measure 40
1001
0000
0110
0000
1001
1001
0000
0000
,  // measure 41
0110
0000
0000
0000
0010
0000
0000
0010
0000
0000
0010
0000
1000
0000
0001
0000
,  // measure 42
1001
0000
0000
0000
1000
0100
1000
0000
0001
0100
0001
0000
1000
0000
0100
0000
,  // measure 43
0010
0001
0100
0010
1000
0100
0010
0001
,  // measure 44
0100
0010
1000
0100
0010
0000
0001
0010
,  // measure 45
0100
1000
0010
0100
0001
0010
0100
1000
,  // measure 46
0010
0100
0001
0010
0100
0000
1000
0010
,  // measure 47
0001
0000
1000
0100
0001
0000
1000
0010
,  // measure 48
0100
0001
0010
0100
1000
0000
0001
0100
,  // measure 49
1000
0000
0001
0010
1000
2000
0000
3100
,  // measure 50
0010
0001
1000
0100
0010
0001
0100
1000
,  // measure 51
0100
0001
0100
1000
0100
0001
0100
0010
,  // measure 52
0001
0010
1000
0010
0001
0010
1000
0000
,  // measure 53
1100
0000
0110
0000
0011
0000
0101
0100
,  // measure 54
0010
2000
0000
3001
0010
0100
1000
0010
,  // measure 55
0001
1000
0100
0001
0010
0100
0010
0000
,  // measure 56
0011
0101
1010
1200
,  // measure 57
0000
0010
0020
0000
0000
0000
0000
0000
,  // measure 58
0330
0000
0000
0000
;

//---------------dance-double - ----------------
#NOTEDATA:;
#CHARTNAME:;
#STEPSTYPE:dance-double;
#DESCRIPTION:;
#CHARTSTYLE:;
#DIFFICULTY:Easy;
#METER:6;
#RADARVALUES:0.239885,0.350107,0.098776,0.109751,0.000000,153.000000,144.000000,9.000000,10.000000,0.000000,0.000000,0.000000,0.000000,0.000000,0.239885,0.350107,0.098776,0.109751,0.000000,153.000000,144.000000,9.000000,10.000000,0.000000,0.000000,0.000000,0.000000,0.000000;
#CREDIT:MILEN;
#DISPLAYBPM:155.000000;
#NOTES:
00000000
00000000
00000000
00000000
,
00000000
00000000
00000000
00000000
,
00000000
00000000
00000000
00000000
,
00000000
00000000
00000000
00000000
,
00000000
00000000
00000000
00001000
,
00000000
00000000
00000000
00010000
,
00000000
00000000
00000000
00001000
,
00000000
00000000
00000000
00010000
,
00000000
00000000
00000000
00022000
,
00000000
00000000
00000000
00000000
,
00000000
00033000
00000000
00001000
,
00000000
01000000
00000000
00001000
,
00000000
01000000
00000000
00001000
,
00000000
00001000
00000000
00010000
,
00001000
00010000
00000000
00010000
,
00000000
00000010
00000000
00010000
,
00000000
00000010
00000000
00010000
,
00000000
00010000
00000000
00001000
,
00010000
00001000
00000000
00001000
,
00000000
00100000
00000000
00001000
,
00000000
00100000
00000000
00001000
,
00000000
00001000
00000000
00010000
,
00001000
00010000
00000000
00010000
,
00000000
00000100
00000000
00010000
,
00000000
00000100
00000000
00010000
,
00000000
00010000
00000000
00001000
,
00010000
00002000
00003000
00100000
,
00000000
00010000
00000000
00100000
,
00001000
00010000
00000010
00001000
,
00000000
00000100
00000000
00001000
,
00000010
00010000
00001000
01000000
,
00000000
00010000
00000000
01000000
,
00000000
00001000
00000000
00010000
,
00000100
00001000
00000100
00001000
,
00000010
00010000
00001000
00101000
,
00000000
00010010
00000000
00010000
,
00001000
00100000
00010000
02000000
,
03000000
00001000
00010000
00000100
,
00001000
00000010
00000010
00010000
,
00001000
00010000
00100000
00010000
,
00001000
00010000
00100000
02000000
,
00000000
00000000
03000000
01100000
,
01100000
00000000
00000000
00100000
,
01000000
00010000
00100000
00001000
,
00010000
00000100
00001000
00000010
,
00010000
00001000
00100000
00010000
,
01000000
00001000
00010000
00000100
,
00000010
00000100
00010000
00000100
,
00000010
00000100
00010000
00001000
,
00100000
01000000
02200000
03300000
,
00100000
00010000
01000000
00001000
,
00010000
00000100
00001000
00000010
,
00010000
00001000
00100000
00010000
,
01010000
00001000
00011000
00000200
,
00000300
00001000
00000010
00010010
,
00000000
00010000
00001000
00000100
,
00010000
01000000
00001000
00020000
,
00000000
00002000
00000000
00000000
,
00033000
00000000
00000000
00000000
;

//---------------dance-double - ----------------
#NOTEDATA:;
#CHARTNAME:;
#STEPSTYPE:dance-double;
#DESCRIPTION:;
#CHARTSTYLE:;
#DIFFICULTY:Medium;
#METER:8;
#RADARVALUES:0.362180,0.445591,0.186577,0.307304,0.005488,231.000000,214.000000,17.000000,28.000000,0.000000,0.000000,0.000000,0.000000,0.000000,0.362180,0.445591,0.186577,0.307304,0.005488,231.000000,214.000000,17.000000,28.000000,0.000000,0.000000,0.000000,0.000000,0.000000;
#CREDIT:MILEN;
#DISPLAYBPM:155.000000;
#NOTES:
00000000
00000000
00000000
00000000
,
00000000
00000000
00000000
00000000
,
00000000
00000000
00000000
00000000
,
00000000
00000000
00000000
00000000
,
00000000
00000000
00000000
00001000
,
00010000
00100000
01000000
00001000
,
00010000
00010000
00000000
00000000
00000000
00000000
00010000
00000000
,
00001000
00000100
00000010
00010000
,
00001000
00001000
00000000
00000000
00000000
00000000
00022000
00000000
,
00033000
00000000
00001000
00000000
00010000
00001000
00000000
00001000
,
00010000
00022000
00033000
00001000
,
00100000
01000000
10000000
00100000
,
01000000
00001000
00100000
01000000
,
00000000
00010000
00000000
00000000
00000000
00000000
00001000
00010000
,
00000000
00022000
00000000
00000000
00033000
00000000
00010000
00000000
,
00000100
00000010
00000001
00000100
,
00000010
00010000
00000100
00000010
,
00000000
00001000
00000000
00000000
00000000
00000000
00010000
00001000
,
00000000
00022000
00000000
00000000
00033000
00000000
00001000
00000000
,
00010000
01000000
10000000
00100000
,
00010000
00001000
00000100
00000001
,
00000000
00001000
00000000
00000000
00000000
00000000
00000100
00010000
,
00000000
00022000
00000000
00000000
00033000
00000000
00010000
00000000
,
00001000
00000010
00000001
00000100
,
00001000
00010000
00100000
10000000
,
00000000
00010000
00000000
00000000
00000000
00000000
00100000
00001000
,
00000000
00022000
00000000
00000000
00033000
00000000
00010000
00000000
,
00000000
00000100
00000000
00010000
00001000
00000000
00001000
00000000
,
00000000
01000000
00000000
00001000
00010000
00000000
00010000
00000000
,
00000000
00000010
00000000
00010000
00001000
00000000
00001000
00000000
,
00000000
00100000
00000000
00001000
00010000
00000000
00011000
00000000
,
00000000
00001000
00010000
00000000
00010000
00001000
02000000
00000000
,
00000000
00000000
03020000
00000000
10030000
00010000
01000000
00000000
,
00001000
00010000
00000100
00002100
,
00000000
00003010
00000010
00000000
00000100
00000001
00000200
00000000
,
00000000
00000310
00000000
00000010
00010000
00000000
00021000
00000000
,
00000000
00031000
00000000
00001000
01000000
00000000
01200000
00000000
,
00000000
01300000
00000000
01000000
00010000
00000000
20000000
00000000
,
32000000
03200000
00302000
00023000
,
00000100
00000010
00000100
00001000
,
00000100
00000000
00000010
00000000
00000100
00030100
00000000
00000000
,
00001100
00000000
00000000
00000000
00001000
00000000
00000000
00001000
00000000
00000000
00001000
00000000
00000001
00000000
00000100
00000000
,
00001000
00000000
00010000
00000000
00001000
00000000
00010000
00001000
,
00010000
00000000
00000100
00001000
00000100
00000000
00000010
00000001
,
00000010
00000000
00000001
00001000
00000001
00000000
00000100
00000010
,
00000100
00000000
00001000
00010000
00001000
00000000
01000000
00100000
,
01000000
00000000
00010000
10000000
00010000
00000000
01000000
00100000
,
01100000
10000000
01000000
00010000
,
00001000
00000000
00000010
00000000
00000001
00000000
00000100
00000010
,
00000110
00000000
00000010
00000000
00001000
00002000
00000000
00003001
,
00000100
00000000
00000010
00000000
00001000
00000000
00010000
01000000
,
00010000
00000000
10000000
00000000
00010000
00000000
10000000
00100000
,
10000000
00010000
01000000
01001000
,
00011000
00000000
00010100
00000000
00001100
00000000
00001000
00000100
,
00000010
00000002
00000000
00000000
00002003
00000000
00003100
00000000
,
00000010
00001000
00100000
01000000
,
00010000
00001000
00000100
00000002
,
00000000
00001000
00002000
00000000
00000000
00000000
00000000
00000000
,
00003003
00000000
00000000
00000000
;

//---------------dance-double - ----------------
#NOTEDATA:;
#CHARTNAME:;
#STEPSTYPE:dance-double;
#DESCRIPTION:;
#CHARTSTYLE:;
#DIFFICULTY:Hard;
#METER:12;
#RADARVALUES:0.550325,0.604730,0.625583,0.263403,0.038413,351.000000,294.000000,57.000000,24.000000,0.000000,0.000000,0.000000,0.000000,0.000000,0.550325,0.604730,0.625583,0.263403,0.038413,351.000000,294.000000,57.000000,24.000000,0.000000,0.000000,0.000000,0.000000,0.000000;
#CREDIT:MILEN;
#DISPLAYBPM:155.000000;
#NOTES:
00000000
00000000
00000000
00000000
,
00000000
00000000
00000000
00000000
,
00000000
00000000
00000000
00000000
,
00000000
00000000
00000000
00000000
,
00000000
00000000
00000000
01000000
,
00001000
00010000
00000100
00001000
,
00000010
00000110
00000000
00000000
00000000
00000000
00000010
00000000
,
00010000
00001000
00100000
00010000
,
01000000
01100000
00000000
00000000
00000000
00000000
20020000
00000000
,
30030000
00000000
10000000
00010000
10000000
00000000
00000000
01000000
00000000
00000000
00020000
00000000
00000000
00000000
00031000
00000000
,
00011000
00000000
00010100
00000100
00000010
00000001
00000100
00001000
,
00010000
00001000
00000100
00001000
00010000
00001000
00000100
00001000
,
00010000
01000000
00010000
00001000
00010000
01000000
20000000
00000000
,
00000000
00020000
00000000
00000000
30030000
00000000
10000000
00100000
,
00010000
00011000
00000000
01000000
00100000
10000000
01000000
00010000
,
00001000
00010000
01000000
00010000
00001000
00010000
01000000
00010000
,
00001000
00000100
00001000
00010000
00001000
00000100
00000002
00000000
,
00000000
00002000
00000000
00000000
00003003
00000000
00000001
00000010
,
00001000
00011000
00000000
00010000
00100000
10000000
01000000
00010000
,
01000000
10000000
00100000
00010000
00001000
00000100
00000001
00000010
,
00001000
00000000
00000010
00000000
00000001
00000000
00000000
00000100
00000000
00000000
00001000
00000000
00022000
00000000
00033000
00000000
,
00000000
02200000
00000000
00000000
03300000
00000000
00100000
10000000
,
01000000
01010000
00000000
00010000
01000000
10000000
00100000
00010000
,
00100000
10000000
01000000
00010000
00001000
00000100
00000001
00000010
,
00001000
00000010
00000001
00000100
00001000
00010000
00100000
10000000
,
00000000
22000000
03000000
00000000
30100000
00010000
00001000
00000010
,
00000001
00000101
00000000
00001100
00000000
00011000
01000000
00000000
,
00000000
01100000
00000000
00000000
10100000
00000000
10000000
00000000
,
00000000
11000000
00000000
00000000
00110000
00000000
00010000
00000000
,
00000000
01001000
00000000
00000000
00010100
00000000
00000100
00000000
,
00000000
00001100
00000000
00000000
00000011
00000000
00000001
00000000
,
00000000
00001010
00000000
00000000
00011000
00000000
00002000
00000000
,
00023000
00000000
00230000
00000000
10300000
00010000
10010000
00000000
,
01100000
00011000
00000110
00001001
,
00000001
00000100
00000010
00001000
00010000
01000000
01100000
00000000
,
00000000
10100000
00000000
00000000
11000000
00000000
01010000
00000000
,
00000000
00011000
00000000
00000000
00001100
00000000
00000101
00000000
,
00000000
00000011
00000000
00000000
00001100
00000000
00002000
00000000
,
00003020
00020030
00130000
10100000
,
01000000
00011000
00000100
00000011
,
00001000
00000000
00010100
00000000
01001000
01001000
00000000
00000000
,
10100000
00000000
00000000
00000000
10000000
00000000
00000000
01000000
00000000
00000000
00010000
00000000
00001000
00000000
00010000
00000000
,
00011000
00000000
00000000
00000000
00001000
01000000
00001000
00000000
00010000
00000100
00010000
00000000
00001000
00000000
00000100
00000000
,
00000001
00000010
00001000
00010000
01000000
10000000
00100000
00010000
,
00001000
00000100
00000001
00000010
00000110
00000000
00001000
00010000
,
01000000
10000000
00100000
00010000
00001000
00000100
00000001
00000010
,
00001000
00000000
00010000
00000000
00100000
00000000
10000000
00000000
01000000
00100000
01000000
00000000
00010000
00000000
00001000
00000000
,
00000010
00000000
00001000
00010000
00100000
00000000
00010000
00001000
,
00000100
00000000
00001000
00010000
01000000
00000000
10000000
00100000
,
00010000
00001000
00000100
00000001
00000010
00000210
00000000
00000310
,
00000001
00000100
00001000
00010000
01000000
10000000
00100000
00010000
,
00001000
00100000
01000000
00010000
00001000
00000010
00000100
00001000
,
00000010
00000001
00001000
00000100
00000010
00001000
00011000
00000000
,
01010000
00000000
11000000
00000000
10100000
00000000
00110000
00010000
,
00001000
00000020
00000000
00000031
00001000
00000100
00000010
00001000
,
00010000
01000000
10000000
00010000
00100000
01000000
00010000
00000000
,
00011000
00001100
00000101
00000021
,
00000000
00002030
00020000
00000000
00000000
00000000
00000000
00000000
,
00033000
00000000
00000000
00000000
;
