#TITLE:NYOTERS Rhythm Squad Theme Song;
#SUBTITLE:;
#ARTIST:Mr. Weq feat. NTR ALL STARS;
#TITLETRANSLIT:;
#SUBTITLETRANSLIT:;
#ARTISTTRANSLIT:;
#GENRE:WORLD MUSIC;
#CREDIT:MUINELIM;
#BANNER:NYOTERS Rhythm Squad Theme Song.png;
#JACKET:NYOTERS Rhythm Squad Theme Song-jacket.png;
#BACKGROUND:NYOTERS Rhythm Squad Theme Song-bg.png;
#LYRICSPATH:;
#CDTITLE:;
#MUSIC:NYOTERS Rhythm Squad Theme Song.ogg;
#OFFSET:0.000000;
#SAMPLESTART:6.428572;
#SAMPLELENGTH:10.125711;
#SELECTABLE:YES;
#BPMS:0.000000=140,100.000000=70,102.000000=140
;
#STOPS:102.000000=1.286
;
#BGCHANGES:0.000=NYOTERS Rhythm Squad Theme Song.avi=1.000=1=0=0=StretchNoLoop==CrossFade==,
99999=-nosongbg-=1.000=0=0=0 // don't automatically add -songbackground-
;
#KEYSOUNDS:;
#ATTACKS:;

//---------------dance-single - ----------------
#NOTES:
     dance-single:
     :
     Beginner:
     3:
     0.161767,0.204169,0.068628,0.034314,0.000000,66.000000,62.000000,4.000000,2.000000,0.000000,0.000000,0.161767,0.204169,0.068628,0.034314,0.000000,66.000000,62.000000,4.000000,2.000000,0.000000,0.000000:
// measure 0
0000
0000
0000
0000
,  // measure 1
0000
0000
0000
0000
,  // measure 2
0000
0000
0000
0000
,  // measure 3
0000
0000
0000
0000
,  // measure 4
0000
1000
0000
1000
,  // measure 5
0000
1000
0000
1000
,  // measure 6
0000
0001
0000
0001
,  // measure 7
0000
0001
0000
0001
,  // measure 8
0000
0100
0000
0100
,  // measure 9
0000
0100
0000
0100
,  // measure 10
0000
0010
0000
0010
,  // measure 11
0000
0010
0010
0000
,  // measure 12
1000
1000
1000
1000
,  // measure 13
1000
1000
1000
1000
,  // measure 14
0000
0001
0001
0001
,  // measure 15
0001
0001
0001
0001
,  // measure 16
0000
0100
0100
0100
,  // measure 17
0100
0100
0100
0100
,  // measure 18
0000
0010
0010
0010
,  // measure 19
0010
0010
0010
0000
,  // measure 20
1000
0000
0001
0000
,  // measure 21
1000
0000
0001
0000
,  // measure 22
1001
0000
1001
0000
,  // measure 23
2002
0000
0000
0000
,  // measure 24
3003
0000
0000
0000
,  // measure 25
0000
0000
1001
1000
,  // measure 26
0000
0100
0000
0010
,  // measure 27
0000
0001
0000
1000
,  // measure 28
0000
0100
0000
0010
,  // measure 29
0000
0001
0001
0001
;

//---------------dance-single - ----------------
#NOTES:
     dance-single:
     :
     Easy:
     5:
     0.267160,0.280733,0.085785,0.068628,0.000000,109.000000,104.000000,5.000000,4.000000,0.000000,0.000000,0.267160,0.280733,0.085785,0.068628,0.000000,109.000000,104.000000,5.000000,4.000000,0.000000,0.000000:
0000
0000
0000
0000
,
0000
0000
0000
0000
,
0000
0000
0000
0000
,
0000
0000
0000
0000
,
1000
1000
1000
1000
,
1000
0000
1000
0000
1000
1000
1000
0000
,
0001
0001
0001
0001
,
0001
0000
0001
0000
0001
0001
0001
0000
,
0100
0100
0100
0100
,
0100
0000
0100
0000
0100
0100
0100
0000
,
0010
0010
0010
0010
,
0010
0010
0000
0000
0010
0000
1001
0000
,
0000
1000
0001
1000
,
0001
0000
1000
0000
0001
1000
0001
0000
,
0100
0010
0100
0010
,
0100
0000
0010
0000
0100
0010
0100
0000
,
0010
1000
0010
1000
,
0010
0000
1000
0000
0010
1000
0010
0000
,
0100
0001
0100
0001
,
0100
0001
0000
0001
0100
0000
0110
0000
,
0010
1000
0001
0100
,
0010
1000
0001
0100
,
0010
0010
0010
0010
,
0220
0000
0000
0330
,
2002
0000
0000
0000
,
3003
0000
1001
1000
,
0100
0010
0001
1000
,
0100
0000
0010
0100
0010
0000
0001
0000
,
0010
0100
1000
0001
,
0010
0000
0100
0000
1000
1000
1000
0000
;

//---------------dance-single - ----------------
#NOTES:
     dance-single:
     :
     Medium:
     7:
     0.348043,0.433859,0.171571,0.034314,0.000000,142.000000,132.000000,10.000000,2.000000,0.000000,0.000000,0.348043,0.433859,0.171571,0.034314,0.000000,142.000000,132.000000,10.000000,2.000000,0.000000,0.000000:
0000
0000
0000
0000
,
0000
0000
0000
0000
,
0000
0000
0000
0000
,
0000
0000
0000
0000
,
0000
1000
0000
0001
0000
1000
0000
0001
,
0000
1000
0000
0001
0000
1000
1001
0000
,
0000
0010
0000
0100
0000
0010
0000
0100
,
0000
0010
0000
0100
0000
0010
0110
0000
,
0000
1000
0000
0010
0000
1000
0000
0010
,
0000
1000
0000
0010
0000
1000
1100
0000
,
0000
0001
0000
0010
0000
0001
0000
0010
,
0001
0001
0000
0100
0101
0000
1001
0000
,
0000
1000
0001
1000
0001
1000
0001
1000
,
0001
1000
0001
1000
0001
1000
1000
0000
,
0000
0010
0100
0010
0100
0010
0100
0010
,
0100
0010
0100
0010
0100
0010
0010
0000
,
0000
1000
0100
1000
0100
1000
0100
1000
,
0100
1000
0100
1000
0100
1000
1000
0000
,
0000
0001
0100
0001
0100
0001
0100
0001
,
0100
0100
0000
0001
0010
0000
0001
0100
,
0110
1000
0001
0100
,
0010
1000
0001
0100
,
0010
1000
0010
1000
0001
0100
0001
0100
,
0010
1000
0001
0100
0010
1000
0001
0000
,
2002
0000
0000
0000
,
3003
0000
1001
1000
,
0010
0001
0100
1000
,
0010
0000
0001
0100
0110
0000
1000
0000
,
0100
0001
0010
1000
,
0100
0000
0001
0000
0010
1000
1001
0000
;

//---------------dance-single - ----------------
#NOTES:
     dance-single:
     :
     Hard:
     11:
     0.482849,0.663550,0.188728,0.137257,0.171571,197.000000,186.000000,11.000000,8.000000,0.000000,0.000000,0.482849,0.663550,0.188728,0.137257,0.171571,197.000000,186.000000,11.000000,8.000000,0.000000,0.000000:
0000
0000
0000
0000
,
0000
0000
0000
0000
,
0000
0000
0000
0000
,
0000
0000
0000
0000
,
1000
0001
0100
0010
1000
0001
0100
0010
,
1000
0001
0100
0010
1000
0001
0001
0000
,
0000
1000
0100
0010
0001
1000
0100
0010
,
0001
1000
0100
0010
0001
0100
0100
0000
,
0000
0010
1000
0001
0100
0010
1000
0001
,
0100
0010
1000
0001
0100
0010
0010
0000
,
0000
0100
0001
0010
0100
1000
0010
0100
,
0001
0000
1000
0010
0000
1000
0010
0000
0200
0000
0000
0000
0301
0000
0000
0000
,
0001
0010
1000
0010
0001
0100
1000
0100
,
0001
0010
1000
0010
0001
0100
0100
0000
,
0000
1000
0010
0001
0010
1000
0100
0001
,
0100
1000
0010
0001
0010
1000
1000
0000
,
0000
0100
0001
0010
1000
0100
0001
0010
,
1000
0100
0001
0010
1000
0100
0100
0000
,
0000
0001
0100
1000
0010
0001
0100
1000
,
0010
0000
0100
0001
0000
0100
0001
0000
2000
0000
0000
0000
3010
0000
0010
0000
,
0101
1100
1010
0011
,
1010
1100
0101
0011
,
1001
1000
0100
0010
0001
1000
0100
0010
,
0001
1000
0001
1000
0001
1000
0001
1000
0001
1000
0001
1000
0001
1000
0001
2000
,
0002
0000
0000
3003
,
0220
0000
0000
0330
0110
0000
0001
0100
,
1000
0000
0001
0000
0010
0000
1000
0000
0100
0000
0010
0000
0001
0000
0100
0010
,
0000
1000
0010
0000
0100
0010
0000
0100
0002
0000
0000
0000
1003
0000
0100
0000
,
0001
0000
1000
0000
0010
0000
0001
0000
0100
0000
0010
0000
1000
0000
0001
0010
,
0000
0100
0010
0000
0002
0000
0000
0000
0103
0010
0100
0010
1000
0000
0000
0000
;

//---------------dance-single - ----------------
#NOTES:
     dance-single:
     :
     Challenge:
     14:
     0.531869,0.689071,0.789225,0.068628,0.420348,217.000000,171.000000,46.000000,4.000000,276.000000,0.000000,0.531869,0.689071,0.789225,0.068628,0.420348,217.000000,171.000000,46.000000,4.000000,276.000000,0.000000:
0000
0000
0000
0000
,
0000
0000
0000
0000
,
0000
0000
0000
0000
,
0000
0000
0000
0000
,
MMMM
1010
MMMM
0101
MMMM
1010
MMMM
0101
,
MMMM
1010
MMMM
0101
MMMM
1010
1010
0000
,
MMMM
1100
MMMM
0011
MMMM
1100
MMMM
0011
,
MMMM
1100
MMMM
0011
MMMM
1100
1100
0000
,
MMMM
1001
MMMM
0110
MMMM
1001
MMMM
0110
,
MMMM
1001
MMMM
0110
MMMM
1001
1001
0000
,
MMMM
1010
MMMM
0101
MMMM
0011
MMMM
1100
,
0110
0110
0000
1001
1001
0000
0220
0330
,
MMMM
0000
0010
1000
MMMM
0000
1000
0100
MMMM
0000
0100
0010
MMMM
0000
0010
0001
,
MMMM
0000
0001
0100
MMMM
0000
0100
0010
MMMM
0000
0010
1000
0010
0000
0000
0000
,
MMMM
0000
0100
0001
MMMM
0000
0001
0010
MMMM
0000
0010
0100
MMMM
0000
0100
1000
,
MMMM
0000
1000
0010
MMMM
0000
0010
0100
MMMM
0000
0100
0001
0100
0000
0000
0000
,
MMMM
0000
0001
0010
MMMM
0000
0010
0100
MMMM
0000
0100
1000
MMMM
0000
1000
0001
,
MMMM
0000
0001
0100
MMMM
0000
0100
0010
MMMM
0000
0010
1000
0010
0000
0000
0000
,
MMMM
0000
1000
0100
MMMM
0000
0100
0001
MMMM
0000
0001
0010
MMMM
0000
0010
0100
,
0010
0000
1000
0010
0000
0100
0001
0000
0011
0000
0000
0000
0010
0000
0100
0000
,
1100
MMMM
1010
MMMM
0011
MMMM
0101
MMMM
,
0011
MMMM
1010
MMMM
1100
MMMM
0101
MMMM
,
1001
1000
0010
0100
0001
1000
0100
0010
,
0001
0100
0010
1000
0001
0010
0100
1000
0001
0100
0010
1000
0100
0010
0001
1000
,
1001
MMMM
MMMM
MMMM
MMMM
MMMM
MMMM
MMMM
,
0220
0000
0000
0000
0000
0000
0330
0000
0110
0000
MMMM
0000
0010
0000
1000
0100
,
1000
0000
0001
0100
0001
0000
1000
0100
1000
0000
0001
0000
0100
0000
0010
1000
,
0000
0010
0001
0000
0010
0100
0010
0100
0010
0000
MMMM
0000
0100
0000
0001
0010
,
0001
0000
1000
0010
1000
0000
0001
0010
0001
0000
1000
0000
0010
0000
0100
0001
,
0000
0100
1000
0000
0100
0000
MMMM
0000
0010
1000
0001
0100
MMMM
0000
0000
0000
;

//---------------dance-double - ----------------
#NOTES:
     dance-double:
     :
     Easy:
     5:
     0.257356,0.280733,0.154414,0.068628,0.000000,105.000000,96.000000,9.000000,4.000000,0.000000,0.000000,0.257356,0.280733,0.154414,0.068628,0.000000,105.000000,96.000000,9.000000,4.000000,0.000000,0.000000:
00000000
00000000
00000000
00000000
,
00000000
00000000
00000000
00000000
,
00000000
00000000
00000000
00000000
,
00000000
00000000
00000000
00000000
,
01000000
01000000
01000000
01000000
,
01000000
01000000
01000000
01000000
,
00001000
00001000
00001000
00001000
,
00001000
00001000
00001000
00001000
,
00010000
00010000
00010000
00010000
,
00010000
00010000
00010000
00010000
,
00000100
00000100
00000100
00000100
,
00000100
00000100
00000000
00000000
00010000
00000000
00011000
00000000
,
00000000
00000010
00000010
00000010
,
00000010
00000010
00000010
00010010
,
00010000
00010000
00010000
00010000
,
00010000
00010000
00010000
00011000
,
00001000
00001000
00001000
00001000
,
00001000
00001000
00001000
00101000
,
00100000
00100000
00100000
00100000
,
00100000
00100000
00000000
00000000
00001000
00000000
00011000
00000000
,
00010000
00000010
00001000
00000100
,
00010000
00001000
00100000
00010000
,
01000000
00001000
00010000
00000100
,
00020200
00000000
00000000
00030300
,
00202000
00000000
00000000
00000000
,
00303000
00000000
00011000
00010000
,
00001000
00000010
00000001
00000100
,
00001000
00010000
00011000
00001000
,
00010000
01000000
10000000
00100000
,
00010000
00000000
00001000
00000000
00010000
00001000
00010000
00000000
;

//---------------dance-double - ----------------
#NOTES:
     dance-double:
     :
     Medium:
     8:
     0.330886,0.459381,0.085785,0.034314,0.000000,135.000000,130.000000,5.000000,2.000000,0.000000,0.000000,0.330886,0.459381,0.085785,0.034314,0.000000,135.000000,130.000000,5.000000,2.000000,0.000000,0.000000:
00000000
00000000
00000000
00000000
,
00000000
00000000
00000000
00000000
,
00000000
00000000
00000000
00000000
,
00000000
00000000
00000000
00000000
,
00000000
01000000
00000000
00010000
00000000
01000000
00000000
00010000
,
00000000
01000000
00000000
00010000
00000000
01000000
00001000
00000000
,
00000000
00010000
00000000
00001000
00000000
00010000
00000000
00001000
,
00000000
00010000
00000000
00001000
00000000
00010000
00000100
00000000
,
00000000
00001000
00000000
00000100
00000000
00001000
00000000
00000100
,
00000000
00001000
00000000
00000100
00000000
00001000
00000001
00000000
,
00000000
00000100
00000000
00000001
00000000
00000100
00000000
00000001
,
00001000
00001000
00000000
00000100
00010000
00000000
00011000
00000000
,
00000000
00000010
00001000
00000010
00001000
00000010
00001000
00000010
,
00001000
00000010
00001000
00000010
00000000
00010000
00001000
00000000
,
00000000
00010000
00001000
00010000
00001000
00010000
00001000
00010000
,
00001000
00010000
00001000
00010000
00000000
00001000
00100000
00000000
,
00000000
00010000
01000000
00010000
01000000
00010000
01000000
00010000
,
01000000
00010000
01000000
00010000
00000000
10000000
00010000
00000000
,
00000000
10000000
01000000
10000000
01000000
10000000
01000000
10000000
,
00010000
00010000
00000000
01000000
00001000
00000000
00010000
00001000
,
00010000
00001000
00000010
00001000
,
00010000
00100000
00010000
00001000
,
00010000
00001000
00010000
00001000
00010000
00001000
00010000
00001000
,
00010000
00010000
00010000
00010000
00001000
00001000
00001000
00001000
,
00022000
00000000
00000000
00000000
,
00033000
00000000
00011000
00010000
,
01000000
10000000
00100000
00010000
,
00001000
00000000
00010000
00001000
00011000
00000000
00010000
00000000
,
00001000
00000100
00000001
00000010
,
00001000
00000000
00010000
00000000
00001000
00010000
00011000
00000000
;

//---------------dance-double - ----------------
#NOTES:
     dance-double:
     :
     Hard:
     11:
     0.465692,0.484902,0.291670,0.137257,0.077207,190.000000,173.000000,17.000000,8.000000,0.000000,0.000000,0.465692,0.484902,0.291670,0.137257,0.077207,190.000000,173.000000,17.000000,8.000000,0.000000,0.000000:
00000000
00000000
00000000
00000000
,
00000000
00000000
00000000
00000000
,
00000000
00000000
00000000
00000000
,
00000000
00000000
00000000
00000000
,
00001000
00010000
00100000
01000000
00001000
00010000
00100000
01000000
,
00001000
00010000
00100000
01000000
00001000
00010000
00011000
00000000
,
00000000
00010000
00001000
00000100
00000010
00010000
00001000
00000100
,
00000010
00010000
00001000
00000100
00000010
00010000
00011000
00000000
,
00000000
00001000
00100000
01000000
00010000
00001000
00100000
01000000
,
00010000
00001000
00100000
01000000
00010000
00001000
00011000
00000000
,
00000000
00010000
00000100
00000010
00001000
00010000
00000100
00000010
,
00000001
00000000
00000000
00000100
00000000
00000000
00001000
00000000
00020000
00000000
00000000
00000000
00031000
00000000
00000000
00000000
,
00001000
00000010
00000001
00000100
00001000
00010000
00100000
10000000
,
01000000
00010000
00001000
00000010
00000001
00001000
00001001
00000000
,
00000000
00000001
00000100
00001000
00010000
00100000
10000000
01000000
,
00010000
00001000
00000010
00000001
00000100
00001000
00011000
00000000
,
00000000
00010000
01000000
10000000
00100000
00010000
00001000
00000100
,
00000001
00000010
00001000
00010000
00100000
10000000
10010000
00000000
,
00000000
10000000
01000000
00010000
00001000
00000010
00000001
00000100
,
00001000
00000000
00000000
00010000
00000000
00000000
00100000
00000000
20000000
00000000
00000000
00000000
31000000
00000000
01000000
00000000
,
01100000
00101000
00010100
00000110
,
00000011
00010100
00101000
11000000
,
10000000
01000000
00100000
00010000
00001000
00000010
00000100
00000001
,
00000010
00000100
00001000
00010000
01000000
00100000
10000000
00010000
,
20020000
00000000
00000000
30030000
,
00022000
00000000
00033000
00000000
00001001
00000000
00000001
00000100
,
00001000
00000000
00000100
00000000
00000001
00000000
00000100
00000000
00001000
00000000
00010000
00000000
00100000
00000000
10000000
01000000
,
00000000
10000000
00100000
00000000
10000000
01000000
00000000
10000000
00020000
00000000
00000000
00000000
10030000
00000000
00100000
00000000
,
00010000
00000000
00001000
00000000
00000100
00000000
00000001
00000000
00000010
00000000
00001000
00000000
00010000
00000000
00100000
10000000
,
00000000
00100000
01000000
00000000
00020000
00000000
00000000
00000000
00031000
00000010
00001000
00000000
00000001
00000000
00000000
00000000
;

//---------------dance-double - ----------------
#NOTES:
     dance-double:
     :
     Challenge:
     14:
     0.531869,0.663550,1.269623,0.034314,0.180149,217.000000,143.000000,74.000000,2.000000,476.000000,0.000000,0.531869,0.663550,1.269623,0.034314,0.180149,217.000000,143.000000,74.000000,2.000000,476.000000,0.000000:
00000000
00000000
00000000
00000000
,
00000000
00000000
00000000
00000000
,
00000000
00000000
00000000
00000000
,
00000000
00000000
00000000
00000000
,
MMMM0000
10100000
MMMM0000
01010000
MMMM0000
10100000
MMMM0000
01010000
,
MMMM0000
10100000
MMMM0000
01010000
MMMM0000
10100000
10100000
00000000
,
MMMM0000
00110000
MMMM0000
11000000
MMMM0000
00110000
MMMM0000
11000000
,
MMMM0000
00110000
MMMM0000
11000000
MMMM0000
00110000
00110000
00000000
,
0000MMMM
00001100
0000MMMM
00000011
0000MMMM
00001100
0000MMMM
00000011
,
0000MMMM
00001100
0000MMMM
00000011
0000MMMM
00001100
00001100
00000000
,
0000MMMM
00000101
0000MMMM
00001010
0000MMMM
00000101
0000MMMM
00001010
,
00000110
00000110
00000000
00001001
00001001
00000000
00022000
00033000
,
MMMMMMMM
00011000
MMMMMMMM
01010000
MMMMMMMM
11000000
MMMMMMMM
10100000
,
MMMMMMMM
00110000
MMMMMMMM
00011000
MMMMMMMM
00001100
00001100
00000000
,
MMMMMMMM
00011000
MMMMMMMM
00001100
MMMMMMMM
00000101
MMMMMMMM
00000011
,
MMMMMMMM
00001010
MMMMMMMM
00011000
MMMMMMMM
01010000
01010000
00000000
,
MMMMMMMM
00011000
MMMMMMMM
10100000
MMMMMMMM
01001000
MMMMMMMM
00010100
,
MMMMMMMM
00000011
MMMMMMMM
00011000
MMMMMMMM
10100000
10100000
00000000
,
MMMMMMMM
11000000
MMMMMMMM
00011000
MMMMMMMM
00000101
MMMMMMMM
00000110
,
00000110
00000000
00000010
00010000
00000000
00001000
00100000
00000000
01100000
00000000
00000000
00000000
10000000
00000000
00100000
00000000
,
00110000
MMMMMMMM
00001010
MMMMMMMM
01010000
MMMMMMMM
00001100
MMMMMMMM
,
00000011
MMMMMMMM
00010100
MMMMMMMM
01001000
MMMMMMMM
10100000
MMMMMMMM
,
10000000
01000000
00100000
00010000
00001000
00000010
00000100
00000001
,
00001000
00000010
00001000
00000010
00010000
00001000
00010000
00001000
00100000
00010000
00100000
00010000
01000000
00100000
01000000
00100000
,
10010000
MMMMMMMM
MMMMMMMM
MMMMMMMM
MMMMMMMM
MMMMMMMM
MMMMMMMM
MMMMMMMM
,
00011000
00000000
MMMMMMMM
00000000
MMMMMMMM
00000000
MMMMMMMM
00000000
00001001
00000000
MMMMMMMM
00000000
00000001
00000000
00000100
00001000
,
00010000
00000000
00001000
00000000
00010000
00000000
00001000
00010000
01000000
00000000
10000000
00000000
00100000
00000000
01000000
00010000
,
00000000
00100000
00001000
00000000
00010000
00001000
00010000
00000000
01000000
00000000
MMMMMMMM
00000000
10000000
00000000
00100000
00010000
,
00001000
00000000
00010000
00000000
00001000
00000000
00010000
00001000
00000010
00000000
00000001
00000000
00000100
00000000
00000010
00010000
,
00000000
00001000
00100000
00000000
01000000
00000000
MMMMMMMM
00000000
10000000
00100000
00010000
00001000
MMMMMMMM
00000000
00000000
00000000
;
