#TITLE:NEXT COLOR PLANET;
#SUBTITLE:;
#ARTIST:星街すいせい;
#TITLETRANSLIT:;
#SUBTITLETRANSLIT:;
#ARTISTTRANSLIT:Hoshimachi Suisei;
#GENRE:J-MUSIC;
#CREDIT:MUINELIM;
#BANNER:NEXT COLOR PLANET.png;
#BACKGROUND:NEXT COLOR PLANET-bg.png;
#LYRICSPATH:;
#CDTITLE:;
#MUSIC:NEXT COLOR PLANET.ogg;
#OFFSET:0.000000;
#SAMPLESTART:62.727272;
#SAMPLELENGTH:14.485455;
#SELECTABLE:YES;
#DISPLAYBPM:132;
#BPMS:0.000000=132;
#STOPS:
;
#BGCHANGES:0.000=NEXT COLOR PLANET-bg.png=1.000=0=0=1====#000000=#000000,
1.000=NEXT COLOR PLANET.avi=1.000=1=0=0=StretchNoLoop==CrossFade==,
99999=-nosongbg-=1.000=0=0=0 // don't automatically add -songbackground-
;
#KEYSOUNDS:;
#ATTACKS:;

//---------------dance-single - ----------------
#NOTES:
     dance-single:
     :
     Beginner:
     4:
     0.152322,0.186594,0.009036,0.009036,0.000000,118.000000,117.000000,1.000000,1.000000,0.000000,0.000000,0.152322,0.186594,0.009036,0.009036,0.000000,118.000000,117.000000,1.000000,1.000000,0.000000,0.000000:
0000
0000
0000
0000
,
0000
0000
0000
0000
,
0000
0000
0000
0000
,
0000
0000
0000
0000
,
0000
0000
0000
0000
,
1000
0000
0000
0000
,
0001
0000
0000
0000
,
1000
0000
0001
0000
,
1000
0000
0001
0000
,
1000
1000
1000
0000
,
1000
0000
1000
0000
,
0001
0001
0001
0000
,
0001
0000
0001
0000
,
0100
0100
0100
0000
,
0100
0000
0100
0000
,
0010
0010
0010
0000
,
0010
0010
0010
0000
,
1000
0000
0100
0000
,
1000
0000
0100
0000
,
0001
0000
0010
0000
,
0001
0000
0010
0000
,
1000
0000
0010
0000
,
1000
0000
0010
0000
,
0001
0000
0100
0000
,
0001
0000
0100
0000
,
1000
1000
1000
0000
,
0000
0000
0000
0001
,
0001
0000
0100
0000
,
0010
0000
1000
0000
,
0001
0001
0001
0000
,
0000
0000
0000
1000
,
1000
0000
0100
0000
,
0010
0000
0001
0000
,
0200
0000
0000
0000
,
0300
0000
0100
0100
,
0100
0000
0010
0000
,
1000
0000
0001
0000
,
0100
0000
0010
0000
,
0100
0100
0100
0000
,
0001
0000
0010
0000
,
0100
0000
1000
0000
,
0001
0000
0010
0000
,
0100
0100
0100
0000
,
0010
0000
0001
0000
,
0100
0000
1000
0000
,
0010
0000
0001
0000
,
0100
0000
1000
0000
,
0010
0000
1000
0000
,
0100
0000
0001
0000
,
0010
0000
1000
0000
,
0100
0000
0001
0000
,
0010
0010
0010
0000
,
0010
0000
0010
0000
,
0100
0100
0100
0000
,
0100
0000
0100
0000
,
1000
1000
1000
0000
,
1000
0000
1000
0000
,
0001
0001
0001
0000
,
0001
0000
0001
0000
,
1001
0000
0000
0000
;

//---------------dance-single - ----------------
#NOTES:
     dance-single:
     :
     Easy:
     5:
     0.216865,0.293219,0.135541,0.135541,0.000000,168.000000,153.000000,15.000000,15.000000,0.000000,0.000000,0.216865,0.293219,0.135541,0.135541,0.000000,168.000000,153.000000,15.000000,15.000000,0.000000,0.000000:
0000
0000
0000
0000
,
0000
0000
0000
0000
,
0000
0000
0000
0000
,
0000
0000
0000
0000
,
0000
0000
0000
0000
,
1000
0000
1000
0000
,
0001
0000
0001
0000
,
1000
0000
0001
0000
,
1000
0001
1000
0001
,
1000
1001
0000
0001
,
0000
0100
0000
1000
,
0001
1001
0000
1000
,
0000
0010
0000
0001
,
1000
1001
0000
0001
,
0000
0100
0000
1000
,
0001
1000
1001
0000
,
0010
0100
0010
0010
,
2000
0000
3000
0000
,
0200
0000
0300
0000
,
0002
0000
0003
0000
,
0020
0000
0030
0000
,
2000
0000
3000
0000
,
0200
0000
0300
0000
,
0002
0000
0003
0000
,
0010
0010
0010
0000
,
0010
1000
0100
0000
,
0010
1000
0100
0000
,
0010
0000
0001
0000
,
1000
0000
0100
0000
,
0010
0001
0100
0000
,
0010
0001
0100
0000
,
0010
0000
1000
0000
,
0001
0000
0100
0010
,
0220
0000
0000
0000
,
0330
0000
0100
0100
,
0001
0010
1000
0010
,
0001
0010
1000
0010
,
0001
0100
1000
0100
,
0001
0001
1001
0000
,
1000
0010
0001
0010
,
1000
0010
0001
0010
,
1000
0100
0001
0100
,
1000
1000
1001
0110
,
0010
0100
0002
0003
,
0100
0010
2000
3000
,
0001
0010
0200
0300
,
1000
0100
0020
0030
,
0001
0100
0010
1000
,
0001
0100
0010
0010
,
1000
0100
0020
0030
,
0001
0010
0200
0300
,
1001
1001
0001
0100
,
1000
0100
0001
0000
,
1001
1001
1000
0010
,
0001
0010
1000
0000
,
1001
1001
0010
0100
,
0010
1000
0001
0100
,
0010
0010
0010
0000
,
1000
0001
0100
0010
,
0110
0000
0000
0000
;

//---------------dance-single - ----------------
#NOTES:
     dance-single:
     :
     Medium:
     8:
     0.358860,0.399845,0.262045,0.171685,0.000000,278.000000,249.000000,29.000000,19.000000,0.000000,0.000000,0.358860,0.399845,0.262045,0.171685,0.000000,278.000000,249.000000,29.000000,19.000000,0.000000,0.000000:
0000
0000
0000
0000
,
0000
0000
0000
0000
,
0000
0000
0000
0000
,
0000
0000
0000
0000
,
0000
0000
0000
0000
,
1000
0000
0001
0000
,
1000
0001
1000
0001
,
1000
0001
1000
0000
0001
1000
0001
0000
,
1000
0001
1000
0002
2000
0000
0003
0000
,
3001
1001
0001
0100
,
0001
1000
0001
0100
,
0001
1001
1000
0010
,
1000
0001
1000
0010
,
1000
1001
0001
0010
,
0001
1000
0100
1000
,
1001
0110
2002
3003
,
0001
1000
0010
0100
0001
0000
1000
0000
,
0100
0100
0100
0100
,
0010
0010
0010
0010
,
0001
0001
1000
1000
,
0010
0100
0001
1000
0010
0000
0100
0000
,
0001
0001
0001
0001
,
1000
1000
0010
0010
,
0100
0001
0100
0000
0010
1000
0010
0000
,
2000
0000
3002
0000
2003
0000
3010
0010
,
0100
0000
0001
0000
1000
0000
0010
0100
,
0001
0000
0100
0010
1000
0000
0010
0100
,
0001
0011
1000
1010
,
0001
0101
1000
1100
,
0001
0000
1000
0000
0010
0000
0100
0001
,
0010
0000
0100
1000
0010
0000
0100
0010
,
0200
0001
0001
0301
,
0020
1000
1000
1030
,
2002
0000
0000
0000
,
3003
0000
0110
0110
,
0010
1000
0001
0100
0020
0000
0030
0000
,
0100
0001
1000
0010
0200
0000
0300
0000
,
0010
1000
0100
0000
0010
0001
0100
0000
,
0110
0000
1001
0010
0200
0000
0310
0000
,
1000
0100
0010
0001
0200
0000
0300
0000
,
0001
0010
0100
1000
0020
0000
0030
0000
,
1000
0100
0010
0000
0001
0010
0100
0000
,
1000
0100
0010
0001
0010
0100
2000
0000
,
3001
0100
0001
0010
,
0001
0100
0001
0000
1000
0100
1000
0000
,
1000
0010
1000
0100
,
1000
0010
1000
0000
0001
0010
0001
0000
,
0001
0100
1000
0100
,
0001
0010
0001
0000
1000
0010
1000
0000
,
0001
0100
0001
0000
1000
0100
1000
0000
,
0010
0001
0010
2000
,
3001
1001
1000
1100
,
1000
1010
1000
1100
,
0001
1001
0001
0011
,
0001
0101
0001
0011
,
1000
0110
0001
1010
,
0100
0011
1000
0110
,
0001
0010
0100
1000
0020
0000
0000
0130
,
0001
1000
0010
0100
0100
0000
0110
0000
,
1001
0000
0000
0000
;

//---------------dance-single - ----------------
#NOTES:
     dance-single:
     :
     Hard:
     11:
     0.484073,0.479813,0.325297,0.551198,0.058734,375.000000,339.000000,36.000000,61.000000,0.000000,0.000000,0.484073,0.479813,0.325297,0.551198,0.058734,375.000000,339.000000,36.000000,61.000000,0.000000,0.000000:
0000
0000
0000
0000
,
0000
0000
0000
0000
,
0000
0000
0000
0000
,
0000
0000
0000
0000
,
0000
0000
0000
0000
,
1000
1000
0001
0001
,
1000
0001
1000
0001
0100
0010
0100
0010
,
1000
0001
0100
0010
1000
0001
0100
0010
,
1000
0000
0100
0000
0010
0000
0001
0000
0010
0000
0100
0000
1000
0000
0010
0100
,
0020
0000
0130
0000
0100
0001
0010
0100
,
1000
0010
0100
0000
0101
0000
1010
0000
,
1001
0000
0110
0000
0010
1000
0100
0010
,
0001
0100
0010
0000
1010
0000
0101
0000
,
1001
0000
0110
0000
0010
1000
0001
0100
,
0010
0010
0010
0000
0110
0000
1001
0000
,
0001
0000
0010
0000
0100
0000
1000
0000
0020
0000
0000
0000
0000
0000
0130
0001
,
0100
0010
1000
0100
0010
0001
1000
0010
,
0200
0001
0001
0301
,
0002
1000
1000
1003
,
2000
0010
0010
3010
,
0020
0100
0100
0130
,
0200
0301
0002
0013
,
0020
0000
0000
0000
0130
0000
0000
0000
0200
0000
0000
0000
1300
0000
1000
0010
,
1000
0100
0010
0002
0000
0103
0100
0010
,
1010
0000
0000
0101
0000
0000
0021
0000
0000
0000
0031
0000
0010
0000
0100
0000
,
1000
0000
0000
1000
0010
0000
0000
0000
0001
0000
0000
0001
0010
0000
1000
0000
,
0100
0010
0001
0100
0010
0010
0010
0000
,
1100
0010
0101
0010
,
1100
0000
0000
0001
0000
0000
2002
0000
3003
0000
1000
0000
0100
0000
0010
0000
,
0001
0000
0000
0001
0100
0000
0000
0000
1000
0000
0000
1000
0100
0000
0001
0000
,
0010
0100
1000
0010
0100
0100
0100
0000
,
2010
0000
0000
0000
3001
0000
0000
0000
0102
0000
0000
0000
1003
0000
1000
0001
,
1000
0000
0000
0100
0000
0000
0010
0000
0001
0000
0000
1000
0000
0000
0010
0000
,
0220
0000
0000
0000
,
0330
0000
1010
0101
,
0002
0013
2000
3010
0002
0013
2000
3010
,
0002
0103
2000
3100
0002
0103
2000
3100
,
0002
0010
1003
0010
2000
0100
3001
0100
,
0001
0010
0100
1000
0010
0000
0110
0000
,
2000
3100
0002
0103
2000
3100
0002
0103
,
2000
3010
0002
0013
2000
3010
0002
0013
,
2000
0100
3001
0100
0002
0010
1003
0010
,
1000
0100
0010
0001
0100
0000
0110
0010
,
2000
3100
0020
0130
2000
3100
0010
0010
,
0002
0100
1003
0010
2000
0100
3001
0000
,
0002
0013
0200
0310
0002
0013
0100
0100
,
2000
0010
3001
0100
0002
0010
1003
0000
,
2000
3010
0002
0013
0200
0310
0100
0001
,
0020
1000
0031
1000
0200
0001
1300
0001
,
0020
0130
2000
3010
0002
0103
2000
3001
,
0020
0130
2000
3001
0101
0000
1010
0000
,
0110
0000
1001
0000
0001
0100
1000
0001
,
0010
1000
0100
0000
0010
0000
0011
0000
,
0110
0000
1001
0000
1000
0010
0001
1000
,
0100
0001
0010
0000
0100
0000
1100
0000
,
0110
0000
1001
0000
0001
0100
1000
0010
,
0001
1000
0010
0100
0001
0000
0011
0000
,
1100
0000
0100
0000
0010
0000
0001
0000
0200
0000
0000
0000
0000
0000
0310
1000
,
0010
0100
1000
0001
0010
0100
0002
0000
,
1003
0000
0000
0000
;

//---------------dance-single - ----------------
#NOTES:
     dance-single:
     :
     Challenge:
     14:
     0.597669,0.669231,0.768063,0.216865,0.302707,463.000000,378.000000,85.000000,24.000000,248.000000,0.000000,0.597669,0.669231,0.768063,0.216865,0.302707,463.000000,378.000000,85.000000,24.000000,248.000000,0.000000:
0000
0000
0000
0000
,
0000
0000
0000
0000
,
0000
0000
0000
0000
,
0000
0000
0000
0000
,
0000
0000
0000
0000
,
1000
0001
0100
0010
,
1000
0001
0100
0010
1000
0001
0010
0100
,
1000
0010
1000
0010
1000
0010
1000
0010
0100
0001
0100
0001
0100
0001
0100
0002
,
2000
0000
0000
0000
0000
0000
0000
0000
3003
0000
0000
0000
1000
0100
0010
0001
,
0010
0000
0001
0100
0020
0000
0030
0000
1010
0000
MMMM
0000
0101
0000
MMMM
0000
,
1010
MMMM
0101
MMMM
0110
0100
0001
0010
,
0100
0000
1000
0010
0200
0000
0300
0000
0101
0000
MMMM
0000
1010
0000
MMMM
0000
,
0101
MMMM
1010
MMMM
0110
0010
1000
0001
,
0010
0000
0100
1000
0020
0000
0030
0000
0110
0000
MMMM
0000
1001
0000
MMMM
0000
,
0110
MMMM
1001
MMMM
0110
0010
1000
0100
,
0010
0000
0001
0000
0100
0000
0010
0000
2000
0000
0000
0000
0000
0000
3001
0010
,
0100
1000
0010
0001
0010
0100
1000
0100
,
0002
0000
0010
0000
0013
0001
0010
0100
,
2000
0000
0100
0000
3100
1000
0100
0010
,
0022
0000
0033
2200
0000
0000
3300
1000
,
0010
0100
0001
1001
MMMM
1000
0100
0010
,
0002
0000
0100
0000
0103
0001
0010
0100
,
2000
0000
0000
0000
0010
0000
0000
0000
0010
0000
0000
0000
3010
0000
0010
0100
,
0001
0000
0100
0000
0010
0000
1000
0200
0000
0000
0301
0000
0100
0000
0010
0000
,
0011
0000
0000
1100
0000
0000
0110
0000
MMMM
0000
0010
0000
0100
0000
0010
0000
,
1001
0000
0000
0001
0100
0000
0000
0100
0010
0000
0000
0010
1000
0000
1000
0100
,
0000
0100
0010
0001
0010
0001
0100
0010
1000
0000
0001
0000
1001
0000
MMMM
0000
,
1000
0000
0000
0010
0100
0000
0001
0000
0101
0000
0000
0100
0010
0000
1000
0000
,
1010
0000
0000
0101
0000
0000
0110
0000
MMMM
0000
0010
0000
0100
0000
0010
0000
,
1001
0000
0000
1000
0010
0000
0000
0010
0100
0000
0000
0100
0001
0000
0001
0010
,
0000
0010
0100
1000
0100
1000
0010
0100
0001
0000
1000
0000
1001
0000
MMMM
0000
,
0002
0000
0000
0000
0203
0000
0000
0000
2300
0000
0000
0000
3010
0000
0010
0001
,
0100
0000
0000
0110
0000
0000
1010
0000
1100
0000
0000
0011
0000
0000
0101
0000
,
2002
0000
0000
0000
,
3003
MMMM
MMMM
MMMM
0110
0000
0110
0000
,
0010
1000
0100
0000
0010
0001
0100
0000
0010
1000
0100
0000
0110
0000
MMMM
0000
,
0010
0100
1000
0000
0001
0010
0100
0000
0010
0100
1000
0000
1001
0000
MMMM
0000
,
0001
0100
0010
0000
0001
0000
0010
0000
1000
0100
0010
0000
0100
0000
1000
0000
,
1010
MMMM
0011
MMMM
0101
MMMM
1100
MMMM
,
1000
0010
0001
0000
1000
0100
0001
0000
1000
0010
0100
0000
0101
0000
MMMM
0000
,
0001
0010
1000
0000
0001
0100
1000
0000
0001
0010
0100
0000
1100
0000
MMMM
0000
,
1000
0010
0100
0000
1000
0000
0100
0000
0001
0010
0100
0000
0010
0000
0001
0000
,
0100
1000
0100
0000
0010
0000
0100
0000
0010
0001
0010
0000
0110
0000
MMMM
0000
,
1010
0000
MMMM
0000
1100
0000
MMMM
0000
0101
0000
MMMM
0000
0011
0000
0001
0100
,
1000
0000
0001
0000
0010
0000
1000
0100
0001
0000
0100
0000
0110
0000
MMMM
0000
,
0011
0000
MMMM
0000
0101
0000
MMMM
0000
1100
0000
MMMM
0000
1010
0000
1000
0100
,
0001
1000
0010
0001
0100
0010
0110
MMMM
,
1010
0000
MMMM
0000
1100
0000
MMMM
0000
0101
0000
MMMM
0000
0011
0000
0001
0100
,
1000
0000
0001
0000
0010
0000
1000
0100
0001
0000
1000
0000
0010
0000
0001
0100
,
0010
0000
1000
0010
0100
0000
0001
0000
1001
0000
MMMM
0000
1000
0000
0100
0000
,
0010
0001
0100
0010
0110
MMMM
1001
MMMM
,
0220
0330
1010
MMMM
1100
MMMM
0011
MMMM
,
0101
MMMM
0110
0010
1000
0100
0001
0100
,
0010
0000
0001
0100
0010
0000
MMMM
0000
1010
0000
MMMM
0000
0011
0000
MMMM
0000
,
1100
MMMM
0101
0001
0010
0100
0001
0100
,
1000
0000
0010
0100
0001
0000
MMMM
0000
0011
0000
MMMM
0000
1010
0000
MMMM
0000
,
1100
MMMM
0101
MMMM
0110
0010
1000
0001
,
0101
0000
MMMM
0000
1100
0000
MMMM
0000
1010
0000
MMMM
0000
0011
0000
0001
0100
,
1000
0010
0001
0100
0110
MMMM
1001
MMMM
,
0220
0330
MMMM
0000
0000
0000
0000
0000
;

//---------------dance-double - ----------------
#NOTES:
     dance-double:
     :
     Easy:
     5:
     0.215574,0.293219,0.153613,0.081324,0.000000,167.000000,150.000000,17.000000,9.000000,0.000000,0.000000,0.215574,0.293219,0.153613,0.081324,0.000000,167.000000,150.000000,17.000000,9.000000,0.000000,0.000000:
00000000
00000000
00000000
00000000
,
00000000
00000000
00000000
00000000
,
00000000
00000000
00000000
00000000
,
00000000
00000000
00000000
00000000
,
00000000
00000000
00000000
00000000
,
00001000
00000000
00001000
00000000
,
00010000
00000000
00010000
00000000
,
00001000
00000000
00010000
00000000
,
00001000
00010000
00001000
00010000
,
00001000
00011000
00000000
00010000
,
00000000
01000000
00000000
10000000
,
00000000
10010000
00000000
10000000
,
00000000
01000000
00000000
00010000
,
00000000
00011000
00000000
00001000
,
00000000
00000010
00000000
00000001
,
00000000
00001000
00001001
00000000
,
00000001
00000000
00000100
00000000
,
00002000
00000000
00003000
00000000
,
00020000
00000000
00030000
00000000
,
00200000
00000000
00300000
00000000
,
20000000
00000000
30000000
00000000
,
02000000
00000000
03000000
00000000
,
00200000
00000000
00300000
00000000
,
00020000
00000000
00030000
00000000
,
01000000
01000000
01000000
00000000
,
00001000
00010000
00000100
00000000
,
00010000
00001000
01000000
00000000
,
00001000
00000000
00010000
00000000
,
00000100
00000000
00000010
00000000
,
00000001
00000100
00001000
00000000
,
00010000
00100000
10000000
00000000
,
01000000
00000000
00100000
00000000
,
00001000
00000000
00010000
00001000
,
00022000
00000000
00000000
00000000
,
00033000
00000000
00011000
00011000
,
00010000
00000100
00000010
00000100
,
00010000
00000100
00000010
00000100
,
00010000
00001000
00100000
01000000
,
00100000
00001000
00011000
00000000
,
00010000
00000010
00000100
00000010
,
00010000
00000010
00000100
00000010
,
00010000
00001000
01000000
00100000
,
01000000
00001000
00011000
00011000
,
00010000
00000100
00000010
00000000
,
00000001
00000100
00001000
00000000
,
00001000
00100000
01000000
00000000
,
10000000
00100000
00010000
00000000
,
00001000
00000100
00000001
00000100
,
00001000
00010000
00100000
10000000
,
00100000
00010000
00001000
00100000
,
01000000
00010000
00001000
00000010
,
00001001
00001001
00000001
00000100
,
00001000
00010000
00100000
00000000
,
10010000
10010000
10000000
00100000
,
00010000
00001000
00000100
00000000
,
00001001
00001001
00000001
00000010
,
00001000
00010000
01000000
10000000
,
00100000
00100000
00100000
00000000
,
01000000
00010000
00001000
00000010
,
00000110
00000000
00000000
00000000
;

//---------------dance-double - ----------------
#NOTES:
     dance-double:
     :
     Medium:
     8:
     0.329170,0.373188,0.234937,0.234937,0.000000,255.000000,229.000000,26.000000,26.000000,0.000000,0.000000,0.329170,0.373188,0.234937,0.234937,0.000000,255.000000,229.000000,26.000000,26.000000,0.000000,0.000000:
00000000
00000000
00000000
00000000
,
00000000
00000000
00000000
00000000
,
00000000
00000000
00000000
00000000
,
00000000
00000000
00000000
00000000
,
00000000
00000000
00000000
00000000
,
00001000
00000000
00010000
00000000
,
00001000
00010000
00001000
00010000
,
00001000
00010000
00001000
00000000
00010000
00001000
00010000
00000000
,
00001000
00010000
00001000
00020000
00002000
00000000
00030000
00000000
,
00013000
00011000
00010000
01000000
,
10000000
00100000
00010000
00001000
,
00010000
00011000
00001000
00000100
,
00000001
00000010
00001000
00010000
,
00001000
00011000
00010000
00100000
,
10000000
01000000
00010000
00001000
,
00011000
00000100
00002002
00003003
,
00000001
00000010
00000100
00001000
00000100
00000000
00010000
00000000
,
00002000
00000000
00000000
00003000
,
00200000
00000000
00000000
00300000
,
02000000
03000000
20000000
30000000
,
00100000
01000000
00010000
01000000
00100000
00000000
10000000
00000000
,
00020000
00000000
00000000
00030000
,
02000000
03000000
00002000
00003000
,
00010000
00000100
00010000
00000000
00001000
01000000
00001000
00000000
,
00020000
00000000
00032000
00000000
00003200
00000000
00000301
00000001
,
00000010
00000000
00000001
00000000
00000100
00000000
00000001
00000010
,
00001000
00000000
00000010
00001000
00010000
00000000
00100000
00000000
,
01000000
01010000
00100000
10100000
,
00010000
00110000
10000000
11000000
,
01000000
00100000
00001000
00010000
,
00000100
00000010
00000001
00000000
00000100
00000010
00001000
00000000
,
00000200
00010000
00010000
00010300
,
02000000
00001000
00001000
03001000
,
00022000
00000000
00000000
00000000
,
00033000
00000000
00011000
00011000
,
00100000
00010000
00100000
01000000
20000000
00000000
30000000
00000000
,
01000000
10000000
01000000
00100000
00020000
00000000
00030000
00000000
,
01000000
00001000
00010000
00000100
,
00000110
00000000
00001000
00000001
00002000
00000000
00003001
00000000
,
00000001
00000010
00000100
00001000
00000200
00000000
00000300
00000000
,
00010000
00001000
00010000
00100000
02000000
00000000
03000000
00000000
,
00100000
10000000
01000000
00010000
,
00001000
00100000
00001000
00000000
00010000
00000010
00020000
00000000
,
00031000
00001000
00000100
00000001
,
00000010
00000100
00001000
00000000
00000100
00001000
00010000
00000000
,
00100000
01000000
10000000
00100000
,
00010000
00001000
00000010
00000000
00001000
00000010
00000001
00000000
,
00000100
00001000
00010000
00100000
,
10000000
01000000
00100000
00000000
01000000
00100000
00010000
00000000
,
00001000
00000010
00000100
00000000
00000010
00000100
00000001
00000000
,
00001000
00000010
00000100
00002000
,
00013000
00011000
00001000
01001000
,
00001000
00011000
00001000
00101000
,
00010000
00011000
00010000
00010010
,
00010000
00011000
00010000
00010100
,
00001000
00101000
00010000
00010100
,
00001000
01001000
00010000
00010010
,
00000010
00001000
00000100
00000010
00002000
00000000
00000000
00013000
,
00001000
00010000
01000000
10000000
01000000
00000000
00010000
00000000
,
00011000
00000000
00000000
00000000
;

//---------------dance-double - ----------------
#NOTES:
     dance-double:
     :
     Hard:
     11:
     0.441475,0.479813,0.316261,0.262045,0.018072,342.000000,307.000000,35.000000,29.000000,0.000000,0.000000,0.441475,0.479813,0.316261,0.262045,0.018072,342.000000,307.000000,35.000000,29.000000,0.000000,0.000000:
// measure 0
00000000
00000000
00000000
00000000
,  // measure 1
00000000
00000000
00000000
00000000
,  // measure 2
00000000
00000000
00000000
00000000
,  // measure 3
00000000
00000000
00000000
00000000
,  // measure 4
00000000
00000000
00000000
00000000
,  // measure 5
00001000
00010000
00100000
10000000
,  // measure 6
01000000
00100000
01000000
00100000
00001000
00010000
00001000
00010000
,  // measure 7
00000100
00000010
00000001
00001000
00000100
00000010
00000001
00000100
,  // measure 8
00001000
00010000
00100000
10000000
01000000
00010000
00002000
00000000
,  // measure 9
00023000
00000000
00030100
00000000
00001100
00001000
00000100
00000010
,  // measure 10
00000001
00000100
00000010
00000000
00001000
00000000
00000100
00000000
,  // measure 11
00020000
00000000
00031000
00000000
00101000
00100000
00010000
00100000
,  // measure 12
01000000
10000000
00100000
00000000
01000000
00000000
00010000
00000000
,  // measure 13
00200000
00000000
00301000
00000000
00011000
00010000
00001000
00000100
,  // measure 14
00000010
00000100
00000001
00000000
00000010
00000000
00001000
00000000
,  // measure 15
00011000
00010000
01000000
10000000
00200000
00000000
00000000
01300000
,  // measure 16
01000000
00100000
10000000
00010000
00100000
01000000
00010000
00001000
,  // measure 17
00000020
00000000
00000000
00000030
,  // measure 18
00000002
00000000
00000000
00000003
,  // measure 19
00000200
00000000
00000000
00000300
,  // measure 20
00002000
00000000
00000000
00003000
,  // measure 21
00020000
00030000
00200000
00300000
,  // measure 22
20000000
00000000
30000000
00000000
02000000
00000000
03010000
00010000
,  // measure 23
00001000
00000100
00000001
00000020
00000000
00000130
00000010
00000001
,  // measure 24
00000101
00000000
00000000
00001100
00000000
00000000
00011000
00000000
00000000
00000000
00001000
00000000
00100000
00000000
01000000
00000000
,  // measure 25
20000000
00000000
30200000
00000000
00320000
00000000
00031000
00100000
,  // measure 26
01000000
10000000
00100000
01000000
00010000
00100000
00101000
00000000
,  // measure 27
00000100
00011000
01000000
00011000
,  // measure 28
00000100
00000000
00000000
00000100
00000000
00000000
00000110
00000000
00000000
00000000
00000010
00000000
00000100
00000000
00000010
00000000
,  // measure 29
00000002
00000000
00000203
00000000
00002300
00000000
00013000
00001000
,  // measure 30
00000100
00000001
00000010
00000100
00001000
00000010
00010010
00000000
,  // measure 31
00020000
00000000
00032000
00000000
00203000
00000000
01300000
01000000
,  // measure 32
10000000
00000000
00000000
00100000
00000000
00000000
00010000
00000000
00001000
00000000
00000000
00000100
00000000
00000000
00000001
00000000
,  // measure 33
00002002
00000000
00000000
00000000
,  // measure 34
00003003
00000000
00000110
00000110
,  // measure 35
00000001
00000100
00001000
00000100
00000001
00000100
00001000
00010000
,  // measure 36
00100000
10000000
00100000
00010000
00100000
10000000
01000000
00100000
,  // measure 37
00001000
00010000
01000000
00000000
10000000
00100000
00010000
00000000
,  // measure 38
00001000
00100000
01000000
10000000
00100000
01000000
01100000
00000000
,  // measure 39
10000000
01000000
00010000
01000000
10000000
01000000
00010000
00001000
,  // measure 40
00000010
00000001
00000010
00001000
00000010
00000001
00000100
00000010
,  // measure 41
00010000
00001000
00000100
00000000
00000001
00000010
00001000
00000000
,  // measure 42
00010000
00000010
00000100
00000001
00000010
00000100
00000110
00000000
,  // measure 43
00000001
00000100
00001000
00010000
00100000
10000000
11000000
00000000
,  // measure 44
10000000
00100000
00010000
00001000
00000100
00000001
00000011
00000000
,  // measure 45
00000001
00000010
00000100
00010000
00001000
00100000
01100000
00000000
,  // measure 46
10000000
01000000
00100000
00001000
00010000
00000100
00000110
00000000
,  // measure 47
00000001
00000100
00000010
00001000
00010000
01000000
10100000
00000000
,  // measure 48
10000000
00100000
01000000
00010000
00001000
00000010
00000101
00000000
,  // measure 49
00000001
00000010
00000100
00001000
00010000
00100000
01000000
10000000
,  // measure 50
01000000
00100000
00010000
00001000
00001010
00000000
00000101
00000000
,  // measure 51
00000110
00000000
00001001
00000000
00000001
00000100
00001000
00010000
,  // measure 52
00100000
10000000
02000000
00000000
03100000
00000000
00110000
00000000
,  // measure 53
01100000
00000000
10010000
00000000
10000000
00100000
00010000
00001000
,  // measure 54
00000100
00000001
00000020
00000000
00000130
00000000
00001100
00000000
,  // measure 55
00000110
00000000
00001001
00000000
00000001
00000010
00000100
00001000
,  // measure 56
00010000
01000000
00100000
10000000
00010000
00000000
00110000
00000000
,  // measure 57
11000000
01000000
00010000
00001000
00000020
00000000
00000000
00000031
,  // measure 58
00000001
00000010
00000100
00000001
00000100
00010000
00002000
00000000
,  // measure 59
01003000
00000000
00000000
00000000
;

//---------------dance-double - ----------------
#NOTES:
     dance-double:
     :
     Challenge:
     14:
     0.557653,0.669231,0.605414,0.243973,0.280117,432.000000,365.000000,67.000000,27.000000,496.000000,0.000000,0.557653,0.669231,0.605414,0.243973,0.280117,432.000000,365.000000,67.000000,27.000000,496.000000,0.000000:
00000000
00000000
00000000
00000000
,
00000000
00000000
00000000
00000000
,
00000000
00000000
00000000
00000000
,
00000000
00000000
00000000
00000000
,
00000000
00000000
00000000
00000000
,
10000000
01000000
00100000
00010000
,
00001000
00000010
00000100
00000001
00000010
00000100
00001000
00010000
,
01000000
00100000
01000000
00100000
01000000
00100000
01000000
00100000
00010000
00001000
00010000
00001000
00010000
00001000
00010000
00002000
,
00020000
00000000
00000000
00000000
00000000
00000000
00000000
00000000
00033000
00000000
00000000
00000000
00001000
00010000
00001000
00000100
,
00000010
00000000
00000100
00000001
00000200
00000000
00000300
00000000
00000010
00000000
MMMMMMMM
00000000
00001000
00000000
MMMMMMMM
00000000
,
00010000
MMMMMMMM
01000000
MMMMMMMM
01100000
00100000
10000000
00010000
,
00100000
00000000
01000000
10000000
02000000
00000000
03000000
00000000
00100000
00000000
MMMMMMMM
00000000
00010000
00000000
MMMMMMMM
00000000
,
00001000
MMMMMMMM
00000100
MMMMMMMM
00000110
00000010
00000001
00000100
,
00000010
00000000
00001000
00000001
00002000
00000000
00003000
00000000
00000001
00000000
MMMMMMMM
00000000
00001000
00000000
MMMMMMMM
00000000
,
00010000
MMMMMMMM
10000000
MMMMMMMM
10010000
00010000
01000000
00100000
,
10000000
00000000
00010000
00000000
00100000
00000000
01000000
00000000
20000000
00000000
00000000
00000000
00000000
00000000
30100000
00010000
,
00001000
00010000
00100000
00010000
00001000
00000010
00001000
00010000
,
00000200
00000000
00000000
00000000
00000000
00001300
00000100
00000010
,
00000002
00000000
00000000
00000000
00000000
00000103
00001000
00010000
,
00020200
00000000
00030300
02002000
00000000
00000000
03003000
00001000
,
00010000
00100000
10000000
10010000
MMMMMMMM
00010000
00100000
01000000
,
00020000
00000000
00000000
00000000
00000000
00031000
00010000
00000100
,
00000020
00000000
00000000
00000000
00000000
00000000
00000002
00000000
00000000
00000000
00000030
00000000
00000000
00000000
00000013
00000100
,
00001000
00000000
00000100
00000000
00010000
00000000
00001000
02000000
00000000
00000000
03010000
00000000
00100000
00000000
01000000
00000000
,
11000000
00000000
00000000
10010000
00000000
00000000
01100000
00000000
MMMMMMMM
00000000
00100000
00000000
10000000
00000000
01000000
00000000
,
00011000
00000000
00000000
00001000
00000010
00000000
00000000
00000010
00000001
00000000
00000000
00000001
00000100
00000000
00000100
00001000
,
00000000
00010000
00001000
00010000
00100000
00000000
10000000
01000000
00100000
00000000
00010000
00000000
10010000
00000000
MMMMMMMM
00000000
,
10000000
00000000
00000000
00100000
01000000
00000000
00010000
00000000
00011000
00000000
00000000
00000100
00000010
00000000
00001000
00000000
,
00011000
00000000
00000000
00001100
00000000
00000000
00000101
00000000
MMMMMMMM
00000000
00000010
00000000
00000001
00000000
00000100
00000000
,
00011000
00000000
00000000
00010000
00100000
00000000
00000000
00100000
10000000
00000000
00000000
10000000
01000000
00000000
01000000
00010000
,
00000000
00001000
00010000
00001000
00000010
00000000
00000001
00000100
00000010
00000000
00001000
00000000
00001001
00000000
MMMMMMMM
00000000
,
00000002
00000000
00000000
00000000
00000023
00000000
00000000
00000000
00002030
00000000
00000000
00000000
00013000
00000000
00001000
00010000
,
01000000
00000000
00000000
11000000
00000000
00000000
00110000
00000000
01001000
00000000
00000000
00010100
00000000
00000000
00001010
00000000
,
00000202
00000000
00000000
00000000
,
00000303
MMMMMMMM
MMMMMMMM
MMMMMMMM
00011000
00000000
00022000
00033000
,
00010000
00001000
01000000
00000000
00001000
00010000
00000100
00000000
00010000
00001000
00100000
00000000
00001000
00000000
MMMMMMMM
00000000
,
00010000
00001000
00000010
00000000
00001000
00010000
01000000
00000000
00010000
00001000
00000100
00000000
00001000
00000000
MMMMMMMM
00000000
,
00010000
01000000
10000000
00000000
01000000
00000000
00010000
00000000
00001000
00000000
00000100
00000000
00000001
00000000
00000010
00000000
,
00000011
MMMMMMMM
00001100
MMMMMMMM
01010000
MMMMMMMM
10100000
MMMMMMMM
,
10000000
01000000
00010000
00000000
01000000
00010000
00001000
00000000
00010000
00001000
00000010
00000000
00000011
00000000
MMMMMMMM
00000000
,
00000001
00000100
00001000
00000000
00000100
00001000
00010000
00000000
00001000
00010000
00100000
00000000
10100000
00000000
MMMMMMMM
00000000
,
10000000
01000000
00100000
00000000
01000000
00000000
00010000
00000000
00001000
00000000
00000010
00000000
00000100
00000000
00000010
00000000
,
00000001
00000100
00001000
00000000
00010000
00000000
00001000
00000000
00010000
00100000
10000000
00000000
10010000
00000000
MMMMMMMM
00000000
,
10100000
00000000
MMMMMMMM
00000000
11000000
00000000
MMMMMMMM
00000000
01010000
00000000
MMMMMMMM
00000000
00110000
00000000
00100000
01000000
,
10000000
00000000
00100000
00000000
00010000
00000000
00001000
00000100
00000010
00000000
00000100
00000000
00000110
00000000
MMMMMMMM
00000000
,
00000101
00000000
MMMMMMMM
00000000
00000011
00000000
MMMMMMMM
00000000
00001010
00000000
MMMMMMMM
00000000
00001100
00000000
00000100
00000010
,
00000001
00000100
00001000
00010000
01000000
00100000
01100000
MMMMMMMM
,
11000000
00000000
MMMMMMMM
00000000
00110000
00000000
MMMMMMMM
00000000
00001010
00000000
MMMMMMMM
00000000
00000101
00000000
00000001
00000010
,
00001000
00000000
00010000
00000000
00100000
00000000
10000000
01000000
00010000
00000000
00001000
00000000
00000010
00000000
00000001
00000100
,
00000010
00001000
00010000
01000000
10100000
MMMMMMMM
10000000
01000000
,
00100000
00010000
00001000
00000010
00000101
MMMMMMMM
00001100
MMMMMMMM
,
00022000
00033000
00011000
MMMMMMMM
10000000
MMMMMMMM
00011000
MMMMMMMM
,
00000001
MMMMMMMM
00011000
00010000
01000000
10000000
01000000
00100000
,
00001000
00000000
00010000
00001000
00010000
00000000
MMMMMMMM
00000000
00000001
00000000
MMMMMMMM
00000000
00011000
00000000
MMMMMMMM
00000000
,
10000000
MMMMMMMM
00011000
00001000
00000010
00000001
00000010
00000100
,
00010000
00000000
00001000
00010000
00001000
00000000
MMMMMMMM
00000000
00011000
00000000
MMMMMMMM
00000000
10010000
00000000
MMMMMMMM
00000000
,
00011000
MMMMMMMM
00001001
MMMMMMMM
00011000
00010000
01000000
10000000
,
10100000
00000000
MMMMMMMM
00000000
01001000
00000000
MMMMMMMM
00000000
00010100
00000000
MMMMMMMM
00000000
00000011
00000000
00000001
00000010
,
00000100
00001000
00010000
00100000
11000000
MMMMMMMM
00110000
MMMMMMMM
,
00022000
00033000
MMMMMMMM
00000000
00000000
00000000
00000000
00000000
;
