#TITLE:My Way;
#SUBTITLE:;
#ARTIST:BanYa;
#TITLETRANSLIT:;
#SUBTITLETRANSLIT:;
#ARTISTTRANSLIT:;
#GENRE:VARIETY;
#CREDIT:MUINELIM;
#BANNER:My Way.png;
#BACKGROUND:My Way-bg.PNG;
#LYRICSPATH:;
#CDTITLE:;
#MUSIC:My Way.MP3;
#OFFSET:-0.071000;
#SAMPLESTART:32.582462;
#SAMPLELENGTH:11.959999;
#SELECTABLE:YES;
#BPMS:0.000000=118;
#STOPS:
;
#BGCHANGES:;
#KEYSOUNDS:;
#ATTACKS:;

//---------------dance-single - ----------------
#NOTES:
     dance-single:
     :
     Beginner:
     3:
     0.134525,0.169223,0.000000,0.000000,0.000000,93.000000,93.000000,0.000000,0.000000,0.000000,0.000000,0.134525,0.169223,0.000000,0.000000,0.000000,93.000000,93.000000,0.000000,0.000000,0.000000,0.000000:
0000
0000
0000
0000
,
0000
0000
0000
0000
,
0000
0000
0000
0000
,
0000
0000
0000
0000
,
1000
0000
1000
0000
,
1000
1000
1000
0000
,
0001
0000
0001
0000
,
0001
0001
0001
0000
,
0100
0000
0100
0000
,
0100
0100
0100
0000
,
0010
0010
0010
0000
,
0010
0000
0010
0000
,
1000
0000
0000
0000
,
0100
0000
0000
0000
,
0001
0000
0000
0000
,
0010
0000
0000
0000
,
1000
0000
0001
0000
,
1000
1000
1000
0000
,
0001
0000
1000
0000
,
0001
0001
0001
0000
,
0100
0000
0010
0000
,
0100
0100
0100
0000
,
0010
0010
0010
0000
,
0100
0000
0010
0000
,
1000
0000
0000
0000
,
0010
0000
0000
0000
,
0001
0000
0000
0000
,
0100
0000
0100
0000
,
1000
0000
0000
0000
,
0001
0000
0000
0000
,
0100
0000
0100
0000
,
0010
0000
0010
0000
,
1000
1000
1000
1000
,
1000
0000
0000
0000
,
0001
0001
0001
0001
,
0001
0000
0000
0000
,
0100
0100
0100
0100
,
0100
0000
0000
0000
,
0010
0010
0010
0010
,
0010
0000
0010
0000
,
1000
0000
0001
0000
,
0100
0000
0010
0000
,
1000
0000
0001
0000
,
0100
0000
0010
0000
,
0001
0000
0100
0000
,
1000
0000
0010
0000
,
0001
0000
0100
0000
,
1000
0000
0010
0010
;

//---------------dance-single - ----------------
#NOTES:
     dance-single:
     :
     Easy:
     5:
     0.203958,0.241748,0.030377,0.000000,0.000000,141.000000,138.000000,3.000000,0.000000,0.000000,0.000000,0.203958,0.241748,0.030377,0.000000,0.000000,141.000000,138.000000,3.000000,0.000000,0.000000,0.000000:
0000
0000
0000
0000
,
0000
0000
0000
0000
,
0000
0000
0000
0000
,
0000
0000
0000
0000
,
1000
1000
1000
0000
,
0001
1000
0001
0000
,
0001
0001
0001
0000
,
1000
0001
1000
1000
,
0010
0010
0010
0000
,
0100
0010
0100
0000
,
0100
0100
0100
0000
,
0010
0100
0010
0110
,
1000
0000
0000
0000
,
0010
0000
0010
0000
,
0001
0000
0000
0000
,
0100
0100
0100
0100
,
1000
0010
1000
0000
,
0001
0100
0001
0000
,
1000
0010
1000
0000
,
0001
0100
0001
0001
,
1000
0100
1000
0000
,
0001
0010
0001
0000
,
1000
0100
1000
0000
,
0001
0010
0001
0001
,
0100
0000
0000
0100
,
1000
0000
0000
1000
,
0010
0000
0000
0010
,
0001
0000
0100
0000
,
0100
0010
0100
0100
,
0001
1000
0001
0001
,
1001
0000
0000
0100
,
0100
0000
0010
0010
,
1000
0100
0010
0001
,
1000
0100
0010
0010
,
0001
0010
0100
1000
,
0001
0010
0100
0100
,
1000
0010
0001
1000
,
0010
0001
1000
1000
,
0001
0100
1000
0001
,
0100
1000
1000
0000
,
0001
0100
0001
0000
,
1000
0010
1000
0000
,
0001
0100
0001
0000
,
1000
0010
1000
1000
,
0001
0010
0001
0000
,
1000
0100
1000
0000
,
0001
0010
0001
0000
,
1000
0100
1000
1001
;

//---------------dance-single - ----------------
#NOTES:
     dance-single:
     :
     Medium:
     7:
     0.302320,0.338447,0.091130,0.000000,0.000000,209.000000,200.000000,9.000000,0.000000,0.000000,0.000000,0.302320,0.338447,0.091130,0.000000,0.000000,209.000000,200.000000,9.000000,0.000000,0.000000,0.000000:
0000
0000
0000
0000
,
0000
0000
0000
0000
,
0000
0000
0000
0000
,
0000
0000
0000
0000
,
1000
0100
0010
0000
,
1000
0100
0110
0000
,
0001
0010
0100
0000
,
0001
0010
0110
1000
,
1000
0001
0100
0000
,
1000
0001
0100
0110
,
0001
1000
0100
0000
,
0001
1000
0110
0001
,
0001
0010
0100
0000
,
0000
0100
1000
0100
0100
0000
1000
0000
,
0010
0010
0100
0000
,
0010
0100
0001
0000
0100
0010
1000
0000
,
0001
0010
1000
0100
,
0001
0000
0010
0010
1000
0000
0000
0000
,
0001
0100
1000
0010
,
0001
0000
0100
0000
1000
1000
0010
0000
,
1000
0100
0001
0010
,
1000
0000
0100
0100
0001
0000
0000
0000
,
1000
0010
0001
0100
,
1000
0000
0010
0010
0001
0000
1001
0000
,
0100
0000
0010
0000
0100
0010
1000
0000
,
0010
0000
0100
0000
0010
0100
0001
0000
,
0100
0001
0010
0000
0100
1000
0010
0000
,
0100
0000
0100
0000
0001
1000
1001
0000
,
0010
0010
0001
0100
,
1000
0010
0001
0000
0001
0100
1000
0000
,
1010
0000
0001
0000
0010
0010
0010
0000
,
0100
0000
1000
1000
0000
0000
0011
0000
,
0001
0100
0001
0000
1000
0100
1000
0000
,
0001
0010
0001
0000
1000
0000
0001
0000
,
1000
0010
1000
0000
0001
0100
0001
0000
,
1000
0100
1000
0000
0001
0000
1000
0000
,
0010
0100
0001
0000
0100
0010
1000
0000
,
0001
0010
0100
0000
1000
0100
0010
0000
,
0001
0100
1000
0000
0001
0010
1000
0000
,
0100
0010
0001
0100
0100
0010
1000
0000
,
0001
0100
1000
0010
,
0001
0000
0100
0100
1000
0000
0000
0000
,
0001
0010
1000
0100
,
0001
0000
0010
0000
1000
1000
0100
0000
,
1000
0010
0001
0100
,
1000
0000
0010
0010
0001
0000
0000
0000
,
1000
0100
0001
0010
,
1000
0000
0100
0100
0001
1000
1001
0000
;

//---------------dance-single - ----------------
#NOTES:
     dance-single:
     :
     Hard:
     11:
     0.486027,0.459321,0.222762,0.000000,0.146821,336.000000,314.000000,22.000000,0.000000,0.000000,0.000000,0.486027,0.459321,0.222762,0.000000,0.146821,336.000000,314.000000,22.000000,0.000000,0.000000,0.000000:
// measure 0
0000
0000
0000
0000
,  // measure 1
0000
0000
0000
0000
,  // measure 2
0000
0000
0000
0000
,  // measure 3
0000
0000
0000
0000
,  // measure 4
1000
0100
0010
0001
0010
0010
0000
0001
,  // measure 5
0100
0010
1000
0001
1001
0000
0000
0000
,  // measure 6
0001
0010
0100
1000
0100
0100
0000
1000
,  // measure 7
0010
0100
0001
1000
0100
0010
0110
0000
,  // measure 8
0001
0100
1000
0010
0010
0100
0000
0001
,  // measure 9
1000
0100
0010
0001
1001
0000
0000
0000
,  // measure 10
1000
0010
0001
0100
0100
0010
0000
1000
,  // measure 11
0001
0000
0010
0000
0100
0000
1000
0000
1001
0000
0000
0000
0100
0010
0000
0000
,  // measure 12
1000
0001
0000
0000
0000
0000
0000
0000
0100
0000
0100
0000
0010
0100
0000
0000
,  // measure 13
0010
1000
0001
0100
0010
1000
1001
0000
,  // measure 14
0010
0100
0000
0000
0000
0000
0000
0000
0001
0000
0001
0000
1000
0001
0000
0000
,  // measure 15
1000
0100
0010
0001
1000
0100
0010
0010
,  // measure 16
0001
0100
1000
0100
0010
0010
0000
0001
,  // measure 17
0100
1000
0100
0010
0011
0000
1100
0000
,  // measure 18
1000
0010
0001
0010
0100
0100
0000
1000
,  // measure 19
0010
0001
0010
0100
1100
0000
1001
0000
,  // measure 20
0001
1000
0100
0001
1000
0010
0000
0001
,  // measure 21
0001
1000
0010
0100
0101
0000
1010
0000
,  // measure 22
1000
0001
0010
1000
0001
0100
0000
1000
,  // measure 23
0010
0001
1000
0100
0010
0100
0110
0000
,  // measure 24
0001
0000
0000
0001
0100
0000
0000
0000
1000
0000
0000
1000
0100
0000
0000
0000
,  // measure 25
0001
0000
0010
0000
0100
0000
1000
0000
0001
0000
0010
0100
0010
0000
0000
0000
,  // measure 26
1000
0000
0000
1000
0010
0000
0000
0000
0001
0000
0000
0001
0010
0000
0000
0000
,  // measure 27
1000
0000
1000
0100
0010
0000
0010
0000
0001
0000
0100
0000
0010
1000
0100
0000
,  // measure 28
0010
0000
0000
0001
0100
0000
0000
0000
0010
0000
0000
1000
0100
0000
0000
0000
,  // measure 29
0010
0000
0001
0010
0001
0000
0100
0000
0110
0000
0010
1000
0001
0000
0000
0000
,  // measure 30
0010
0010
0100
1000
0010
0001
1001
0000
,  // measure 31
0010
0000
0100
0001
0100
0000
0010
1000
0000
0000
0100
0000
0110
0000
0000
0000
,  // measure 32
0001
0010
0100
1000
0010
0100
0001
1000
,  // measure 33
0100
0010
0001
1000
0010
0010
0010
0000
,  // measure 34
0001
1000
0010
0100
0001
1000
0100
0010
,  // measure 35
0001
1000
0010
0001
0100
0100
0100
0000
,  // measure 36
1000
0010
0001
1000
0100
0001
0010
1000
,  // measure 37
0001
0100
1000
0010
0100
0100
0100
0000
,  // measure 38
0001
0010
1000
0001
0100
1000
0010
0100
,  // measure 39
0001
1000
0000
0000
1000
0001
0000
0000
0100
0000
0000
0010
0100
0000
0100
0000
,  // measure 40
0001
0010
0001
0000
1000
0000
0010
0000
0100
0000
0100
0000
0000
0000
0001
0010
,  // measure 41
0001
1000
0010
0100
0101
0000
1010
0000
,  // measure 42
1000
0100
1000
0000
0001
0000
0100
0000
0010
0000
0010
0000
0000
0000
1000
0100
,  // measure 43
1000
0001
0100
0010
1010
0000
1001
0000
,  // measure 44
0001
0000
1000
0100
0010
0000
0010
0000
0001
0000
1000
0000
0000
0000
0001
0010
,  // measure 45
0100
0100
1000
0001
0011
0000
1100
0000
,  // measure 46
1000
0010
0100
0000
0100
0000
0001
0010
0100
0000
0100
0000
0000
0000
1000
0000
,  // measure 47
0001
0010
1000
0001
0100
0010
0110
0000
;

//---------------dance-double - ----------------
#NOTES:
     dance-double:
     :
     Easy:
     4:
     0.170688,0.193398,0.040502,0.000000,0.000000,118.000000,114.000000,4.000000,0.000000,0.000000,0.000000,0.170688,0.193398,0.040502,0.000000,0.000000,118.000000,114.000000,4.000000,0.000000,0.000000,0.000000:
00000000
00000000
00000000
00000000
,
00000000
00000000
00000000
00000000
,
00000000
00000000
00000000
00000000
,
00000000
00000000
00000000
00000000
,
00001000
00000000
00001000
00000000
,
00001000
00000000
00001000
00000000
,
00010000
00000000
00010000
00000000
,
00010000
00000000
00010000
00000000
,
00001000
00000000
00001000
00000000
,
00010000
00000000
00010000
00000000
,
00001000
00000000
00010000
00000000
,
00001000
00000000
00010000
00010000
,
00010000
00000000
00000000
00000000
,
00001000
00000000
00000010
00000000
,
00000001
00000000
00000000
00000000
,
00000100
00000000
00001000
00000000
,
00010000
00010000
00010000
00000000
,
00100000
00100000
00100000
00000000
,
10000000
10000000
10000000
00000000
,
01000000
01000000
01000000
00000000
,
01000000
00010000
00001000
00000000
,
00010000
00001000
00000100
00000000
,
00001000
00000100
00000001
00000000
,
00000100
00000001
00000010
00000000
,
00001000
00000000
00011000
00000000
,
00010000
00000000
00011000
00000000
,
00001000
00000000
00010000
00100000
,
00010000
00000000
00001000
00000010
,
00001000
00000000
00001000
00000000
,
00010000
00001000
00011000
00000000
,
00010000
00000000
01000000
00000000
,
10000000
00000000
00100000
00000000
,
00010000
00001000
00010000
00000000
,
00000100
00001000
00000100
00000000
,
00000010
00000001
00000010
00000000
,
00001000
00010000
00001000
00000000
,
01000000
00010000
01000000
00000000
,
00100000
10000000
00100000
00000000
,
00010000
00001000
00010000
00000000
,
00000100
00000000
00010000
00000000
,
00001000
00001000
00001000
00000000
,
00000010
00000010
00000010
00000000
,
00000001
00000001
00000001
00000000
,
00000100
00000100
00000100
00000000
,
00000100
00001000
00010000
00000000
,
00001000
00010000
01000000
00000000
,
00010000
01000000
10000000
00000000
,
01000000
10000000
00100000
00011000
;

//---------------dance-double - ----------------
#NOTES:
     dance-double:
     :
     Medium:
     8:
     0.309553,0.338447,0.162009,0.000000,0.000000,214.000000,198.000000,16.000000,0.000000,0.000000,0.000000,0.309553,0.338447,0.162009,0.000000,0.000000,214.000000,198.000000,16.000000,0.000000,0.000000,0.000000:
00000000
00000000
00000000
00000000
,
00000000
00000000
00000000
00000000
,
00000000
00000000
00000000
00000000
,
00000000
00000000
00000000
00000000
,
01000000
00010000
00001000
00000000
,
00000100
00001000
00010000
00000000
,
00100000
00010000
00001000
00000000
,
00000010
00001000
00010000
00011000
,
00000100
00010000
00001000
00000000
,
01000000
00001000
00010000
00000000
,
00000010
00010000
00001000
00000000
,
00100000
00001000
00010000
00011000
,
00000100
00000010
00000001
00000000
,
00000000
00000100
00001000
00010000
00100000
00000000
10100000
00000000
,
00000000
10000000
01000000
00010000
,
00001000
00010000
00000100
00000000
00010000
00001000
00100000
00000000
,
00010000
00100000
01000000
10000000
,
00100000
00000000
00010000
00001000
00011000
00000000
00000000
00000000
,
00010000
00000100
00000010
00000001
,
00000100
00000000
00001000
00000000
00010000
00001000
00011000
00000000
,
00000010
00000100
00000001
00000010
,
00001000
00000000
00010000
00001000
00011000
00000000
00000000
00000000
,
00010000
00100000
10000000
01000000
,
00100000
00000000
00001000
00010000
00001000
00010000
00000010
00000000
,
00001000
00000100
00000010
00000011
,
00000001
00000000
00000100
00000000
00001000
00010000
00001000
00000000
,
00010000
00100000
01000000
11000000
,
10000000
00000000
00100000
00000000
00010000
00001000
00010000
00000000
,
00000100
00000010
00000001
00000100
,
00001000
00010000
01000000
00000000
00010000
00001000
00000100
00000000
,
00000101
00000000
00001000
00000000
00000100
00000010
00001000
00000000
,
00010000
01000000
00100000
00100000
00000000
00000000
11000000
00000000
,
10000000
00100000
00010000
00000000
00100000
00010000
00001000
00000000
,
00010000
00001000
00000010
00000000
00000001
00000000
00000101
00000000
,
00000001
00000100
00001000
00000000
00000100
00001000
00010000
00000000
,
00001000
00010000
00100000
00000000
10000000
00000000
11000000
00000000
,
01000000
00010000
00001000
00000000
00010000
00100000
01000000
00000000
,
00100000
00010000
00001000
00000000
00000010
00001000
00010000
00000000
,
00001000
00000100
00000010
00000000
00000100
00001000
00010000
00000000
,
00100000
10000000
01000000
00010000
00001000
00000010
00000001
00000000
,
00001000
00000010
00000100
00000001
,
00000010
00000000
00001000
00010000
00011000
00000000
00000000
00000000
,
00001000
01000000
00100000
10000000
,
01000000
00000000
00010000
00000000
00001000
00010000
00011000
00000000
,
00100000
01000000
10000000
00100000
,
00010000
00000000
00001000
00010000
00011000
00000000
00000000
00000000
,
00001000
00000010
00000001
00000100
,
00000010
00000000
00010000
00001000
00100000
01000000
11000000
00000000
;

//---------------dance-double - ----------------
#NOTES:
     dance-double:
     :
     Hard:
     12:
     0.464329,0.483495,0.222762,0.000000,0.237951,321.000000,299.000000,22.000000,0.000000,0.000000,0.000000,0.464329,0.483495,0.222762,0.000000,0.237951,321.000000,299.000000,22.000000,0.000000,0.000000,0.000000:
00000000
00000000
00000000
00000000
,
00000000
00000000
00000000
00000000
,
00000000
00000000
00000000
00000000
,
00000000
00000000
00000000
00000000
,
00001000
00000000
00000000
00000000
00010000
00000000
00000000
00000000
01000000
10000000
01000000
00000000
00000000
00000000
00000000
00000000
,
00010000
00000000
00001000
00010000
00011000
00000000
00000000
00000000
,
00010000
00000000
00000000
00000000
00001000
00000000
00000000
00000000
00000100
00000001
00000100
00000000
00000000
00000000
00000000
00000000
,
00001000
00000000
00010000
00000000
00001000
00010000
00011000
00000000
,
00010000
00000000
00000000
00000000
01000000
00000000
00000000
00000000
10000000
00100000
01000000
00000000
00000000
00000000
00000000
00000000
,
00010000
00000000
00001000
00010000
00011000
00000000
00000000
00000000
,
00001000
00000000
00000000
00000000
00000010
00000000
00000000
00000000
00000001
00000100
00000010
00000000
00000000
00000000
00001000
00000000
,
00010000
00001000
00010000
00100000
10000000
00000000
10010000
00000000
,
00100000
00100000
00000000
00000000
00000000
00000000
00000000
00000000
00000000
00000000
01000000
00000000
00100000
00100000
00000000
00000000
,
01000000
00010000
00100000
01000000
00010000
00001000
00000010
00000000
,
00000100
00000100
00000000
00000000
00000000
00000000
00000000
00000000
00000000
00000000
00000010
00000000
00000100
00000100
00000000
00000000
,
00000010
00001000
00010000
00100000
10000000
01000000
00010000
00001000
,
00000010
00000100
00000010
00000000
00000001
00000000
00000100
00000000
00001000
00000000
00011000
00000000
00000000
00000000
00010000
00000100
,
00001000
00000100
00001000
00000010
00000001
00000000
00000101
00000000
,
00000100
00001000
00010000
00000000
00001000
00000000
00100000
00000000
01000000
00000000
10000000
00000000
00000000
00000000
00100000
00010000
,
01000000
01000000
00100000
10000000
01000000
00010000
00001000
00000000
,
00100000
00000000
01000000
00100000
01000000
00000000
00010000
00000000
00001000
00000000
00000010
00000000
00000000
00000000
00000001
00000100
,
00000010
00001000
00000010
00001000
00010000
00000000
00110000
00000000
,
00100000
01000000
10000000
00000000
00100000
00000000
00010000
00000000
00001000
00000000
00001000
00000000
00000000
00000000
00010000
00000000
,
00001000
00000010
00000001
00000100
00000010
00000010
00000010
00000000
,
00000000
00001000
00000000
00000100
00001000
00000000
00000000
00000000
00000100
00000000
00010000
00000000
00011000
00000000
00000000
00000000
,
00001000
00000000
00010000
00000000
00100000
00000000
10000000
00000000
01000000
00000000
00100000
00010000
01000000
00000000
00000000
00000000
,
10000000
01000000
00100000
00000000
01000000
00010000
00001000
00000000
,
00000010
00000000
00000001
00000000
00000100
00001000
00010000
00000000
00001000
00000000
00010000
00000000
00001000
00010000
01000000
00000000
,
10000000
10000000
00000000
00000000
01100000
00000000
00000000
00000000
00010000
00001000
00000000
00000000
00000110
00000000
00000000
00000000
,
00000001
00000100
00001000
00000000
00010000
00000000
00000000
00000000
00001000
00010000
00100000
00000000
10000000
00000000
00000000
00000000
,
01000000
10000000
00100000
10000000
01000000
00000000
00010000
00000000
00001000
00000000
00010000
00000000
00000010
00000000
00000000
00000000
,
00000100
00000000
00000000
00000000
00000001
00000000
00000000
00000000
00000000
00000000
00001000
00000100
00000010
00000000
00000000
00000000
,
00000110
00000000
00000000
00000001
00000100
00000000
00000000
00000000
00000110
00000000
00000000
00001000
00000100
00000000
00000000
00000000
,
00000001
00000010
00001000
00010000
00100000
10000000
10010000
00000000
,
01100000
00000000
00000000
10000000
01000000
00000000
00000000
00000000
01100000
00000000
00000000
00010000
01000000
00000000
00000000
00000000
,
10000000
00100000
00010000
00001000
00000010
00000001
00001001
00000000
,
00000100
00000000
00000000
00000100
00000010
00000000
00000000
00000010
00010000
00000000
00000000
00010000
00001000
00000000
00000000
00001000
,
00100000
01000000
00000000
01000000
00010000
00001000
00011000
00000000
,
00100000
00000000
00000000
00100000
01000000
00000000
00000000
01000000
10000000
00000000
00000000
10000000
00100000
00000000
00000000
00000000
,
00100000
00010000
00100000
00000000
00010000
00000000
00000000
00000000
00011000
00000000
00000000
00001000
00000100
00000000
00000000
00000000
,
00000100
00000010
00000100
00000000
00000001
00000000
00000010
00000000
00001000
00000000
00011000
00000000
00000000
00000000
00010000
00000010
,
00001000
00000010
00001000
00000100
00000001
00000000
00000011
00000000
,
00000010
00001000
00010000
00000000
00001000
00000000
01000000
00000000
00100000
00000000
10000000
00000000
00000000
00000000
01000000
00010000
,
00100000
00100000
01000000
10000000
00100000
00010000
00001000
00000000
,
01000000
00000000
00100000
01000000
00100000
00000000
00010000
00000000
00001000
00000000
00000100
00000000
00000000
00000000
00000001
00000010
,
00000100
00001000
00000100
00001000
00010000
00000000
01010000
00000000
,
01000000
00100000
10000000
00000000
01000000
00000000
00010000
00000000
00001000
00000000
00001000
00000000
00000000
00000000
00010000
00000000
,
00001000
00000010
00000001
00000100
00001000
00010000
00011000
00000000
;
