#TITLE:Moonheart;
#SUBTITLE:;
#ARTIST:翡乃イスカ;
#TITLETRANSLIT:;
#SUBTITLETRANSLIT:;
#ARTISTTRANSLIT:Hino Isuka;
#GENRE:VARIETY;
#CREDIT:MUINELIM;
#BANNER:Moonheart.png;
#BACKGROUND:Moonheart-bg.png;
#LYRICSPATH:;
#CDTITLE:;
#MUSIC:Moonheart.mp3;
#OFFSET:-0.042000;
#SAMPLESTART:106.375336;
#SAMPLELENGTH:10.666664;
#SELECTABLE:YES;
#BPMS:0.000000=180;
#STOPS:
;
#BGCHANGES:;
#KEYSOUNDS:;
#ATTACKS:;

//---------------dance-single - ----------------
#NOTES:
     dance-single:
     :
     Hard:
     16:
     0.731016,0.904446,0.522154,0.693719,0.372967,686.000000,616.000000,70.000000,93.000000,0.000000,0.000000,0.731016,0.904446,0.522154,0.693719,0.372967,686.000000,616.000000,70.000000,93.000000,0.000000,0.000000:
0000
0000
0000
0000
,
0000
0000
0000
0000
,
0000
0000
0000
0000
,
0000
0000
0000
0000
,
0000
0000
0000
0000
,
0000
0000
0000
0000
,
2002
0003
0000
3001
0001
0010
0100
1000
,
0001
0000
0010
0001
1000
0000
1010
0000
,
0202
0300
0000
0103
0100
0010
1000
0100
,
0020
0000
0001
0000
0030
0000
0200
0000
1000
0000
0300
0000
1000
0010
1000
0010
,
0100
0000
0001
0000
0010
0000
0100
0000
0110
0000
0000
0000
0000
0010
0001
0010
,
0001
1000
0200
0000
1300
1000
0020
0230
,
0301
0000
0010
0000
0100
0000
1000
0000
1010
0000
0000
0000
0010
0100
0010
0100
,
0001
1000
0100
0010
0002
2003
3010
0100
,
0001
0001
0010
0010
1000
1000
0010
0010
,
0001
0001
0100
0100
1000
1000
0100
0100
,
0001
0010
0001
0000
1000
0010
1000
0000
0001
0100
0001
0000
1000
0100
1000
0000
,
0020
0000
0000
0030
,
2002
0000
0000
0000
0000
3003
0000
2020
,
0000
3030
0000
0220
0000
0000
0330
0000
,
0101
0000
0001
0010
0100
0001
0100
2200
,
0000
3300
0000
0022
0033
0000
0101
0000
,
2020
0000
3000
0000
0100
0130
0000
0202
,
0000
0303
0000
0022
0033
0000
1100
0000
,
1001
0000
0000
0000
0001
0000
0001
0000
0100
0010
1000
0010
0100
0000
0220
0000
,
0000
0330
0000
2002
3003
0000
0110
0000
,
1000
1000
0100
0100
,
0001
0001
0010
0010
,
0001
0001
0100
0100
,
1000
1000
0010
0010
,
0100
0001
0100
0001
1000
0100
1000
0100
,
0010
0001
0010
0001
1000
0010
1000
0010
,
0100
0001
0100
0000
0010
1000
0010
0000
1000
0100
1000
0000
0001
0010
0001
0000
,
0200
0000
0000
0300
,
0102
0000
0000
0000
2003
0000
0000
0000
3001
0010
0001
0010
0100
1000
0100
1000
,
0010
0100
0010
0100
0020
0000
0000
0000
1030
0000
0000
1100
0000
0000
0100
0010
,
0002
0000
0203
0000
0310
1000
0100
1100
,
0000
0010
0001
0202
0003
0000
0310
0000
,
2002
0000
3003
0000
0110
0000
0000
0000
0200
0000
0301
0010
0001
0010
0100
1000
,
0020
0000
0000
0000
0100
0000
0130
0000
0101
0000
0000
0011
0000
0000
1010
0000
,
1100
1000
0001
0011
0001
1000
1010
0001
,
0010
0000
0010
0000
0100
1000
0100
0000
0020
0000
0000
0000
0031
0100
0010
1000
,
0002
0000
0000
0000
0103
0000
0000
0000
0110
0000
0000
0000
0010
1000
0010
1000
,
0001
0010
0001
0010
0200
0000
0000
0000
1300
0000
0000
1000
0100
0010
0001
0000
,
0020
0030
0210
0000
1300
0010
0010
0101
,
0000
0000
2010
0000
0000
0000
0002
0000
0000
3003
0000
0000
0011
0000
0000
0000
,
1100
0000
0000
1000
0010
0000
0100
0000
0000
0001
0100
0000
0010
0000
1000
0000
,
1001
0000
0000
0001
0010
0000
0100
0000
0000
1000
0100
0000
0010
0000
0001
0000
,
0100
0010
1000
0000
0010
0100
0001
0000
0010
0100
1000
0000
0001
0010
0100
0000
,
2000
0000
0000
0000
3010
0100
0001
1000
,
0100
0010
0001
0100
2020
3030
0000
0110
,
0000
0000
0101
0000
0000
0000
0001
0010
0100
0000
1000
0000
1100
0000
0000
0000
,
0022
0000
0033
0000
0110
0000
0000
0000
0100
1000
0100
1000
0010
0100
0010
0100
,
0002
0000
0000
0000
1003
0000
1000
0010
0100
0000
0001
0000
0010
0000
0100
0000
,
1100
0001
0100
0010
1000
0010
0100
0002
,
0000
0000
1003
0010
0100
0001
0100
0010
1000
0000
0100
0000
0100
0000
0100
0000
,
0012
0000
0000
0000
2003
0000
0000
0000
3010
0100
0001
0000
2000
0000
3002
0000
,
1003
0000
0010
0000
0100
0001
0010
0100
1000
0100
0010
0100
1000
0000
0010
0000
,
0001
0010
1000
0100
0220
0330
0000
0011
,
0000
0000
1100
0000
0000
0000
0100
1000
0010
0000
0100
0000
0101
0000
0000
0000
,
2020
3030
0000
1001
0000
0001
0021
0000
,
0100
1000
0100
0031
,
0101
0000
0010
0000
1000
0000
1100
0000
0100
0010
0001
0010
0100
0000
0020
0000
,
0000
0000
0032
2003
,
3020
0000
0000
0130
0001
0010
1000
0001
,
0100
0000
0000
1000
0010
0001
2000
0000
,
3200
0000
0000
0301
0010
1000
0001
0100
,
1000
1000
1000
0000
1010
0000
0101
0000
,
0022
0030
0000
1003
0100
0001
1000
0010
,
0002
0000
0100
0100
0203
0000
0320
0000
,
2030
0000
0000
3001
0010
1000
0001
0100
,
2000
0010
3000
0002
0100
0003
1000
0000
,
1010
0001
0100
0010
,
0011
1000
0010
0100
,
1100
0001
0010
0100
,
0101
1000
0100
0010
,
0001
0100
0001
0100
1000
0100
1000
0100
,
0010
0001
0010
0001
0010
1000
0010
1000
,
0100
0010
0100
0000
0010
0001
0010
0000
0100
1000
0100
0000
1000
0001
1000
0000
,
0020
0000
0000
0000
0000
0000
0000
0000
0000
0000
0000
0000
0130
0001
0010
0100
,
1000
0000
0000
1000
0010
0000
0100
0000
0001
0010
0001
0010
0100
0000
0020
0000
,
0000
0031
0100
0010
1010
0100
0101
0000
,
0011
0000
0000
0010
0100
0000
1000
0000
0010
0100
0010
0100
0001
0000
2000
0000
,
0000
3100
0100
0010
0010
0001
0100
0010
,
1000
0001
1000
0001
0100
0000
0001
1000
0020
0000
0230
0000
0301
0010
0100
1000
,
0100
0000
0000
1000
0010
0000
0100
0000
0001
1000
0020
0000
1030
0001
0200
0000
,
0310
0000
0000
0010
0100
0000
0000
1000
0100
0000
0000
0001
0100
0000
0000
1000
,
0200
0000
0000
0000
0301
0000
0001
0000
0010
0000
0010
0000
0100
1000
0100
0010
,
0100
1000
0010
0001
0010
1000
0100
0001
,
0100
1000
0010
0001
1000
0100
0001
0010
,
0110
0000
1000
0100
0001
1000
0010
0001
,
0011
1000
1100
0001
0010
0100
2000
0000
,
3010
0000
0010
0100
0001
0000
0010
0000
0000
0001
0100
0000
1000
0000
0100
0000
,
0001
0000
0010
0100
1000
0000
0100
0000
0000
1000
0010
0000
0001
0000
0010
0000
,
1000
0100
0010
0000
0001
0100
0010
0000
1000
0010
0100
0000
0001
0010
0100
0000
,
1000
0010
0100
0001
1000
0100
0010
0001
0200
0000
0000
0000
0300
0000
0000
0000
,
2002
0000
0000
0000
,
3003
0000
0000
0000
;

//---------------dance-double - ----------------
#NOTES:
     dance-double:
     :
     Hard:
     16:
     0.721425,0.904446,0.477398,0.701179,0.361778,677.000000,613.000000,64.000000,94.000000,0.000000,0.000000,0.721425,0.904446,0.477398,0.701179,0.361778,677.000000,613.000000,64.000000,94.000000,0.000000,0.000000:
// measure 0
00000000
00000000
00000000
00000000
,  // measure 1
00000000
00000000
00000000
00000000
,  // measure 2
00000000
00000000
00000000
00000000
,  // measure 3
00000000
00000000
00000000
00000000
,  // measure 4
00000000
00000000
00000000
00000000
,  // measure 5
00000000
00000000
00000000
00000000
,  // measure 6
00022000
00030000
00000000
00013000
00010000
00001000
00000100
00000010
,  // measure 7
00001000
00000000
00000010
00000100
00000001
00000000
00000011
00000000
,  // measure 8
00002200
00003000
00000000
00010300
00010000
00001000
00010000
00100000
,  // measure 9
02000000
00000000
00010000
00000000
03000000
00000000
00200000
00000000
10000000
00000000
00300000
00000000
01000000
00010000
01000000
00010000
,  // measure 10
00100000
00000000
01000000
00000000
00010000
00000000
00001000
00000000
00011000
00000000
00000000
00000000
00000000
00010000
00000100
00010000
,  // measure 11
00000100
00000010
00000002
00000000
00000103
00000100
00002000
00023000
,  // measure 12
01030000
00000000
01000000
00000000
10000000
00000000
00100000
00000000
01100000
00000000
00000000
00000000
01000000
00010000
01000000
00010000
,  // measure 13
10000000
00100000
01000000
00010000
00200000
02300000
13000000
00100000
,  // measure 14
00010000
00001000
00010000
00001000
00000100
00000001
00000100
00000001
,  // measure 15
00000010
00001000
00000010
00001000
00010000
00001000
00010000
01000000
,  // measure 16
10000000
00100000
10000000
00000000
00100000
01000000
00100000
00000000
01000000
00010000
01000000
00000000
00001000
00010000
00001000
00000000
,  // measure 17
00000200
00000000
00000000
00000300
,  // measure 18
00002002
00000000
00000000
00000000
00000000
00003003
00000000
00000220
,  // measure 19
00000000
00000330
00000000
00020020
00000000
00000000
00030030
00000000
,  // measure 20
00011000
00000000
00001000
00010000
01000000
10000000
00100000
02200000
,  // measure 21
00000000
03300000
00000000
20020000
30030000
00000000
01010000
00000000
,  // measure 22
02002000
00000000
03000000
00000000
00010000
00013000
00000000
00020200
,  // measure 23
00000000
00030300
00000000
00000220
00000330
00000000
00000011
00000000
,  // measure 24
00000101
00000000
00000000
00000000
00000100
00000000
00001000
00000000
00010000
00001000
00010000
00001000
00100000
00000000
00220000
00000000
,  // measure 25
00000000
00330000
00000000
22000000
33000000
00000000
10010000
00000000
,  // measure 26
10000000
10000000
00100000
00100000
,  // measure 27
00010000
00010000
00001000
00001000
,  // measure 28
00000100
00000100
00000001
00000001
,  // measure 29
00000010
00000010
00001000
00001000
,  // measure 30
00100000
00010000
00100000
00010000
01000000
00001000
01000000
00001000
,  // measure 31
00010000
00000100
00010000
00000100
00001000
00000010
00001000
00000010
,  // measure 32
00000100
00000001
00000100
00000000
00000010
00010000
00000010
00000000
00010000
00001000
00010000
00000000
00100000
01000000
00100000
00000000
,  // measure 33
20000000
00000000
00000000
30000000
,  // measure 34
10020000
00000000
00000000
00000000
02030000
00000000
00000000
00000000
03001000
00010000
00001000
00010000
00000100
00000000
00001000
00000000
,  // measure 35
00000100
00000010
00000100
00000010
00000002
00000000
00000000
00000000
00000103
00000000
00000000
00001100
00000000
00000000
00001000
00010000
,  // measure 36
00200000
00000000
20300000
00000000
31000000
00100000
00001000
00011000
,  // measure 37
00000000
00010000
00000100
00002200
00000300
00000000
00003001
00000000
,  // measure 38
00000202
00000000
00000303
00000000
00001010
00000000
00000000
00000000
00002000
00000000
00003100
00010000
00000100
00010000
00001000
00000000
,  // measure 39
00200000
00000000
00000000
00000000
01000000
00000000
01300000
00000000
11000000
00000000
00000000
10010000
00000000
00000000
00110000
00000000
,  // measure 40
00010000
01000000
00001000
00010000
00000100
00001000
00001001
00000010
,  // measure 41
00000100
00000000
00000100
00000000
00001000
00010000
00001000
00000000
02000000
00000000
00000000
00000000
03100000
10000000
01000000
00100000
,  // measure 42
00020000
00000000
00000000
00000000
01030000
00000000
00000000
00000000
01100000
00000000
00000000
00000000
00100000
10000000
00100000
10000000
,  // measure 43
01000000
00010000
01000000
00010000
00002000
00000000
00000000
00000000
00003100
00000000
00000000
00000100
00000010
00000100
00000001
00000000
,  // measure 44
00000020
00000030
00000012
00000000
00001003
00000010
00000010
00010010
,  // measure 45
00000000
00012000
00000000
00200000
00303000
00000000
00110000
00000000
,  // measure 46
01100000
00000000
00000000
01000000
10000000
00000000
00100000
00000000
00000000
00010000
00001000
00000000
00010000
00000000
00001000
00000000
,  // measure 47
00001100
00000000
00000000
00000100
00000001
00000000
00000010
00000000
00000000
00001000
00010000
00000000
00001000
00000000
00010000
00000000
,  // measure 48
01000000
10000000
01000000
00000000
00100000
00001000
00100000
00000000
00001000
00010000
00001000
00000000
00000100
00000001
00000100
00000000
,  // measure 49
00000020
00000000
00000000
00000000
00001030
00000100
00010000
00001000
,  // measure 50
00100000
01000000
10000000
00100000
02200000
03300000
00000000
01010000
,  // measure 51
00000000
00000000
00011000
00000000
00000000
00000000
00001000
00010000
00001000
00000000
00000100
00000000
00000101
00000000
00000000
00000000
,  // measure 52
00000022
00000000
00000033
00000000
00001100
00000000
00000000
00000000
00000100
00010000
00000100
00010000
00001000
00100000
00001000
00100000
,  // measure 53
02000000
00000000
00000000
00000000
13000000
00000000
10000000
00100000
00010000
00000000
00100000
00000000
01000000
00000000
00010000
00000000
,  // measure 54
00110000
00100000
00001000
00010000
00001000
00000100
00000010
00000200
,  // measure 55
00000000
00000000
00000301
00000010
00000100
00001000
00000010
00001000
00000010
00000000
00010000
00000000
00001000
00000000
00100000
00000000
,  // measure 56
00120000
00000000
00000000
00000000
20030000
00000000
00000000
00000000
30100000
01000000
00010000
00000000
00200000
00000000
00302000
00000000
,  // measure 57
00013000
00000000
00001000
00000000
00010000
00000100
00001000
00000100
00001000
00000100
00000010
00000100
00000010
00000000
00000001
00000000
,  // measure 58
00000100
00001000
00010000
00100000
20200000
30300000
00000000
11000000
,  // measure 59
00000000
00000000
00110000
00000000
00000000
00000000
00100000
00001000
00010000
00000000
00000100
00000000
00001100
00000000
00000000
00000000
,  // measure 60
00002002
00003003
00000000
00000101
00000000
00000100
00000120
00000000
,  // measure 61
00020030
00032000
00203000
01300000
,  // measure 62
11000000
00000000
10000000
00000000
00100000
00000000
00010000
00000000
00100000
01000000
00100000
01000000
00010000
00000000
00200000
00000000
,  // measure 63
00000000
00000000
00302000
00023000
,  // measure 64
00030020
00000000
00000000
00000130
00000001
00000010
00001000
00010000
,  // measure 65
01000000
00000000
00000000
10000000
00100000
00010000
00002000
00000000
,  // measure 66
00023000
00000000
00000000
00031000
00000100
00000001
00000010
00001000
,  // measure 67
00010000
00010000
00010000
00000000
00010100
00000000
01001000
00000000
,  // measure 68
02020000
03000000
00000000
10030000
01000000
00010000
00001000
00000010
,  // measure 69
00000002
00000000
00000100
00000100
00000203
00000000
00000320
00000000
,  // measure 70
00020030
00000000
00000000
00031000
00100000
01000000
10000000
00100000
,  // measure 71
00020000
00001000
00030000
00000200
00001000
00000300
00000010
00000000
,  // measure 72
00000011
00001000
00010000
01000000
,  // measure 73
11000000
00010000
00001000
00000100
,  // measure 74
00000101
00001000
00010000
00100000
,  // measure 75
10100000
00010000
00001000
00000100
,  // measure 76
00000001
00000010
00000100
00010000
00001000
00100000
01000000
10000000
,  // measure 77
00100000
01000000
00001000
00010000
00000010
00000100
00000001
00001000
,  // measure 78
00000100
00000010
00000100
00000000
00010000
00001000
00010000
00000000
01000000
00100000
01000000
00000000
10000000
00010000
10000000
00000000
,  // measure 79
00200000
00000000
00000000
00000000
00000000
00000000
00000000
00000000
00000000
00000000
00000000
00000000
01300000
00010000
00100000
00010000
,  // measure 80
00100000
00000000
00000000
00001000
00010000
00000000
00000100
00000000
00001000
00000100
00000010
00000100
00001000
00000000
00000020
00000000
,  // measure 81
00000000
00000130
00000001
00000010
00001000
00010000
00011000
00000000
,  // measure 82
00101000
00000000
00000000
00100000
00010000
00000000
01000000
00000000
00100000
10000000
00100000
10000000
01000000
00000000
20000000
00000000
,  // measure 83
00000000
30010000
00010000
01000000
01000000
00001000
00010000
00000100
,  // measure 84
00000010
00000001
00000010
00000001
00000100
00000000
00000010
00001000
00000200
00000000
00020300
00000000
00031000
00100000
00001000
00100000
,  // measure 85
01000000
00000000
00000000
10000000
00100000
00000000
00010000
00000000
00100000
01000000
00010000
00000000
00100000
01000000
00010000
00000000
,  // measure 86
00001000
00000000
00000000
00001000
00000010
00000000
00000000
00000010
00000001
00000000
00000000
00000001
00000100
00000000
00000000
00000100
,  // measure 87
00002000
00000000
00000000
00000000
00013000
00000000
00010000
00000000
00000100
00000000
00000100
00000000
00000010
00000001
00000010
00000100
,  // measure 88
00000010
00000001
00000100
00001000
00010000
00001000
00000100
00001000
,  // measure 89
00010000
01000000
00010000
00001000
00010000
01000000
10000000
00100000
,  // measure 90
01100000
00000000
10000000
01000000
00010000
00001000
00000010
00000001
,  // measure 91
00000100
00000100
00000100
00000010
00010000
00001000
00200000
00000000
,  // measure 92
01300000
00000000
01000000
10000000
00100000
00000000
00010000
00000000
00000000
00001000
00010000
00000000
00100000
00000000
10000000
00000000
,  // measure 93
01000000
00000000
00010000
00001000
00010000
00000000
00001000
00000000
00000000
00000100
00000001
00000000
00000010
00000000
00001000
00000000
,  // measure 94
00000010
00000001
00000010
00000000
00000100
00010000
00000100
00000000
00010000
00001000
00010000
00000000
00001000
01000000
00001000
00000000
,  // measure 95
01000000
00010000
01000000
00010000
10000000
01000000
00100000
00010000
02000000
00000000
00000000
00000000
03000000
00000000
00000000
00000000
,  // measure 96
00022000
00000000
00000000
00000000
,  // measure 97
00033000
00000000
00000000
00000000
;

//---------------dance-single - ----------------
#NOTES:
     dance-single:
     :
     Beginner:
     4:
     0.157712,0.250634,0.000000,0.007459,0.000000,148.000000,148.000000,0.000000,1.000000,0.000000,0.000000,0.157712,0.250634,0.000000,0.007459,0.000000,148.000000,148.000000,0.000000,1.000000,0.000000,0.000000:
0000
0000
0000
0000
,
0000
0000
0000
0000
,
0000
0000
0000
0000
,
0000
0000
0000
0000
,
0000
0000
0000
0000
,
0000
0000
0000
0000
,
1000
0000
0000
0000
,
0010
0000
0000
0000
,
0100
0000
0000
0000
,
0001
0000
0000
0000
,
1000
0000
1000
0000
,
1000
0000
0000
0000
,
0001
0000
0001
0000
,
0001
0000
0000
0000
,
0100
0000
0100
0000
,
0100
0000
0100
0000
,
0010
0010
0010
0010
,
0010
0000
0000
0000
,
1000
0000
0000
0000
,
0001
0000
1000
0000
,
0010
0000
0000
0000
,
1000
0000
0001
0000
,
0100
0000
0000
0000
,
0001
0000
1000
0000
,
0100
0000
0000
0000
,
1000
0000
0001
0000
,
0010
0000
0010
0000
,
0001
0000
0001
0000
,
0100
0000
0100
0000
,
1000
0000
1000
0000
,
0010
0000
0001
0000
,
0100
0000
0010
0000
,
1000
0000
0100
0100
,
0100
0000
0000
0000
,
1000
0001
0000
1000
,
0000
0100
0000
0100
,
0000
1000
0000
0001
,
0001
0000
0001
0000
,
0010
0010
0000
0000
,
0001
0000
0100
0000
,
0010
0000
1000
0000
,
0010
0000
0000
0100
,
0100
0100
0000
0000
,
0010
0010
0000
0000
,
1000
0000
0000
0000
,
0001
0000
1000
0000
,
0100
0000
0100
0000
,
0010
0000
0010
0000
,
0001
0000
1000
1000
,
1000
0000
0000
0000
,
0010
0000
0000
0000
,
0100
0000
0000
0000
,
0010
0000
0000
0000
,
0010
0000
0010
0000
,
1000
0000
0000
0000
,
0001
0000
0000
0000
,
1000
0000
1000
0000
,
0001
0000
0100
0000
,
0010
0000
0000
0000
,
1000
0000
0000
0000
,
0001
0000
0100
0000
,
0010
0000
0010
0010
,
0010
0000
1000
0000
,
0100
0000
0010
0000
,
0002
0000
0000
0000
,
0000
0000
0000
0000
,
0003
0000
0000
0000
,
0000
0000
0000
0000
,
1000
0000
0000
0000
,
0100
0000
0000
0000
,
0010
0000
0000
0000
,
0001
0000
0000
0000
,
0010
0000
0010
0000
,
0010
0000
0000
0000
,
0100
0000
0100
0000
,
0100
0000
0000
0000
,
1000
0000
1000
0000
,
1000
0000
1000
0000
,
0001
0001
0001
0001
,
0001
0000
0000
0000
,
0010
0000
0000
0000
,
0001
0000
0000
0000
,
0100
0000
0000
0000
,
1000
0000
0000
0000
,
0100
0000
0000
0000
,
0001
0000
0000
0000
,
0010
0000
0000
0000
,
0100
0000
0000
0010
,
0010
0000
1000
0000
,
0010
0000
1000
0000
,
0100
0000
0001
0000
,
0100
0000
0001
0000
,
0010
0000
1000
0000
,
0100
0000
0001
0000
,
0010
0000
1000
0000
,
0100
0000
0100
0100
,
0100
0000
0000
0000
;

//---------------dance-single - ----------------
#NOTES:
     dance-single:
     :
     Easy:
     8:
     0.346327,0.434134,0.246158,0.201402,0.000000,325.000000,292.000000,33.000000,27.000000,0.000000,0.000000,0.346327,0.434134,0.246158,0.201402,0.000000,325.000000,292.000000,33.000000,27.000000,0.000000,0.000000:
0000
0000
0000
0000
,
0000
0000
0000
0000
,
0000
0000
0000
0000
,
0000
0000
0000
0000
,
0000
0000
0000
0000
,
0000
0000
0000
0000
,
1001
0000
1000
0010
,
1000
0010
0100
0001
,
0100
0000
0001
1000
,
0010
0010
0000
0100
0100
0000
0110
0000
,
0010
1000
0001
0000
,
0010
0001
1000
1000
,
0100
1000
0001
0000
,
0100
0001
1000
1000
,
0010
1000
0100
0010
,
0001
0100
0010
1000
,
0001
0010
0100
1000
,
2002
0000
0000
3003
,
1001
0000
0000
0000
0000
0000
0000
0110
,
0000
0000
0000
1001
0000
0000
0000
0000
,
0110
0000
0010
0000
1000
0000
0000
1100
,
0000
0000
0000
0011
0000
0000
0101
0000
,
1010
0000
0000
0000
0010
0010
0000
0110
,
0000
0000
0000
1001
0000
0000
0011
0000
,
1100
0000
1000
0000
0001
0000
0100
0100
,
0000
0000
0000
0110
0000
0000
1001
0000
,
0001
0100
0010
0000
,
1000
0010
0100
0000
,
0001
0010
0100
0000
,
1000
0100
0010
0000
,
0001
0100
0010
1000
,
0010
0100
0001
0100
,
0010
1000
0001
0100
,
0220
0000
0000
0330
,
0110
0001
0010
0200
,
0300
1000
0020
0130
,
1010
0000
0101
0000
0000
0001
1000
0100
,
0000
0000
0000
1100
0000
0000
1000
0000
,
1000
0010
0100
0002
,
1003
0000
1000
0010
1000
0000
0100
0000
,
0010
0000
0000
0001
0000
0000
0100
0000
,
0020
2030
3001
0101
,
1010
1000
0001
0020
,
0000
0130
0200
2300
,
3010
0000
0010
0000
0000
0100
0001
0010
,
0000
0000
0000
1100
0000
0000
1000
0000
,
0010
0100
0001
0000
,
0100
0010
1000
0000
,
0001
0010
0100
1000
,
0220
0000
0330
0000
,
1000
0010
0001
0000
,
0001
0010
1000
0000
,
1000
0010
0001
0010
,
1000
0000
0100
0000
0010
0100
0010
0000
,
0001
0100
1000
0000
,
1000
0100
0001
0000
,
0001
0100
1000
0100
,
0001
0000
0010
0000
0100
0010
0100
0000
,
1000
0010
0001
0000
,
1000
0100
0001
0000
,
0011
0000
0000
1100
0000
0000
1001
0000
,
0001
0100
0020
2030
,
3001
0000
1001
0000
0100
0000
0010
0010
,
0000
1000
0002
0000
,
0203
0000
0000
0000
,
0000
0000
0000
0000
,
0300
0000
0000
0000
,
0000
0000
0000
0000
,
0001
0000
0000
0000
,
0010
0000
0000
0000
,
1000
0000
0000
0000
,
0100
0000
0001
0000
,
1000
1000
0010
0000
,
0001
0001
0010
0000
,
1000
1000
0100
0000
,
0001
0001
0100
0000
,
1000
0010
0100
0001
,
0100
0010
1000
0100
,
0010
0001
0100
0010
,
0220
0000
0000
0330
,
0100
0001
0010
0100
,
0010
0000
0001
0000
0100
0010
0100
0000
,
0010
1000
0100
0010
,
0100
0000
1000
0000
0010
0100
0010
0000
,
1000
0001
0100
0000
0010
0000
1000
0001
,
0100
0010
1000
0001
,
0010
0200
2300
3002
,
0023
0000
0130
0110
,
1000
0010
0001
1000
,
0100
0001
0010
0100
,
0001
0100
1000
0001
,
0010
1000
0010
0100
,
1000
1000
0010
0010
,
0100
0100
0001
0001
,
0010
1000
0100
0001
,
0010
1000
0200
0300
,
2002
0000
0000
0000
,
3003
0000
0000
0000
;

//---------------dance-single - ----------------
#NOTES:
     dance-single:
     :
     Medium:
     12:
     0.526417,0.578845,0.290915,0.156646,0.007459,494.000000,455.000000,39.000000,21.000000,0.000000,0.000000,0.526417,0.578845,0.290915,0.156646,0.007459,494.000000,455.000000,39.000000,21.000000,0.000000,0.000000:
0000
0000
0000
0000
,
0000
0000
0000
0000
,
0000
0000
0000
0000
,
0000
0000
0000
0000
,
0000
0000
0000
0000
,
0000
0000
0000
0000
,
1001
0000
0000
1000
0010
0000
1000
0000
,
0100
0000
1000
0001
1000
0000
0001
0000
,
1001
0000
0000
0001
0100
0000
0001
0000
,
0010
0001
0000
1000
0001
0000
1001
0000
,
1000
1000
0010
0010
,
0100
0001
0010
0000
0100
0001
0010
0000
,
0001
0001
0100
0100
,
0010
1000
0100
0000
0010
1000
0100
0000
,
1000
0010
1000
0010
,
0100
0001
0100
0001
,
0010
0100
0010
0100
1000
0001
1000
0001
,
0200
0000
0000
0300
,
0110
0000
0000
0000
0000
0000
0000
1010
,
0000
0000
0000
0101
0000
0000
0000
0000
,
0011
0000
0001
0010
0100
1000
0010
0110
,
0000
0000
0000
1010
0000
0000
0101
0000
,
1002
0000
0000
0000
1000
1003
0000
1100
,
0000
0000
0000
1010
0000
0000
0101
0000
,
0011
0000
0010
0100
1000
0010
0100
0101
,
0000
0000
0000
1010
0000
0000
0110
0000
,
1000
1000
0010
0010
,
0100
0100
0001
0001
,
0010
0010
0100
0100
,
1000
1000
0001
0001
,
0100
0010
1000
0000
0010
0100
0001
0000
,
1000
0100
0010
0000
0001
0010
0100
0000
,
1000
0010
0100
0001
1000
0100
0010
0001
,
0200
0000
0000
0310
,
0110
0000
1000
0000
0001
0010
0100
1000
,
0100
0000
0010
0000
0002
0000
0000
0000
0103
0000
0000
0100
0000
0000
0100
0000
,
0010
0000
1010
0000
0001
0010
0100
1000
,
0000
0010
0100
0002
0000
0000
1003
0000
,
1100
0000
0011
0000
0010
0001
0100
0010
,
2000
0000
0000
0000
3001
0000
0001
0000
0010
0000
0000
0010
0000
0000
0010
0000
,
0001
0100
0010
1000
0010
0100
0001
0010
,
0100
0000
1100
0000
1020
0000
0130
0100
,
0002
0000
1003
0000
1001
0000
0001
0010
,
0100
0010
0001
0000
0100
0000
0001
0100
,
0010
0000
2010
0000
3100
0010
0010
0001
,
0000
0012
0000
0103
0000
0000
0110
0000
,
1000
1000
0010
0010
,
0001
0001
0100
0100
,
1000
0010
0100
0001
1000
0100
0010
0001
,
0200
0000
0000
0000
0310
1000
0010
1000
,
0001
0000
0010
0001
0100
0000
1000
0000
,
0100
0000
0001
0100
0010
0000
0001
0000
,
0010
1000
0100
0010
0001
0000
0100
0000
,
0010
1000
0100
0010
0001
0000
0101
0000
,
0100
0000
0010
1000
0100
0000
0001
0000
,
0100
0000
1000
0010
0100
0000
1000
0000
,
0100
0001
0010
0100
1000
0000
0010
0000
,
0100
0001
0010
0100
1000
0000
1010
0000
,
0010
0000
1000
0001
0100
0000
0010
0000
,
1000
0000
0001
1000
0010
0000
0100
0000
,
0110
0000
0000
1010
0000
0000
0101
0000
,
0002
0000
2003
0000
3001
0100
0010
1000
,
0010
0100
0010
0001
0010
0100
0010
2000
,
0000
0000
3002
0000
,
0203
0000
1300
0100
,
0001
0000
0001
0010
,
1000
0000
1000
0010
,
0001
0100
0010
1000
,
1001
0000
0001
0100
,
0010
0000
1000
0010
,
0100
0000
1000
0100
,
0001
0010
0100
0110
,
1000
1000
0010
0010
,
0001
0000
0001
0000
0100
0010
0100
0000
,
0001
0001
0010
0010
,
1000
0000
1000
0000
0100
0010
0100
0000
,
1000
0010
0100
0000
0001
0100
0010
0000
,
1000
0001
0100
0000
0001
1000
0010
0000
,
0100
0001
0010
0100
1000
0010
0100
0001
,
2000
0000
0000
0000
0000
0000
3001
0001
,
0001
0100
0010
1000
0100
1000
0001
0010
,
0000
0010
0100
1000
0010
0100
0001
0000
,
1000
0100
0010
0001
0100
0001
1000
0010
,
0000
0010
0100
0001
0100
0010
1000
0100
,
0010
0010
0010
0000
0001
0100
1000
0100
,
0000
0001
0010
0100
0001
0100
1000
0100
,
0010
0210
0001
1300
,
1000
0010
0100
0001
1001
0000
0110
0000
,
0100
0001
0010
0000
0100
0001
0010
0000
,
0100
0001
0010
1000
0010
0001
0100
0000
,
0010
1000
0100
0000
0010
1000
0100
0000
,
0010
1000
0100
0001
0100
1000
0010
0000
,
0100
0001
0010
0100
0010
0001
0100
0000
,
0010
1000
0100
0010
0100
1000
0010
0000
,
0100
0001
0100
0001
0100
1000
0100
1000
,
0100
0001
0010
0100
2000
0000
3001
0000
,
0220
0000
0000
0000
,
0330
0000
0000
0000
;

//---------------dance-double - ----------------
#NOTES:
     dance-double:
     :
     Easy:
     8:
     0.335671,0.434134,0.216321,0.171565,0.000000,315.000000,286.000000,29.000000,23.000000,0.000000,0.000000,0.335671,0.434134,0.216321,0.171565,0.000000,315.000000,286.000000,29.000000,23.000000,0.000000,0.000000:
// measure 0
00000000
00000000
00000000
00000000
,  // measure 1
00000000
00000000
00000000
00000000
,  // measure 2
00000000
00000000
00000000
00000000
,  // measure 3
00000000
00000000
00000000
00000000
,  // measure 4
00000000
00000000
00000000
00000000
,  // measure 5
00000000
00000000
00000000
00000000
,  // measure 6
00011000
00000000
00001000
00100000
,  // measure 7
00001000
00100000
00010000
01000000
,  // measure 8
00100000
00000000
10000000
01000000
,  // measure 9
00010000
00000000
00001000
00011000
,  // measure 10
00010000
00000100
00001000
00000000
,  // measure 11
00000010
00010000
00001000
00010000
,  // measure 12
00001000
00100000
00010000
00000000
,  // measure 13
01000000
00001000
00010000
00001000
,  // measure 14
00010000
00000100
00000010
00000001
,  // measure 15
00000100
00001000
00010000
00100000
,  // measure 16
10000000
01000000
00100000
00001000
,  // measure 17
00022000
00000000
00000000
00033000
,  // measure 18
00011000
00000000
00000000
00000000
00000000
00000000
00000000
00010100
,  // measure 19
00000000
00000000
00000000
00001100
00000000
00000000
00000000
00000000
,  // measure 20
00001000
00000000
00000001
00000000
00000100
00000000
00000000
00000110
,  // measure 21
00000000
00000000
00000000
00010010
00000000
00000000
00010000
00000000
,  // measure 22
00011000
00000000
00000000
00000000
00101000
00000000
00000000
00110000
,  // measure 23
00000000
00000000
00000000
01010000
00000000
00000000
01000000
00000000
,  // measure 24
01100000
00000000
00100000
00000000
10000000
00000000
01000000
01000000
,  // measure 25
00000000
00000000
00000000
01100000
00000000
00000000
10010000
00000000
,  // measure 26
00010000
01000000
00001000
00000000
,  // measure 27
00010000
00000100
00001000
00000000
,  // measure 28
00000010
00010000
00001000
00000000
,  // measure 29
00100000
00010000
01000000
00000000
,  // measure 30
00001000
00010000
00000100
00001000
,  // measure 31
00000010
00010000
00001000
00100000
,  // measure 32
00010000
01000000
00001000
00010000
,  // measure 33
00022000
00000000
00000000
00033000
,  // measure 34
00011000
00000100
00001000
00000200
,  // measure 35
00000300
00000010
00000002
00000103
,  // measure 36
00001000
00000000
00011000
00000000
00000000
00010000
00001000
00010000
,  // measure 37
00000000
00000000
00000000
00100000
00000000
00000000
10000000
00000000
,  // measure 38
11000000
01000000
00010000
00002000
,  // measure 39
00013000
00010000
00001000
00000100
,  // measure 40
00000001
00000000
00000000
00001000
00000000
00000000
00000010
00000000
,  // measure 41
00020000
00032000
00013000
01000000
,  // measure 42
01100000
00100000
01000000
20000000
,  // measure 43
00000000
30100000
00020000
00032000
,  // measure 44
00013000
00000000
00010000
00000000
00000000
00000100
00001000
00000100
,  // measure 45
00000000
00000000
00000000
00000110
00000000
00000000
00000001
00000000
,  // measure 46
00000001
00000100
00001000
00000000
,  // measure 47
00010000
00100000
10000000
00000000
,  // measure 48
01000000
00010000
00001000
00010000
,  // measure 49
00022000
00000000
00033000
00000000
,  // measure 50
00000100
00001000
00000010
00000000
,  // measure 51
00010000
00001000
00100000
00000000
,  // measure 52
00010000
01000000
00001000
00010000
,  // measure 53
00000100
00000000
00000010
00000000
00000001
00001000
00000001
00000000
,  // measure 54
00000100
00001000
00010000
00000000
,  // measure 55
00001000
00010000
01000000
00000000
,  // measure 56
10000000
00100000
01000000
00010000
,  // measure 57
10000000
00000000
01000000
00000000
00100000
00010000
00100000
00000000
,  // measure 58
00001000
00010000
01000000
00000000
,  // measure 59
00010000
00001000
00000100
00000000
,  // measure 60
00000101
00000000
00000000
00000110
00000000
00000000
00001010
00000000
,  // measure 61
00001000
00000100
00020000
00032000
,  // measure 62
00103000
00000000
00100000
00000000
01000000
00000000
10000000
10000000
,  // measure 63
00000000
00100000
00020000
00000000
,  // measure 64
00002000
00000000
00000000
00000000
,  // measure 65
00000000
00000000
00000000
00000000
,  // measure 66
00033000
00000000
00000000
00000000
,  // measure 67
00000000
00000000
00000000
00000000
,  // measure 68
00001000
00000000
00000000
00000000
,  // measure 69
00000100
00000000
00000000
00000000
,  // measure 70
00000001
00000000
00000000
00000000
,  // measure 71
00000010
00000000
00001000
00000000
,  // measure 72
00010000
00010000
00000010
00000000
,  // measure 73
00010000
00010000
00001000
00000000
,  // measure 74
00001000
00001000
01000000
00000000
,  // measure 75
00001000
00001000
00010000
00000000
,  // measure 76
01000000
10000000
00100000
00010000
,  // measure 77
00001000
00010000
00001000
00000100
,  // measure 78
00000001
00000010
00001000
00010000
,  // measure 79
00022000
00000000
00000000
00033000
,  // measure 80
00001000
00100000
00010000
01000000
,  // measure 81
00010000
00100000
00001000
00011000
,  // measure 82
00010000
00000100
00001000
00000010
,  // measure 83
00001000
00000100
00010000
00011000
,  // measure 84
00001000
01000000
00001000
00000000
00010000
00000000
00001000
00100000
,  // measure 85
00001000
00010000
00001000
00000100
,  // measure 86
00000001
00000010
00001000
00010000
,  // measure 87
00200000
00000000
01300000
01100000
,  // measure 88
10000000
01000000
00010000
01000000
,  // measure 89
10000000
01000000
00010000
00001000
,  // measure 90
00000010
00000001
00000010
00001000
,  // measure 91
00000010
00000001
00000100
00001000
,  // measure 92
00010000
00010000
00100000
00100000
,  // measure 93
00001000
00001000
00000010
00000010
,  // measure 94
00010000
00001000
00000100
00010000
,  // measure 95
01000000
00001000
00020000
00000000
,  // measure 96
00002000
00000000
00000000
00000000
,  // measure 97
00033000
00000000
00000000
00000000
;

//---------------dance-double - ----------------
#NOTES:
     dance-double:
     :
     Medium:
     12:
     0.500842,0.578845,0.268536,0.149187,0.007459,470.000000,434.000000,36.000000,20.000000,0.000000,0.000000,0.500842,0.578845,0.268536,0.149187,0.007459,470.000000,434.000000,36.000000,20.000000,0.000000,0.000000:
// measure 0
00000000
00000000
00000000
00000000
,  // measure 1
00000000
00000000
00000000
00000000
,  // measure 2
00000000
00000000
00000000
00000000
,  // measure 3
00000000
00000000
00000000
00000000
,  // measure 4
00000000
00000000
00000000
00000000
,  // measure 5
00000000
00000000
00000000
00000000
,  // measure 6
00011000
00000000
00000000
00001000
00100000
00000000
00001000
00000000
,  // measure 7
00010000
00000000
00001000
01000000
00001000
00000000
00010000
00000000
,  // measure 8
00011000
00000000
00000000
00010000
00000100
00000000
00010000
00000000
,  // measure 9
00001000
00010000
00000000
00010000
00000010
00000000
00001010
00000000
,  // measure 10
00000001
00000100
00001000
00010000
,  // measure 11
00100000
01000000
00100000
00000000
00100000
01000000
00100000
00000000
,  // measure 12
10000000
01000000
00010000
00001000
,  // measure 13
00000100
00000010
00000100
00000000
00000100
00000010
00000100
00000000
,  // measure 14
00000001
00000010
00001000
00010000
,  // measure 15
00100000
10000000
01000000
00010000
,  // measure 16
00001000
00100000
00001000
00100000
00000010
00010000
00000010
00010000
,  // measure 17
00002000
00000000
00000000
00003000
,  // measure 18
00011000
00000000
00000000
00000000
00000000
00000000
00000000
01001000
,  // measure 19
00000000
00000000
00000000
01010000
00000000
00000000
00000000
00000000
,  // measure 20
10010000
00000000
10000000
01000000
00100000
00010000
00100000
00001000
,  // measure 21
00000000
00000000
00000000
00011000
00000000
00000000
00010100
00000000
,  // measure 22
00002100
00000000
00000000
00000000
00000010
00003010
00000000
00000110
,  // measure 23
00000000
00000000
00000000
00000101
00000000
00000000
00001001
00000000
,  // measure 24
00001010
00000000
00000010
00000100
00000001
00000100
00000010
00010000
,  // measure 25
00000000
00000000
00000000
00011000
00000000
00000000
00101000
00000000
,  // measure 26
01000000
01000000
00010000
00010000
,  // measure 27
10000000
10000000
00100000
00100000
,  // measure 28
00010000
00010000
00001000
00001000
,  // measure 29
00000100
00000100
00000001
00000001
,  // measure 30
00000010
00000100
00001000
00000000
00000100
00010000
00001000
00000000
,  // measure 31
00100000
00010000
01000000
00000000
00100000
10000000
01000000
00000000
,  // measure 32
00010000
00001000
00010000
00001000
00000100
00000010
00000100
00000010
,  // measure 33
00002000
00000000
00000000
00003001
,  // measure 34
00001001
00000000
00000001
00000000
00001000
00000010
00010000
00001000
,  // measure 35
00010000
00000000
00000010
00000000
00002000
00000000
00000000
00000000
00003100
00000000
00000000
00000100
00000000
00000000
00000100
00000000
,  // measure 36
00010000
00000000
00011000
00000000
00100000
00010000
00100000
01000000
,  // measure 37
00000000
10000000
00100000
02000000
00000000
00000000
03010000
00000000
,  // measure 38
00110000
00000000
00101000
00000000
00001000
00010000
00001000
00000100
,  // measure 39
00000020
00000000
00000000
00000000
00000130
00000000
00000100
00000000
00000001
00000000
00000000
00000001
00000000
00000000
00000001
00000000
,  // measure 40
00000010
00001000
00010000
00001000
00010000
00100000
10000000
01000000
,  // measure 41
00100000
00000000
01100000
00000000
00020000
00000000
01030000
01000000
,  // measure 42
00002000
00000000
00013000
00000000
00011000
00000000
00010000
00000100
,  // measure 43
00000010
00000100
00010000
00000000
00001000
00000000
00000100
00000001
,  // measure 44
00000010
00000000
00000012
00000000
00001003
00000010
00000010
00010000
,  // measure 45
00000000
00012000
00000000
00103000
00000000
00000000
01100000
00000000
,  // measure 46
10000000
10000000
00100000
00100000
,  // measure 47
00010000
00010000
00001000
00001000
,  // measure 48
00000100
00000001
00000100
00000001
00001000
00000010
00001000
00000010
,  // measure 49
00020000
00000000
00000000
00000000
00031000
00100000
01000000
10000000
,  // measure 50
00100000
00000000
00010000
00100000
01000000
00000000
00010000
00000000
,  // measure 51
00100000
00000000
01000000
00010000
00001000
00000000
00010000
00000000
,  // measure 52
00100000
10000000
01000000
00100000
00010000
00000000
01000000
00000000
,  // measure 53
00001000
00010000
00000100
00000010
00000001
00000000
00000101
00000000
,  // measure 54
00000100
00000000
00001000
00000100
00000010
00000000
00001000
00000000
,  // measure 55
00000100
00000000
00000010
00001000
00010000
00000000
00001000
00000000
,  // measure 56
00000100
00000001
00000010
00000100
00001000
00000000
00000010
00000000
,  // measure 57
00010000
00001000
00100000
01000000
10000000
00000000
10100000
00000000
,  // measure 58
00100000
00000000
00010000
00001000
00000010
00000000
00000100
00000000
,  // measure 59
00000010
00000000
00001000
00010000
00100000
00000000
10000000
00000000
,  // measure 60
11000000
00000000
00000000
01100000
00000000
00000000
00110000
00000000
,  // measure 61
00020000
00000000
02030000
00000000
03001000
00010000
00000100
00010000
,  // measure 62
00001000
01000000
00001000
00010000
00000010
00010000
00001000
00200000
,  // measure 63
00000000
00000000
02300000
00000000
,  // measure 64
03020000
00000000
00000000
00000000
,  // measure 65
00000000
00000000
00000000
00000000
,  // measure 66
00030000
00000000
00000000
00000000
,  // measure 67
00000000
00000000
00000000
00000000
,  // measure 68
00011000
00000000
00001000
00000100
,  // measure 69
00000001
00000000
00000010
00001000
,  // measure 70
00010000
00000000
00100000
10000000
,  // measure 71
01000000
00010000
00001000
00011000
,  // measure 72
00000100
00000100
00001000
00001000
,  // measure 73
00000001
00000001
00000010
00001000
,  // measure 74
00100000
00100000
00010000
00010000
,  // measure 75
10000000
10000000
00100000
00010000
,  // measure 76
00000010
00001000
00000010
00000000
00010000
00001000
00010000
00000000
,  // measure 77
00001000
00010000
00001000
00000000
01000000
00010000
01000000
00000000
,  // measure 78
00010000
00100000
00010000
00100000
01000000
10000000
01000000
10000000
,  // measure 79
00020000
00000000
00000000
00000000
00000000
00000000
01030000
01000000
,  // measure 80
01000000
00001000
00010000
00001000
00100000
00010000
01000000
00001000
,  // measure 81
00000000
00001000
00010000
00000100
00001000
00000100
00000010
00000000
,  // measure 82
00000001
00000100
00000010
00001000
00000100
00001000
00000001
00000010
,  // measure 83
00000000
00000010
00001000
00010000
00001000
00100000
00010000
01000000
,  // measure 84
00100000
00100000
00100000
00000000
10000000
01000000
00010000
00001000
,  // measure 85
00000000
00010000
00000100
00001000
00000100
00000010
00000001
00000100
,  // measure 86
00000010
00001010
00000100
00011000
,  // measure 87
01000000
00010000
00100000
01000000
10000000
00000000
10010000
00000000
,  // measure 88
00010000
01000000
00001000
00010000
,  // measure 89
00000100
00001000
00000100
00000010
00000001
00000100
00001000
00000000
,  // measure 90
00010000
00100000
10000000
00010000
,  // measure 91
01000000
00100000
00010000
00001000
00010000
00000100
00000010
00000000
,  // measure 92
00000001
00001000
00000010
00000000
00010000
00001000
00100000
00000000
,  // measure 93
01000000
10000000
00100000
00000000
00010000
00001000
00100000
00000000
,  // measure 94
01000000
00010000
01000000
00010000
00001000
00010000
00001000
00010000
,  // measure 95
00000010
00000100
00000001
00000010
00000200
00000000
00000300
00000000
,  // measure 96
00022000
00000000
00000000
00000000
,  // measure 97
00033000
00000000
00000000
00000000
;
