#TITLE:Menghapus Jejakmu;
#SUBTITLE:;
#ARTIST:Peterpan;
#TITLETRANSLIT:;
#SUBTITLETRANSLIT:;
#ARTISTTRANSLIT:;
#GENRE:POP CHARTS;
#CREDIT:MUINELIM;
#BANNER:Menghapus Jejakmu.png;
#JACKET:Menghapus Jejakmu-jacket.png;
#BACKGROUND:Menghapus Jejakmu-bg.png;
#LYRICSPATH:;
#CDTITLE:;
#MUSIC:Menghapus Jejakmu.ogg;
#OFFSET:0.300000;
#SAMPLESTART:42.426838;
#SAMPLELENGTH:11.441841;
#SELECTABLE:YES;
#DISPLAYBPM:125;
#BPMS:0.000000=125;
#STOPS:
;
#BGCHANGES:;
#KEYSOUNDS:;
#ATTACKS:;

//---------------dance-single - ----------------
#NOTES:
     dance-single:
     :
     Beginner:
     2:
     0.062847,0.145177,0.000000,0.017597,0.000000,50.000000,50.000000,0.000000,2.000000,0.000000,0.000000,0.062847,0.145177,0.000000,0.017597,0.000000,50.000000,50.000000,0.000000,2.000000,0.000000,0.000000:
// measure 0
0000
0000
0000
0000
,  // measure 1
0000
0000
0000
0000
,  // measure 2
0000
0000
0000
0000
,  // measure 3
0000
0000
0000
0000
,  // measure 4
0000
0000
0000
0000
,  // measure 5
0000
0000
0000
0000
,  // measure 6
0001
0000
0000
0000
,  // measure 7
0001
0000
0000
0000
,  // measure 8
1000
0000
0000
0000
,  // measure 9
1000
0000
0000
0000
,  // measure 10
0001
0000
0000
0000
,  // measure 11
1000
0000
0000
0000
,  // measure 12
0001
0000
0000
0000
,  // measure 13
1000
0000
0000
0000
,  // measure 14
0010
0000
0000
0000
,  // measure 15
0010
0000
0000
0000
,  // measure 16
0100
0000
0000
0000
,  // measure 17
0100
0000
0000
0000
,  // measure 18
0010
0000
0000
0000
,  // measure 19
0100
0000
0000
0000
,  // measure 20
0010
0000
0000
0000
,  // measure 21
0100
0000
0000
0000
,  // measure 22
0000
0000
0000
0000
,  // measure 23
0010
0000
0000
0000
,  // measure 24
1000
0000
0000
0000
,  // measure 25
0001
0000
0000
0000
,  // measure 26
0100
0000
0000
0000
,  // measure 27
0010
0000
0000
0000
,  // measure 28
1000
0000
0000
0000
,  // measure 29
0001
0000
0000
0000
,  // measure 30
0100
0000
0000
0000
,  // measure 31
0000
0000
0000
0000
,  // measure 32
0200
0000
0000
0000
,  // measure 33
0300
0000
0000
0000
,  // measure 34
0200
0000
0000
0000
,  // measure 35
0300
0000
0000
0000
,  // measure 36
0100
0000
0000
0000
,  // measure 37
0100
0000
0000
0000
,  // measure 38
0100
0000
0100
0000
,  // measure 39
0100
0100
0100
0000
,  // measure 40
0010
0000
0000
0000
,  // measure 41
1000
0000
0000
0000
,  // measure 42
0001
0000
0000
0000
,  // measure 43
0100
0000
0000
0000
,  // measure 44
0010
0000
0000
0000
,  // measure 45
1000
0000
0000
0000
,  // measure 46
0001
0000
0000
0000
,  // measure 47
0100
0000
0000
0000
,  // measure 48
0010
0000
0000
0000
,  // measure 49
1000
0000
0000
0000
,  // measure 50
0100
0000
0000
0000
,  // measure 51
0010
0000
0000
0000
,  // measure 52
0001
0000
0000
0000
,  // measure 53
1000
0000
0000
0000
,  // measure 54
0010
0000
0000
0010
,  // measure 55
0010
0000
0000
0000
;

//---------------dance-single - ----------------
#NOTES:
     dance-single:
     :
     Easy:
     4:
     0.121924,0.169374,0.017597,0.035195,0.000000,97.000000,95.000000,2.000000,4.000000,0.000000,0.000000,0.121924,0.169374,0.017597,0.035195,0.000000,97.000000,95.000000,2.000000,4.000000,0.000000,0.000000:
0000
0000
0000
0000
,
0000
0000
0000
0000
,
0000
0000
0000
0000
,
0000
0000
0000
0000
,
0000
0000
0000
0000
,
0000
0000
0000
0000
,
1000
0000
0001
0000
,
1000
0000
0001
0000
,
1000
0000
1000
0000
,
0001
0000
0001
0000
,
0100
0000
0010
0000
,
0100
0000
0010
0000
,
0100
0000
0100
0000
,
0010
0000
0010
0000
,
1000
0000
0001
0000
,
0100
0000
0010
0000
,
1000
0000
0001
0000
,
0100
0000
0010
0000
,
1000
0000
0100
0000
,
0010
0000
0001
0000
,
1000
0000
0100
0000
,
0010
0000
0010
0000
,
0010
0010
0010
0010
,
0001
0000
0100
0000
,
1000
0000
0010
0000
,
0001
0000
0100
0000
,
1000
0000
0010
0000
,
0001
0000
0100
0000
,
1000
0000
0010
0000
,
0001
0000
0100
0000
,
1000
0000
0010
0000
,
0001
0000
0100
0000
,
0200
0000
0000
0000
,
0300
0000
0000
0000
,
0200
0000
0000
0000
,
0300
0000
0000
0000
,
0100
0000
0100
0000
,
0100
0000
0100
0001
,
1000
0000
0001
0000
,
2002
0000
3003
0000
,
1000
0000
0010
0000
,
0001
0000
0100
0000
,
1000
0000
0010
0000
,
0001
0000
0100
0000
,
1000
0000
0010
0000
,
0001
0000
0100
0000
,
1000
0000
0010
0000
,
0001
0000
0100
0000
,
1000
0000
0001
0000
,
1000
0000
0001
0000
,
0010
0000
0100
0000
,
0010
0000
0100
0000
,
1000
0000
0001
0000
,
0010
0000
0100
0000
,
1000
0000
0001
0000
,
1001
0000
0000
0000
;

//---------------dance-single - ----------------
#NOTES:
     dance-single:
     :
     Medium:
     7:
     0.262702,0.314551,0.087986,0.070389,0.000000,209.000000,199.000000,10.000000,8.000000,0.000000,0.000000,0.262702,0.314551,0.087986,0.070389,0.000000,209.000000,199.000000,10.000000,8.000000,0.000000,0.000000:
0000
0000
0000
0000
,
0000
0000
0000
0000
,
0000
0000
0000
0000
,
0000
0000
0000
0000
,
0000
0000
0000
0000
,
0000
0000
0000
0000
,
1000
0001
1000
0001
,
1000
0001
0100
1001
,
0001
1000
0001
1000
,
0001
1000
0010
1001
,
0001
0010
0100
1000
,
0001
0010
0100
0110
,
1000
0100
0010
0001
,
1000
0100
0010
0110
,
0001
0001
0100
0100
,
1000
1000
0010
0011
,
1000
1000
0100
0100
,
0001
0001
0010
1010
,
0001
0001
0010
0010
,
1000
1000
0100
0101
,
1000
0010
0001
0100
,
2100
0001
0000
3001
,
0000
0001
0000
0001
0000
0001
0100
0010
,
1000
0001
0100
0010
,
1000
0000
0001
0000
0100
0010
0100
0000
,
0001
1000
0010
0100
,
0001
0000
1000
0000
0010
0100
0010
0000
,
1000
0100
0010
0001
,
1000
0000
0100
0000
0010
0100
0010
0000
,
0001
0010
0100
1000
,
1002
0010
0000
0013
,
0000
0010
0000
0010
0000
0010
0001
0010
,
0200
0000
0000
0000
,
0300
0000
0000
0000
,
0200
0000
0000
0000
,
0300
0000
0000
0000
,
0100
1000
0100
1000
,
0100
0000
1000
0000
0100
1000
0001
0000
,
0100
0000
0001
0000
0100
0000
0001
0100
,
0000
0100
0010
1000
0001
0100
0010
0010
,
1000
0100
0010
0001
,
1000
0000
0100
0000
0010
0100
0010
0000
,
0001
0010
0100
1000
,
0001
0000
0010
0000
0100
0010
0100
0000
,
1000
0010
0100
0001
,
1000
0000
0010
0000
0100
0010
0100
0000
,
0001
0010
1000
0100
,
0001
0000
1000
0000
0010
0100
0010
0100
,
0020
0030
1000
0100
,
0010
0000
0001
0000
0100
0010
0100
0010
,
0200
0300
0001
0010
,
0100
0000
1000
0000
0010
0100
0001
0100
,
0020
0030
1000
0100
,
0010
0000
0001
0000
1000
0010
0100
0010
,
2000
0000
3000
0000
0001
0010
0100
0000
,
1001
0000
0000
0000
;

//---------------dance-single - ----------------
#NOTES:
     dance-single:
     :
     Hard:
     9:
     0.346918,0.387140,0.237563,0.131980,0.000000,276.000000,249.000000,27.000000,15.000000,0.000000,0.000000,0.346918,0.387140,0.237563,0.131980,0.000000,276.000000,249.000000,27.000000,15.000000,0.000000,0.000000:
0000
0000
0000
0000
,
0000
0000
0000
0000
,
0000
0000
0000
0000
,
0000
0000
0000
0000
,
0000
0000
0000
0000
,
0000
0000
0000
0000
,
1000
0010
1000
0000
0001
0010
0001
0000
,
1000
0010
1000
0000
0001
0010
0100
1000
,
0001
0100
0001
0000
1000
0100
1000
0000
,
0001
0100
0001
0000
1000
0010
0100
0001
,
1000
0100
0010
0000
0001
0010
0100
0000
,
1000
0100
0010
0000
0001
0010
0100
1000
,
0010
0100
0001
0000
0100
0010
1000
0000
,
0010
0100
0001
0000
0010
0100
1000
0010
,
0200
0001
0000
1000
,
0000
0000
0301
0000
0100
0010
1000
0100
,
0020
1000
0000
0001
,
0000
0000
1030
0000
0010
0100
1000
0001
,
0200
1000
0000
0001
,
0000
0000
1300
0000
0100
0010
1000
0001
,
0020
1000
0000
0031
,
0101
1000
1100
0001
,
0011
0100
0000
0100
0000
0100
0010
1000
,
1010
0001
1010
0001
,
1010
0000
0001
0000
1000
0100
0010
0001
,
0011
1000
0011
1000
,
0011
1000
0002
0203
,
0310
1000
0100
0000
0010
0100
1000
0000
,
0010
1000
0100
0000
0010
0001
0100
0010
,
0200
0000
0301
0010
0100
0000
0010
0001
,
0100
0000
0001
0010
0100
0000
0010
0001
,
0100
0010
0000
0010
1000
0001
0010
0100
,
2200
0000
3000
0000
,
0002
0000
0300
0000
,
0020
0000
0003
0000
,
2000
0000
0030
0000
,
3001
0101
0000
1100
,
0000
1010
0000
0011
,
0000
0000
1001
0000
0000
0000
0010
0110
,
0000
0100
0001
1000
0100
0010
0100
1000
,
1100
0001
1100
0001
,
1100
0000
0010
0000
1000
0100
0010
0001
,
0101
1000
0101
1000
,
0101
1000
0002
0023
,
0130
0010
0001
0000
0010
0100
1000
0000
,
0100
0010
0001
0000
0100
0010
1000
0100
,
0020
0000
0130
1000
0010
0000
0100
0001
,
0010
0000
0100
1000
0010
0100
0001
0010
,
0011
0000
0010
0001
0100
1000
0100
0001
,
0010
0000
0100
0000
1000
0010
0100
0010
,
1010
0000
1000
0100
0001
0100
1000
0010
,
0100
0000
0001
0000
0010
0100
1000
0001
,
1001
0000
1000
0100
0010
1000
0010
0100
,
1000
0000
0010
0000
0100
0001
1000
0010
,
0110
0000
0100
0001
0010
1000
0010
0001
,
1001
0000
0000
0000
;

//---------------dance-double - ----------------
#NOTES:
     dance-double:
     :
     Easy:
     4:
     0.120667,0.169374,0.008799,0.026396,0.000000,96.000000,95.000000,1.000000,3.000000,0.000000,0.000000,0.120667,0.169374,0.008799,0.026396,0.000000,96.000000,95.000000,1.000000,3.000000,0.000000,0.000000:
00000000
00000000
00000000
00000000
,
00000000
00000000
00000000
00000000
,
00000000
00000000
00000000
00000000
,
00000000
00000000
00000000
00000000
,
00000000
00000000
00000000
00000000
,
00000000
00000000
00000000
00000000
,
00100000
00000000
00001000
00000000
,
00100000
00000000
00001000
00000000
,
00100000
00000000
00100000
00000000
,
00001000
00000000
00001000
00000000
,
00010000
00000000
00000010
00000000
,
00010000
00000000
00000010
00000000
,
00010000
00000000
00010000
00000000
,
00000010
00000000
00000010
00000000
,
00001000
00000000
00000100
00000000
,
00010000
00000000
00000010
00000000
,
00001000
00000000
00000100
00000000
,
00010000
00000000
00000010
00000000
,
00000100
00000000
00001000
00000000
,
00010000
00000000
00100000
00000000
,
01000000
00000000
00010000
00000000
,
00100000
00000000
00100000
00000000
,
00100000
00100000
00100000
00100000
,
00010000
00000000
01000000
00000000
,
00001000
00000000
00100000
00000000
,
00010000
00000000
01000000
00000000
,
00001000
00000000
00100000
00000000
,
00010000
00000000
01000000
00000000
,
00100000
00000000
00010000
00000000
,
00001000
00000000
01000000
00000000
,
00100000
00000000
00010000
00000000
,
00001000
00000000
00100000
00000000
,
00020000
00000000
00000000
00000000
,
00030000
00000000
00000000
00000000
,
00020000
00000000
00000000
00000000
,
00030000
00000000
00000000
00000000
,
01000000
00000000
00001000
00000000
,
00010000
00000000
00000100
00001000
,
00000001
00000000
00000100
00000000
,
00000020
00000000
00000030
00000000
,
00001000
00000000
00000100
00000000
,
00010000
00000000
00000010
00000000
,
00001000
00000000
00000100
00000000
,
00010000
00000000
00000010
00000000
,
00000100
00000000
00001000
00000000
,
00010000
00000000
00000010
00000000
,
00000100
00000000
00001000
00000000
,
00010000
00000000
01000000
00000000
,
10000000
00000000
00100000
00000000
,
01000000
00000000
00010000
00000000
,
00100000
00000000
00001000
00000000
,
00010000
00000000
00000100
00000000
,
00001000
00000000
00000010
00000000
,
00000100
00000000
00000001
00000000
,
00000010
00000000
00001000
00000000
,
00011000
00000000
00000000
00000000
;

//---------------dance-double - ----------------
#NOTES:
     dance-double:
     :
     Medium:
     8:
     0.266473,0.314551,0.087986,0.087986,0.000000,212.000000,202.000000,10.000000,10.000000,0.000000,0.000000,0.266473,0.314551,0.087986,0.087986,0.000000,212.000000,202.000000,10.000000,10.000000,0.000000,0.000000:
00000000
00000000
00000000
00000000
,
00000000
00000000
00000000
00000000
,
00000000
00000000
00000000
00000000
,
00000000
00000000
00000000
00000000
,
00000000
00000000
00000000
00000000
,
00000000
00000000
00000000
00000000
,
00001000
00010000
00100000
10000000
,
01000000
00010000
00001000
00011000
,
00010000
00001000
00000100
00000001
,
00000010
00001000
00010000
00011000
,
00001000
00100000
01000000
10000000
,
01000000
00010000
00001000
00011000
,
00010000
00000100
00000010
00000001
,
00000010
00001000
00010000
00011000
,
00000100
00001000
00000010
00000001
,
00000010
00010000
00001000
00101000
,
00100000
00010000
01000000
10000000
,
01000000
00001000
00010000
00010100
,
00000100
00000010
00000001
00000010
,
00000100
00010000
00001000
01001000
,
01000000
00100000
00010000
00001000
,
00000200
00000001
00000000
00000301
,
00000000
00000001
00000000
00000001
00000000
00000001
00000010
00000100
,
00001000
00000010
00010000
00001000
,
00100000
00000000
00010000
00000000
01000000
00100000
01000000
00000000
,
00010000
00100000
00001000
00010000
,
00000100
00000000
00001000
00000000
00000010
00000100
00000010
00000000
,
00010000
00001000
00100000
00010000
,
01000000
00000000
00100000
00000000
10000000
01000000
10000000
00000000
,
01000000
00010000
00001000
00000100
,
00000002
00000010
00000000
00000013
,
00000000
00000010
00000000
00000010
00000000
00000010
00000100
00001000
,
00001020
00000000
00000000
00000000
,
00020000
00030030
00000000
00000000
,
02001000
00000000
00000000
00000000
,
00020000
03030000
00000000
00000000
,
01000000
00010000
01000000
10000000
,
01000000
00000000
00010000
00000000
00001000
00010000
00001000
00000000
,
00000100
00000000
00000001
00000000
00000100
00000000
00001000
00000100
,
00000000
00000100
00000010
00000001
00001000
00000100
00000010
00000001
,
00000100
00001000
00010000
00100000
,
10000000
00000000
01000000
00000000
00010000
00001000
00010000
00000000
,
00001000
00000010
00000001
00000100
,
00001000
00000000
00010000
00000000
00100000
10000000
00100000
00000000
,
10000000
01000000
00010000
00001000
,
00000010
00000000
00000001
00000000
00000100
00001000
00000100
00000000
,
00000010
00010000
00001000
00100000
,
00010000
00000000
10000000
00000000
00100000
01000000
00010000
01000000
,
00200000
00300000
10000000
01000000
,
00010000
00000000
00001000
00000000
00100000
00010000
01000000
00010000
,
00200000
00300000
00001000
00010000
,
00000100
00000000
00000010
00000000
00000001
00000100
00000010
00000100
,
00000002
00000003
00000010
00001000
,
00010000
00000000
00100000
00000000
10000000
01000000
00100000
01000000
,
20000000
00000000
30100000
00000000
00100000
00010000
00001000
00000000
,
00011000
00000000
00000000
00000000
;

//---------------dance-double - ----------------
#NOTES:
     dance-double:
     :
     Hard:
     11:
     0.385883,0.443451,0.237563,0.246362,0.000000,307.000000,280.000000,27.000000,28.000000,0.000000,0.000000,0.385883,0.443451,0.237563,0.246362,0.000000,307.000000,280.000000,27.000000,28.000000,0.000000,0.000000:
00000000
00000000
00000000
00000000
,
00000000
00000000
00000000
00000000
,
00000000
00000000
00000000
00000000
,
00000000
00000000
00000000
00000000
,
00000000
00000000
00000000
00000000
,
00000000
00000000
00000000
00000000
,
01001000
00001000
00011000
00001000
,
00101000
00000000
00100000
00000000
00010000
01000000
00001000
00010000
,
00010100
00010000
00011000
00010000
,
00010010
00000000
00000010
00000000
00001000
00000100
00010000
00001000
,
01001000
00001000
00011000
00001000
,
00101000
00000000
00100000
00000000
00010000
01000000
00001000
00010000
,
00010100
00010000
00011000
00010000
,
00010010
00000000
00000010
00000000
00001000
00000100
00010000
00001000
,
00100000
00010000
01000000
00000000
00100000
10000000
01000000
00000000
,
00100000
00001000
00010000
00000000
00100000
00010000
00001000
00000100
,
00000010
00001000
00000100
00000000
00000010
00000001
00000100
00000000
,
00000010
00010000
00001000
00000000
00000010
00001000
00010000
00100000
,
01000000
00010000
00100000
00000000
01000000
10000000
00100000
00000000
,
01000000
00001000
00010000
00000000
01000000
00010000
00001000
00000010
,
00000100
00001000
00000010
00000000
00000100
00000001
00000010
00000010
,
00000000
00000001
00000000
00000100
00000000
00001000
00010000
00001000
,
00000000
00100000
00010000
01000000
00001000
00010000
00000010
00001000
,
00001002
00000203
00002300
00023000
,
00230000
00000000
10300000
00000000
10000000
01000000
00100000
00010000
,
02000000
03002000
00023000
00030200
,
00002300
00003001
00000101
00001010
,
00021000
00230000
20300000
32000000
,
03200000
00000000
00310000
00000000
00010000
01000000
00001000
00010000
,
00200000
02300000
03020000
00032000
,
00003010
00000011
00000001
00000100
,
00001000
00010000
00000000
00010000
00100000
10000000
01000000
00100000
,
20020000
00000000
30000000
00000000
,
00002000
00000000
00030000
00000000
,
00000002
00000000
00003000
00000000
,
00000200
00000000
00000000
00000303
,
00000120
00001000
00000000
00001000
,
00000000
00000000
00001030
00000000
00001000
00000100
00010000
00001000
,
00201000
00000000
00010000
00000000
00000000
00000000
00310000
01000000
,
00000000
01000000
00100000
10000000
01000000
00100000
00001000
00010000
,
00011000
00001000
00100000
00010000
01000000
00100000
10000000
00010000
,
00100000
00001000
00010000
00000100
00001000
00000010
00000100
00000001
,
00001000
00000100
00000010
00000001
00000100
00001000
00010000
00001000
,
00000100
00001000
00010000
00100000
00010000
00001000
00010000
00100000
,
10000000
01000000
00100000
01000000
00010000
00001000
00100000
00010000
,
01000000
00001000
00010000
00000100
00000010
00000100
00001000
00000010
,
00000001
00000010
00000100
00001000
00010000
00100000
00010000
00001000
,
00000010
00001000
00010000
01000000
00010000
00001000
00000100
00001000
,
00011000
00000000
00010000
00100000
10000000
01000000
00010000
01000000
,
10000000
00100000
00010000
00100000
01000000
00010000
00100000
00001000
,
00011000
00000000
00001000
00000100
00000001
00000010
00001000
00000010
,
00000001
00000100
00001000
00000100
00000010
00001000
00000100
00010000
,
00011000
00000000
00001000
00010000
00100000
10000000
00100000
01000000
,
10000000
01000000
00010000
00100000
01000000
00010000
00001000
00000010
,
00000110
00000000
00000001
00000100
00001000
00010000
00000000
01010000
,
00000000
22000000
00000000
00000000
00000000
00000000
00000000
00000000
,
33000000
00000000
00000000
00000000
;
