#TITLE:まださいたま2000;
#SUBTITLE:;
#ARTIST:Linda AI-CUE;
#TITLETRANSLIT:Mada Saitama2000;
#SUBTITLETRANSLIT:;
#ARTISTTRANSLIT:;
#GENRE:VARIETY;
#CREDIT:MUINELIM;
#BANNER:Mada Saitama2000.png;
#BACKGROUND:Mada Saitama2000-bg.png;
#LYRICSPATH:;
#CDTITLE:;
#MUSIC:Mada Saitama2000.mp3;
#OFFSET:-0.214000;
#SAMPLESTART:15.642571;
#SAMPLELENGTH:15.408572;
#SELECTABLE:YES;
#BPMS:0.000000=70,14.000000=140,86.000000=70,102.000000=140,118.000000=280,150.000000=140,170.000000=280,171.000000=140,172.000000=280,299.000000=140,315.000000=280
;
#STOPS:169.500000=0.857147,170.000000=0.071426,170.333328=0.071434,170.666672=0.071434,298.000000=0.214287
;
#BGCHANGES:;
#KEYSOUNDS:;
#ATTACKS:;

//---------------dance-single - ----------------
#NOTES:
     dance-single:
     :
     Challenge:
     17:
     0.857783,1.250607,0.493197,0.227027,0.771110,767.000000,704.000000,63.000000,29.000000,0.000000,0.000000,0.857783,1.250607,0.493197,0.227027,0.771110,767.000000,704.000000,63.000000,29.000000,0.000000,0.000000:
0000
0000
0000
0000
,
0000
0000
0000
0000
,
0000
0000
0000
0000
0000
0000
0000
0000
0000
0000
0000
0000
0000
0000
0000
0000
0100
0001
0000
0100
1000
0000
0100
0001
0000
0000
0010
0100
0010
0000
0000
0000
,
0110
0000
0000
0000
0000
0000
0000
0000
0000
0000
0000
0000
0000
0000
0000
0000
0000
0000
0000
0000
0000
0000
0000
0000
1000
0000
0000
0000
0000
0000
0001
0000
0000
0000
0000
0000
1000
0000
0000
0000
0000
0000
0001
0000
0000
0000
0000
0000
1000
0000
0000
0000
0000
0000
0000
0000
0000
0000
0000
0000
0000
0000
0000
0000
0000
0000
0000
0000
0000
0000
0000
0000
0010
0000
0000
0000
0000
0000
0100
0000
0000
0000
0000
0000
0001
0000
0000
0000
0000
0000
0000
0000
0000
0000
0000
0000
0010
0000
0000
0000
0000
0000
0000
0000
0000
0000
0000
0000
0001
0000
0000
0000
0000
0000
0000
0000
0000
0000
0000
0000
0000
0000
0000
0000
0000
0000
0000
0000
0000
0000
0000
0000
0010
0000
0000
0000
0000
0000
0000
0000
0000
0000
0000
0000
0100
0000
0000
0000
0000
0000
0000
0000
0000
0000
0000
0000
1000
0000
0000
0000
0000
0000
0000
0000
0000
0000
0000
0000
0000
0000
0000
0000
0000
0000
0000
0000
0100
0000
0000
0000
0000
0000
0000
0000
1000
0000
0000
0000
0000
0000
0000
0000
,
0100
0000
0000
0000
1000
0000
0010
0000
0000
0100
0000
0000
0001
0000
0000
0010
0000
0000
0010
0000
0000
0000
0000
0000
0001
0000
0000
0010
0000
0000
0100
0000
0000
1000
0000
0000
0001
0000
0000
0000
0100
0000
0000
0000
0010
0000
0000
0000
,
1000
0000
0001
0000
1000
0000
0001
0000
1000
0000
0001
0000
2000
0000
0000
0000
0000
0000
0000
0000
0000
0000
0000
0000
3010
0000
0000
0100
0000
0000
0010
0000
0000
0100
0000
0000
0001
0000
0000
0000
0000
0000
0010
0000
0000
0000
0000
0000
,
0100
0000
1000
0000
1010
0000
0000
0000
0101
0000
0001
0010
0000
0001
0100
0000
,
1000
0000
0000
0000
0000
0000
0100
0000
0000
0000
0000
0000
0010
0000
0100
0000
0010
0000
0100
0000
0000
0000
0000
0000
0001
0000
0000
1000
0000
0000
0001
0000
0000
1000
0000
0000
0010
0000
0000
0000
0000
0000
0001
0000
0000
0000
0000
0000
,
0010
0000
0200
0000
0001
0000
0300
0000
1010
0000
1000
0100
0000
1000
0010
0000
,
0101
0000
0100
0000
0010
1000
0000
0100
0010
0100
0000
0010
0002
0000
0100
0000
,
0003
0000
0011
0000
1100
0000
0000
0000
1000
0010
0000
0001
0010
0000
0100
0000
,
0110
0000
0000
0000
0000
0000
0010
0000
0000
0000
0000
0000
1000
0000
0100
0000
1000
0000
0100
0000
0000
0000
0000
0000
0010
0000
0000
0100
0000
0000
0010
0000
0000
0100
0000
0000
1000
0000
0000
0000
0000
0000
0001
0000
0000
0000
0000
0000
,
0010
0000
0200
0000
0001
0000
0300
0000
1100
0000
1000
0001
0000
1000
0100
0000
,
0010
0001
0100
0010
1000
0001
0200
0000
0310
1000
0010
0100
0001
0000
0010
0000
,
0100
0000
1000
0000
1010
0000
0000
0000
0101
0000
0001
0010
0000
0001
0100
0000
,
1000
0000
0000
0000
0000
0000
0100
0000
0000
0000
0000
0000
0010
0000
0100
0000
0010
0000
0100
0000
0000
0000
0000
0000
0001
0000
0000
0010
0000
0000
0100
0000
0000
1000
0000
0000
0010
0000
0000
0000
0000
0000
0001
0000
0000
0000
0000
0000
,
0010
0000
0200
0000
1000
0000
0300
0000
0011
0000
0010
0100
0000
0010
1000
0000
,
1100
0000
1000
0000
0001
0100
0000
0010
0100
0010
0000
0001
0010
0000
1000
0000
,
0000
0000
1010
0000
0101
0000
0000
0000
0001
0010
0000
1000
0010
0000
0001
0000
,
0110
0000
0000
0000
0000
0000
0100
0000
0000
0000
0000
0000
1000
0000
0010
0000
1000
0000
0010
0000
0000
0000
0000
0000
0100
0000
0000
0001
0000
0000
1000
0000
0000
0100
0000
0000
0010
0000
0000
0000
0000
0000
0000
0000
0000
0000
0000
0000
,
0010
0000
0002
0000
2000
0000
3003
0000
1010
0000
0000
0011
0000
0000
0101
0000
,
0100
0000
0010
0000
0100
0000
0010
0000
0100
0000
0010
0000
2000
0000
0000
0000
0000
0000
0000
0000
0000
0000
0000
0000
3001
0000
0000
0010
0000
0000
0100
0000
0000
1000
0000
0000
0001
0000
0000
0100
0000
0000
0010
0000
0000
1000
0000
0000
,
0001
0000
0000
0000
0000
0000
0000
0000
0000
0000
0000
0000
0010
0000
0000
0000
0000
0000
0000
0000
0000
0000
0000
0000
0100
0000
0000
0000
0000
0000
0000
0000
0000
0000
0000
0000
1000
0000
0000
0000
0000
0000
0000
0000
0000
0000
0000
0000
0000
0000
0000
0000
0000
0000
0000
0000
0000
0000
0000
0000
0010
0000
0000
0000
0000
0000
0000
0000
0000
0000
0000
0000
0100
0000
0000
0000
0010
0000
0000
0000
0100
0000
0000
0000
0000
0000
0000
0000
0000
0000
0000
0000
0000
0000
0000
0000
0201
0000
0000
0000
0000
0000
0000
0000
0000
0000
0000
0000
0000
0000
0000
0000
0000
0000
0000
0000
0000
0000
0000
0000
0000
0000
0000
0000
0000
0000
0000
0000
0000
0000
0000
0000
0320
0000
0000
0000
0000
0000
0000
0000
0000
0000
0000
0000
0000
0000
0000
0000
0000
0000
0000
0000
0000
0000
0000
0000
1030
0000
0000
0000
0000
0000
0100
0000
0000
0000
0000
0000
2000
0000
0000
0000
0000
0000
0000
0000
0000
0000
0000
0000
0000
0000
0000
0000
0000
0000
0000
0000
0000
0000
0000
0000
,
0000
0000
0001
0000
0000
0001
0000
0000
3001
0000
0001
0010
0100
1000
0001
0000
1000
0000
0010
0000
0100
0000
0001
0000
1000
0000
0100
0000
0010
0000
0001
0000
,
1000
0000
0000
0000
0000
0000
0000
0000
0000
0000
0000
0000
0010
0000
0000
0000
0000
0000
0000
0000
0000
0000
0000
0000
0100
0000
0000
0000
0000
0000
0000
0000
0000
0000
0000
0000
0001
0000
0000
0000
0000
0000
0000
0000
0000
0000
0000
0000
0000
0000
0000
0000
0000
0000
0000
0000
0000
0000
0000
0000
1000
0000
0000
0000
0000
0000
0000
0000
0000
0000
0000
0000
0010
0000
0000
0000
0100
0000
0000
0000
0010
0000
0000
0000
0000
0000
0000
0000
0000
0000
0000
0000
0000
0000
0000
0000
0210
0000
0000
0000
0000
0000
0000
0000
0000
0000
0000
0000
0000
0000
0000
0000
0000
0000
0000
0000
0000
0000
0000
0000
0000
0000
0000
0000
0000
0000
0000
0000
0000
0000
0000
0000
0302
0000
0000
0000
0000
0000
0000
0000
0000
0000
0000
0000
0000
0000
0000
0000
0000
0000
0000
0000
0000
0000
0000
0000
0000
0000
0000
0000
0000
0000
0000
0000
0000
0000
0000
0000
0013
0000
0000
0000
0000
0000
0100
0000
0000
0000
0000
0000
0010
0000
0000
0000
0000
0000
0100
0000
0000
0000
0000
0000
,
1000
0000
0000
1010
0000
0000
0011
0000
0001
0100
0010
1000
0002
0000
0000
0000
0013
0000
0100
0000
1000
0000
0001
0000
0010
0000
0100
0000
1000
0000
0001
0000
,
0020
0000
0000
0100
0000
0000
0130
0000
0000
0000
0000
0000
1000
0000
0010
0000
0001
0000
1000
0000
0100
0000
0001
0000
,
0011
0000
0000
0000
1100
0100
0020
0000
0031
0100
0010
1000
0001
0100
0010
1000
,
0002
0000
0000
0100
0000
0000
0103
0000
0000
0000
0000
0000
0010
0000
1000
0000
0001
0000
0100
0000
1000
0000
0001
0000
,
0010
0000
1000
0000
0100
0000
0001
0000
1000
0000
0010
0000
0001
0000
0000
0100
0000
0000
0010
0000
0000
1000
0000
0000
,
0001
0100
0010
1000
0001
0100
0010
0010
,
1000
0001
0001
0100
0010
1000
0100
0010
,
0001
1000
0100
0010
0001
1000
0100
0100
,
0010
0001
0001
1000
0010
0100
0001
0100
,
0010
1000
0010
0100
0001
0010
0001
1000
,
0100
1000
0010
0100
0001
0010
0100
1000
,
0100
0010
0001
0100
2002
0000
0000
0000
,
0000
0000
0000
0000
0000
0000
0000
0000
0000
0000
0000
0000
3003
0000
0000
0000
0000
0000
0000
0000
0000
0000
0000
0000
0001
0000
0000
0100
0000
0000
0000
0000
0000
0010
0000
0000
1000
0000
0000
0100
0000
0000
0000
0000
1000
0000
0001
0000
,
1000
0000
0000
0000
0001
0000
0100
0000
0000
0010
0000
0000
1000
0000
0000
0100
0000
0000
0100
0000
0000
0000
0000
0000
1000
0000
0000
0001
0000
0000
0000
0000
0000
0010
0000
0000
0100
0000
0000
1000
0000
0000
0000
0000
0010
0000
0100
0000
,
0010
0000
0000
0000
0100
0000
0001
0000
0000
0020
0000
0000
0000
0000
0000
0000
0000
0000
0030
0000
0000
0000
0000
0000
0110
0000
0000
0000
0000
0000
0100
0000
0000
0000
0000
0000
1100
0000
0000
0000
0000
0000
1000
0000
0000
0010
0000
0000
,
0100
0000
0001
0000
0010
1000
0000
0010
0100
0010
0000
0001
0100
0000
0010
0000
,
1010
0000
1000
0000
0001
0010
0100
0001
0100
0000
1000
0000
1100
0000
0100
0000
,
0110
0000
0000
0000
0000
0000
0010
0000
0000
0000
0000
0000
0011
0000
0000
0000
0000
0000
2002
0000
0000
3003
0000
0000
1000
0000
0000
0000
0100
0000
0000
0000
0010
0000
0000
0000
0002
0000
0000
0000
0000
0000
0000
0000
0000
0000
0000
0000
,
0103
0000
0100
0000
0100
0000
0100
0010
,
1000
0000
1100
0000
0101
0000
0001
0010
,
1000
0000
0000
0110
0000
0000
0011
0000
,
0001
0000
0100
0000
1000
0001
0010
0100
,
0010
0000
0010
0000
0010
0000
0010
0100
,
0001
0000
0011
0000
0010
0100
1000
0100
,
0001
0000
0000
0110
0000
0000
1100
0000
,
1000
0000
0000
0010
0000
0000
0100
0001
0100
0001
0100
0001
,
1000
0000
1000
0000
1000
0000
1000
0010
,
0100
0000
1100
0000
0101
0000
0001
0010
,
0100
0000
0000
1001
0000
0000
0110
0000
,
0010
0000
1000
0000
0100
0001
1000
0010
,
0001
0000
0001
0000
0001
0000
0001
0100
,
0010
0000
0011
0000
0001
0010
0100
0001
,
1000
0000
0000
0110
0000
0000
1001
0000
,
0001
0000
0000
0010
0000
0000
0100
0000
0000
1000
0000
0000
0010
0000
0100
0000
0010
0000
0100
0000
0010
0000
0100
0000
,
0001
0010
0001
1000
0100
1000
0001
0010
,
0001
1000
0100
1000
0001
0000
0101
0000
,
1000
0010
1000
0001
0100
0001
1000
0010
,
1000
0001
0100
0001
1000
0000
1100
0000
,
0010
0001
0010
0100
1000
0100
0010
0001
,
0010
0100
1000
0100
0010
0000
1001
0000
,
0001
0100
0010
1000
0010
0100
0001
0100
,
0010
1000
0010
0100
0001
0000
0110
0000
,
1000
0100
1000
0100
0001
0100
0001
0100
,
1000
0010
1000
0010
0001
0010
0001
0010
,
1000
0100
0001
0100
1000
0010
0001
0010
,
1000
0100
0001
0100
1000
0010
0001
0010
,
0100
0101
0000
0011
0000
1010
0000
1100
,
0000
0101
0000
0011
0010
0100
2000
0002
,
0000
0000
0000
0000
,
0000
3003
1001
0110
,
0010
1000
0100
0010
0100
0010
0001
0100
1000
0100
0000
0000
,
0001
0010
0100
1000
0100
1000
0010
0001
0010
0100
0000
0000
,
1000
0100
0001
0010
0100
0010
0100
1000
0010
0001
0000
0000
,
0010
0000
0100
0000
0001
0000
0010
0000
1000
0000
0001
0000
0100
0000
1000
0000
0010
0000
0100
0000
0000
0001
0000
0000
,
0010
0100
1000
0010
0100
0001
0010
0100
,
1000
0000
0010
0000
0100
0001
0100
0000
0001
0000
0001
0000
0010
0000
0100
0000
,
0001
0100
1000
0100
0010
0100
1000
0001
,
0010
0100
0010
0001
0010
1000
0010
0100
,
1000
0100
1000
0000
0010
0000
0100
0000
0010
0000
1000
0000
0100
0000
0010
0000
,
0001
0100
0001
0000
1000
0000
0010
0000
0100
0000
0001
0000
0011
0000
0000
0000
,
0000
1010
0000
0000
1200
0000
0000
0001
,
0301
0000
0000
0100
0010
0100
0010
0100
0010
2002
0000
0000
,
0000
0000
0000
0000
,
0000
0000
0000
3003
;

//---------------dance-single - ----------------
#NOTES:
     dance-single:
     :
     Beginner:
     7:
     0.214725,0.348369,0.054800,0.054800,0.000000,192.000000,185.000000,7.000000,7.000000,0.000000,0.000000,0.214725,0.348369,0.054800,0.054800,0.000000,192.000000,185.000000,7.000000,7.000000,0.000000,0.000000:
0000
0000
0000
0000
,
0000
0000
0000
0000
,
0000
0000
0000
0000
1000
1000
1000
0000
,
0001
0001
1001
0000
,
0000
0000
0000
0000
,
0000
1001
1000
0100
,
0000
0100
0000
0010
,
0000
0010
0001
0010
,
0000
0010
0000
0100
,
0000
0100
1000
0010
,
0000
0010
0000
0100
,
0000
0100
0001
0100
,
0000
0100
0000
0010
,
0000
0010
1000
0001
,
0000
0001
0000
1000
,
0000
1000
0001
0100
,
0000
0100
0000
0010
,
0000
0010
1000
0100
,
0000
0100
0000
0001
,
0000
0001
0010
1000
,
0000
0001
0000
1000
,
0001
1000
1001
0100
,
1000
0100
0010
0000
0002
0000
0000
0000
,
0003
1000
1000
0000
0001
0000
0100
0000
,
0001
0010
0100
0000
2000
0000
0000
3000
,
0001
0001
0001
0000
1000
0000
0100
0000
,
1000
0100
1000
0001
,
1000
0000
0001
0100
,
0001
0100
0001
1000
,
0001
0000
1000
0000
,
0100
0000
1000
0000
,
0000
0000
0001
0000
,
0100
0000
0001
0000
,
0000
0000
1000
0000
,
0010
0000
1000
0000
,
0000
0000
0001
0000
,
0010
0000
0002
0000
,
0003
0000
1001
0000
,
0000
0000
0000
0000
,
0000
0000
0100
0100
,
0010
0010
1000
1000
,
0001
0001
0100
0010
,
1000
0001
0000
0000
,
1000
0000
1000
0000
,
0010
0000
0000
0000
,
1000
0000
1000
0000
,
0100
0000
0000
0000
,
0001
0000
0001
0000
,
0100
0000
0000
0000
,
0001
0000
0001
0000
,
0010
0000
0000
0000
,
1000
0000
1000
0000
,
0001
0000
0000
0000
,
0010
0000
0010
0000
,
0100
0000
0000
0000
,
0001
0000
0001
0000
,
1000
0000
0000
0000
,
0100
0000
0100
0000
,
0010
0000
0000
0000
,
1000
0000
1000
0000
,
0010
0000
0010
0000
,
0001
0000
0001
0000
,
0100
0000
0000
0000
,
0001
0000
0001
0000
,
0010
0000
0010
0000
,
1000
0000
1000
0000
,
0100
0000
0000
0000
,
0001
0000
0001
0000
,
1000
0000
1000
0000
,
0100
0000
0100
0000
,
0010
0000
0010
0000
,
0001
0000
1000
0000
,
0001
0000
1000
0000
,
2002
0000
0000
0000
,
3003
0000
0000
0000
,
1000
0001
0100
0001
,
0000
1000
0010
1000
,
0000
0001
1000
0001
,
0100
0010
0110
1000
,
0000
1000
0000
0010
,
0000
0010
0000
0001
,
0000
0001
0000
0100
,
0000
0100
0000
1000
,
0000
0010
0000
0001
,
0000
0100
0000
1000
,
0000
0000
0001
0000
,
1000
1000
0000
2002
,
0000
0000
0000
0000
,
0000
0000
0000
0000
,
3003
0000
0000
0000
;

//---------------dance-single - ----------------
#NOTES:
     dance-single:
     :
     Easy:
     10:
     0.345573,0.521086,0.172228,0.172228,0.000000,309.000000,287.000000,22.000000,22.000000,0.000000,0.000000,0.345573,0.521086,0.172228,0.172228,0.000000,309.000000,287.000000,22.000000,22.000000,0.000000,0.000000:
0000
0000
0000
0000
,
0000
0000
0000
0000
,
0000
0000
0000
0000
0001
0100
0001
0000
,
1000
0100
1000
0000
1001
0000
0000
0000
,
0000
0000
0000
0000
,
0000
1001
1000
0010
,
2000
3100
1000
0001
,
1000
0110
0001
0100
,
0002
0013
0001
1000
,
0001
0110
1000
0100
,
2000
3010
1000
0100
,
0010
0110
0001
0010
,
0002
0103
0001
0010
,
0100
0110
1000
0010
,
0002
0013
1000
0001
,
0100
1010
0001
0100
,
2000
3100
0001
1000
,
0010
0101
1000
0010
,
0002
0103
1000
0100
,
0010
1100
0001
0100
,
0000
2000
3010
0001
,
1000
0000
1001
0000
0110
0010
0100
0010
,
0000
1000
0000
0001
2000
0000
3002
0000
,
1003
0100
0010
0010
1001
0001
1000
0001
,
0000
0100
0000
0010
0200
0000
0302
0000
,
1003
0001
1000
0110
0100
0000
0001
0000
,
0100
0001
0100
0000
0001
0000
1000
0000
,
0002
1003
0010
1000
,
0010
1000
0010
0000
1000
0000
0010
0000
,
2000
3001
1000
0010
,
1000
0000
0001
0010
,
0001
0000
1000
0100
,
1000
0000
0001
0100
,
0001
0000
1000
0001
,
1000
0000
0010
0100
,
0010
0000
1000
0001
,
0100
0010
0220
0000
,
0000
0330
1001
0000
,
0000
0000
0000
0000
,
0000
0000
0000
0000
1000
0010
0100
0000
,
0001
0010
0100
0000
1000
0010
0100
0000
,
0001
0010
0100
0000
1000
0001
0100
0000
,
0001
1000
0010
0010
0000
0000
0000
0000
,
0100
0001
0100
0001
,
0100
0000
0001
0000
,
1000
0100
0010
0000
,
0010
0001
0100
0000
,
0010
1000
0010
1000
,
0010
0000
0100
0000
,
0001
0010
0100
0000
,
0100
1000
0020
0030
,
0100
0001
1000
0010
,
0100
0000
0001
0000
,
1000
0100
0010
0000
,
0010
0001
1000
0000
,
0010
1000
0001
0100
,
0010
0000
1000
0000
,
1000
0001
0010
0000
,
0010
0100
2000
3000
,
0001
0100
0001
0000
,
0001
0010
0001
0000
,
1000
0001
1000
0000
,
1000
0010
1000
0000
,
1000
0100
1000
0000
,
0001
1000
0001
0000
,
0100
0010
0100
0000
,
0010
0100
0010
0000
,
1000
0010
1000
0010
,
1000
0001
0100
0000
,
0001
0010
0001
0010
,
0001
1000
0100
0000
,
1100
0000
0101
0000
,
1010
0000
0011
0000
,
2002
0000
0000
0000
,
0000
0000
3003
0000
,
1000
1000
0010
0010
,
0001
0001
0100
0100
,
1000
0001
0010
1000
,
0100
0001
1001
1000
,
0100
0010
0000
0010
,
0001
0100
0000
0001
,
0010
0100
0000
0100
,
1000
0010
0000
0100
,
0001
0100
0001
1000
,
0010
1000
0000
0001
,
0000
1000
0000
0000
0001
0000
0000
0000
,
0100
0100
0000
2002
,
0000
0000
0000
0000
,
0000
0000
0000
3003
;

//---------------dance-double - ----------------
#NOTES:
     dance-double:
     :
     Easy:
     9:
     0.309786,0.451608,0.172228,0.086114,0.000000,277.000000,255.000000,22.000000,11.000000,0.000000,0.000000,0.309786,0.451608,0.172228,0.086114,0.000000,277.000000,255.000000,22.000000,11.000000,0.000000,0.000000:
00000000
00000000
00000000
00000000
,
00000000
00000000
00000000
00000000
,
00000000
00000000
00000000
00000000
00001000
00010000
00001000
00000000
,
00010000
00001000
00010000
00000000
00011000
00000000
00000000
00000000
,
00000000
00000000
00000000
00000000
,
00000000
00011000
00010000
01000000
,
10000000
00100000
10000000
01000000
,
00010000
00011000
00001000
00000010
,
00000001
00000100
00000001
00000010
,
00001000
00011000
00010000
00100000
,
10000000
01000000
10000000
00100000
,
00010000
00011000
00001000
00000100
,
00000001
00000010
00000001
00000100
,
00001000
00011000
00010000
01000000
,
10000000
00100000
00010000
00001000
,
00010000
00011000
00001000
00000010
,
00000001
00000100
00001000
00010000
,
00001000
00011000
00010000
00100000
,
10000000
01000000
00010000
00001000
,
00010000
00011000
00001000
00000100
,
00000000
00000001
00000010
00001000
,
00010000
00011000
00001000
00100000
,
01000000
00000000
00010000
00001000
00020000
00000000
00030200
00000000
,
00000310
00000000
00000001
00000100
00001000
00000000
00010000
00000000
,
00000100
00000010
00002000
00023000
,
00130000
00100000
10000000
00000000
11000000
00000000
00010000
00000000
,
00001000
00010000
00001000
00000100
,
00000010
00001001
00000101
00001000
,
00010000
00001000
00010000
01000000
,
00100000
10010000
10000000
00000000
,
01000000
00000000
10000000
00000000
,
01000000
00000000
00100000
00000000
,
00010000
00000000
00100000
00000000
,
00010000
00000000
00001000
00000000
,
00000100
00000000
00000010
00000000
,
00000001
00000000
00000100
00000000
,
00001000
00000000
00022000
00000000
,
00000000
00033000
00011000
00000000
,
00000000
00000000
00000000
00000000
,
00000000
00000000
00000000
00000000
00010000
00000100
00010000
00000000
,
00001000
00100000
00001000
00000000
00010000
00000010
00010000
00000000
,
00001000
01000000
00001000
00000000
00010000
00001000
00010000
00000000
,
00001000
00010000
00001000
00001000
00000000
00000000
00000000
00000000
,
00010000
00000100
00010000
00000100
,
00010000
00000000
00000010
00000000
,
00001000
00000000
00000100
00000000
,
00000010
00000001
00000100
00000000
,
00001000
01000000
00001000
01000000
,
00001000
00000000
00100000
00000000
,
00010000
00000000
01000000
00000000
,
00100000
10000000
01000000
00000000
,
00010000
00000010
00010000
00000010
,
00010000
00000000
00000100
00000000
,
00001000
00000000
00000010
00000000
,
00000100
00000001
00000010
00000000
,
00001000
00100000
00001000
00100000
,
00001000
00000000
01000000
00000000
,
00010000
00000000
00100000
00000000
,
01000000
10000000
00200000
00300000
,
01000000
00000000
00001000
00000000
,
00010000
00000000
00000100
00000000
,
00001000
00000000
00000010
00000000
,
00010000
00000000
00001000
00000000
,
00100000
00000000
01000000
00000000
,
00010000
00000000
00001000
00000000
,
00000010
00000000
00000100
00000000
,
00010000
00000000
00001000
00000000
,
00100000
00000000
01000000
00000000
,
10000000
00000000
00100000
00000000
,
00010000
00000000
00001000
00000000
,
00000100
00000000
00000001
00000000
,
00000010
00000100
00000010
00000100
,
00010000
00001000
00010000
00001000
,
00022000
00000000
00000000
00000000
,
00000000
00000000
00033000
00000000
,
00001000
00010000
00100000
10000000
,
00010000
00100000
01000000
00010000
,
00001000
00000010
00000001
00001000
,
00000010
00000100
00001000
00011000
,
00000000
01000000
00000000
00011000
,
00000000
00000100
00000000
00011000
,
00000000
00100000
00000000
00011000
,
00000000
00000010
00000000
00000100
,
00000001
00000100
00000001
00000010
,
00001000
00000010
00001000
00010000
,
00000000
00001000
00000000
00000000
00010000
00000000
00000000
00000000
,
01000000
01000000
00000000
20020000
,
00000000
00000000
00000000
00000000
,
00000000
00000000
00000000
30030000
;

//---------------dance-single - ----------------
#NOTES:
     dance-single:
     :
     Medium:
     13:
     0.469711,0.694781,0.203542,0.203542,0.168313,420.000000,394.000000,26.000000,26.000000,0.000000,0.000000,0.469711,0.694781,0.203542,0.203542,0.168313,420.000000,394.000000,26.000000,26.000000,0.000000,0.000000:
0000
0000
0000
0000
,
0000
0000
0000
0000
,
0000
0000
0000
0000
0000
0000
0000
0000
1000
0010
0100
0001
0000
1000
0000
0000
,
1001
0000
0100
0000
0010
0100
0010
0000
0220
0000
0000
0000
0000
0000
0000
0000
,
0000
0000
0000
0000
,
0330
1001
0002
0103
,
0001
0000
1000
0000
0010
0000
0000
0000
1000
0000
0000
0100
0000
0000
0010
0000
,
0001
0100
0001
0000
2000
0000
3010
0000
,
1000
0000
0001
0000
0100
0000
0000
0000
0001
0000
0000
0010
0000
0000
0100
0000
,
1000
0010
1000
0000
0002
0000
0013
0000
,
0001
0000
0010
0000
0100
0000
0000
0000
1000
0000
0000
0010
0000
0000
0100
0000
,
0001
0100
0010
0000
2000
0000
3100
0000
,
1000
0000
0100
0000
0010
0000
0000
0000
0001
0000
0000
0100
0000
0000
0010
0000
,
1000
0010
0100
0000
0102
0000
0013
0000
,
0010
0000
0100
0000
1000
0000
0000
0000
0010
0000
0000
0001
0000
0000
0100
0000
,
1000
0010
1000
0000
1020
0000
0130
0000
,
0100
0000
0001
0000
1000
0000
0000
0000
0100
0000
0000
0001
0000
0000
0010
0000
,
1000
0010
0100
0000
0120
0000
1030
0000
,
1000
0000
0100
0000
0010
0000
0000
0000
0001
0000
0000
0100
0000
0000
1000
0000
,
0010
1000
0001
0000
0021
0000
0130
0000
,
0000
0000
0000
0000
1100
0000
0000
0000
1000
0000
0000
0010
0000
0000
0001
0000
,
0100
0000
0010
0000
0100
0000
0000
0000
1001
0000
1000
0010
0000
0100
0001
0000
,
0010
0100
0010
0100
0000
1000
0001
0000
0200
0000
0000
0320
0000
0000
0000
0000
,
0000
1030
0000
1000
0001
0000
0010
0000
0100
0000
1000
0100
0000
0010
0001
0000
,
0100
0010
0100
0010
0000
1000
0001
0000
0020
0000
0000
0230
0000
0000
0000
0000
,
1300
0000
0000
1000
0000
0000
1000
0000
0010
0000
0000
0000
0110
0000
0000
0000
0100
0000
0000
0000
0001
0000
0000
0000
0010
0000
0000
0000
0001
0000
0000
0000
,
0100
0000
1000
0000
0100
0001
0010
0100
,
0001
0000
0110
0000
0100
1000
0010
1000
,
0100
0000
0001
0000
0100
1000
0010
0100
,
1000
0110
0001
0010
,
0100
0010
0001
0010
,
0010
0000
1000
0100
,
0010
0100
1000
0100
,
0100
0000
0001
0010
,
0100
1000
0010
0100
,
0001
1000
0100
0010
,
0001
0100
0220
0000
,
0000
0330
2002
0000
,
0000
0000
0000
0000
,
0000
0000
3003
0000
0001
0100
0010
1000
,
0001
0000
0010
0000
0100
0000
0000
1000
0010
0000
0000
0100
0001
0000
0010
0000
,
1000
0000
0010
0000
0001
0100
0000
0100
0001
0000
1000
0000
0100
0000
0010
0000
,
0001
0100
0010
0220
0330
0000
1001
0000
,
1000
0010
1000
0100
,
1000
0010
1000
0000
,
0001
0100
0001
0010
,
0001
0100
0001
0000
,
1000
0010
0001
0010
,
1000
0010
0001
0000
,
1000
0100
0001
0100
,
1000
0100
0001
0000
,
0010
0100
1000
0010
,
0100
0001
1000
0000
,
0100
0010
0001
0100
,
0010
1000
0001
0000
,
0010
0100
0001
0100
,
1000
0100
0010
0000
,
0100
0010
1000
0010
,
0001
0010
2002
3003
,
1000
0010
0100
1000
,
0100
0010
1000
0100
,
0010
0100
1000
0010
,
0100
0000
1000
0000
0100
0001
0100
0000
,
0001
0010
0100
0001
,
0100
0010
0001
0100
,
0010
0100
0001
0010
,
0100
0000
0001
0000
0100
1000
0100
0000
,
1000
0000
0010
0000
0100
0010
0100
0000
,
0001
0000
0100
0000
0010
0100
0010
0000
,
1000
0000
0100
0000
0010
0100
0010
0000
,
0001
0000
0010
0000
0100
0010
0100
0000
,
1000
0010
0000
0010
0000
0100
0000
0100
,
0000
0001
0000
0001
0000
1000
0000
2002
,
0000
0000
0000
0000
,
0000
0000
3003
0110
,
0010
0000
0100
0001
0000
0000
0010
0000
0100
1000
0000
0000
,
0001
0000
0100
0010
0000
0010
1000
0000
1000
0100
0000
0000
,
0010
0000
0001
0100
0000
0100
0010
0000
0010
1000
0000
0000
,
0100
0000
0010
0001
0000
0001
1000
0000
1000
0010
0000
0000
,
0100
0001
0100
1000
,
0100
0000
0001
0010
0100
0000
1100
0000
,
0010
1000
0010
0001
,
0010
0000
1000
0100
0010
0000
0011
0000
,
1000
0000
0001
0100
0010
0000
1010
0000
,
0001
0000
1000
0010
0100
0000
0101
0000
,
0000
0011
0000
0000
1100
0000
0000
1000
,
0001
0000
0100
0001
0010
0000
0220
0000
,
0000
0000
0000
0000
,
0000
0000
0000
0330
;

//---------------dance-double - ----------------
#NOTES:
     dance-double:
     :
     Medium:
     12:
     0.450699,0.694781,0.227027,0.125256,0.144828,403.000000,374.000000,29.000000,16.000000,0.000000,0.000000,0.450699,0.694781,0.227027,0.125256,0.144828,403.000000,374.000000,29.000000,16.000000,0.000000,0.000000:
00000000
00000000
00000000
00000000
,
00000000
00000000
00000000
00000000
,
00000000
00000000
00000000
00000000
00000000
00000000
00000000
00000000
01000000
00001000
00010000
00001000
00000000
00010000
00000000
00000000
,
00011000
00000000
00000000
00000000
00000100
00010000
00001000
00000000
00022000
00000000
00000000
00000000
00000000
00000000
00000000
00000000
,
00000000
00000000
00000000
00000000
,
00033000
00011000
00010000
01000000
,
10000000
00000000
00100000
00000000
01000000
00000000
00000000
00000000
10000000
00000000
00000000
01000000
00000000
00000000
00010000
00000000
,
00100000
01000000
00010000
00000000
00001000
00000000
00000100
00000000
,
00000001
00000000
00000010
00000000
00000100
00000000
00000000
00000000
00000001
00000000
00000000
00000100
00000000
00000000
00001000
00000000
,
00000010
00000100
00001000
00000000
00010000
00000000
00100000
00000000
,
10000000
00000000
01000000
00000000
00100000
00000000
00000000
00000000
10000000
00000000
00000000
00100000
00000000
00000000
00010000
00000000
,
01000000
00100000
00010000
00000000
00001000
00000000
00000010
00000000
,
00000001
00000000
00000100
00000000
00000010
00000000
00000000
00000000
00000001
00000000
00000000
00000010
00000000
00000000
00001000
00000000
,
00000100
00000010
00001000
00000000
00011000
00000000
00100000
00000000
,
00010000
00000000
01000000
00000000
10000000
00000000
00000000
00000000
00010000
00000000
00000000
00100000
00000000
00000000
01000000
00000000
,
00010000
00100000
00001000
00000000
00011000
00000000
00000100
00000000
,
00001000
00000000
00000010
00000000
00000001
00000000
00000000
00000000
00001000
00000000
00000000
00000100
00000000
00000000
00000010
00000000
,
00001000
00000100
00010000
00000000
00011000
00000000
01000000
00000000
,
00010000
00000000
00100000
00000000
10000000
00000000
00000000
00000000
00100000
00000000
00000000
01000000
00000000
00000000
00010000
00000000
,
00000100
00000010
00001000
00000000
00011000
00000000
00000010
00000000
,
00000000
00000000
00000000
00000000
00000101
00000000
00000000
00000000
00000001
00000000
00000000
00000010
00000000
00000000
00001000
00000000
,
00010000
00000000
01000000
00000000
10000000
00000000
00000000
00000000
10010000
00000000
10000000
00100000
00000000
01000000
00010000
00000000
,
00001000
00000100
00000000
00000010
00000001
00000000
00000100
00000000
00000020
00000000
00000000
00002030
00000000
00000000
00000000
00000000
,
00000000
00003001
00000000
00000001
00000100
00000000
00000010
00000000
00000110
00000000
00000001
00000100
00000000
00000010
00001000
00000000
,
00010000
00100000
00000000
01000000
10000000
00000000
00100000
00000000
02000000
00000000
00000000
03020000
00000000
00000000
00000000
00000000
,
10030000
00000000
00000000
10000000
00000000
00000000
10000000
00000000
00100000
00000000
00000000
00000000
00010000
00000000
00000000
00000000
00011000
00000000
00000000
00000000
00001000
00000000
00000000
00000000
00000100
00000000
00000000
00000000
00000001
00000000
00000000
00000000
,
00000010
00000000
00000100
00000000
00000010
00000000
00000001
00000100
,
00001000
00010000
00001000
00000000
00011000
00010000
01000000
10000000
,
00100000
00000000
01000000
00000000
00100000
00000000
10000000
01000000
,
00010000
00001000
00010000
00000000
00001000
00000000
00100000
00000000
,
00001000
00000000
00010000
00000010
,
00010000
00000000
00001000
01000000
,
00001000
00000000
00010000
00000100
,
00010000
00000000
00001000
00100000
,
00010000
01000000
00001000
00010000
,
00000100
00001000
00000010
00010000
,
00001000
00010000
00022000
00000000
,
00000000
00033000
00022000
00000000
,
00000000
00000000
00000000
00000000
,
00000000
00000000
00033000
00000000
00010000
00001000
00100000
00010000
,
01000000
00100000
10000000
00010000
01000000
00001000
00010000
00000010
,
00001000
00000001
00000100
00000010
00001000
00000100
00010000
00001000
,
00100000
01000000
10000000
20020000
30030000
00000000
10010000
00000000
,
00010000
01000000
00001000
00010000
,
00001000
01000000
00010000
00000000
,
10000000
00000000
01000000
00000000
,
00010000
00001000
00000100
00001001
,
00001000
00000010
00010000
00001000
,
00010000
00000010
00001000
00000000
,
00000001
00000000
00000010
00000000
,
00001000
00010000
00100000
10010000
,
10000000
01000000
00100000
01000000
,
00010000
00001000
00010000
00000000
,
00000100
00000000
00000010
00000000
,
00000001
00000100
00001000
00000110
,
00000001
00000010
00000100
00000010
,
00001000
00010000
00001000
00000000
,
00100000
00000000
01000000
00000000
,
10000000
00100000
00010000
01100000
,
10000000
01000000
10000000
01000000
,
00010000
01000000
00010000
01000000
,
10000000
01000000
00010000
01000000
,
10000000
01000000
00010000
00001000
,
00000100
00000001
00000100
00000001
,
00000100
00001000
00000100
00001000
,
00000100
00000001
00000100
00001000
,
00000100
00000001
00000100
00001000
,
00010000
00100000
10000000
01000000
,
10000000
00100000
00010000
00001000
,
00000010
00000001
00000100
00000001
,
00000010
00000000
00001000
00000000
00010000
00001000
00010000
00000000
,
00001000
00010000
00000000
00000100
00000000
00001000
00000000
00000010
,
00000000
00010000
00000000
00001000
00000000
01000000
00000000
02200000
,
00000000
00000000
00000000
00000000
,
00000000
00000000
03300000
10010000
,
10000000
00000000
01000000
00010000
00000000
00000000
00001000
00000000
00010000
00001000
00000000
00000000
,
00000100
00000000
00000001
00000010
00000000
00000010
00000100
00000000
00000100
00001000
00000000
00000000
,
00010000
00000000
00010000
01000000
00000000
01000000
00100000
00000000
00100000
10000000
00000000
00000000
,
01000000
00000000
00100000
00010000
00000000
00010000
00001000
00000000
00001000
00000010
00000000
00000000
,
00000100
00000001
00000100
00000010
,
00000100
00000001
00000100
00011000
,
00100000
10000000
00100000
01000000
,
00100000
10000000
00100000
00011000
,
00000100
00000001
00000010
00011000
,
00100000
10000000
01000000
00011000
,
00000000
00011000
00000000
00000000
00011000
00000000
00000000
00001000
,
00000100
00000001
00000010
00022000
,
00000000
00000000
00000000
00000000
,
00000000
00000000
00000000
00033000
;

//---------------dance-single - ----------------
#NOTES:
     dance-single:
     :
     Hard:
     15:
     0.664306,1.007433,0.399255,0.219199,0.332712,594.000000,543.000000,51.000000,28.000000,0.000000,0.000000,0.664306,1.007433,0.399255,0.219199,0.332712,594.000000,543.000000,51.000000,28.000000,0.000000,0.000000:
0000
0000
0000
0000
,
0000
0000
0000
0000
,
0000
0000
0000
0000
0000
0000
0000
0000
0000
0000
0000
0000
0000
0000
0000
0000
0100
0000
0000
0100
0000
0000
0100
0000
0000
0000
1001
0000
1000
0000
0000
0000
,
0010
0000
0100
0000
0001
0000
1000
0000
0100
0000
0000
0000
0010
0100
0000
0000
0220
0000
0000
0000
0000
0000
0000
0000
0000
0000
0000
0000
0000
0000
0000
0000
,
0000
0000
0000
0000
,
0330
0000
1001
0000
0002
0100
0103
0001
,
0010
0000
0100
0000
1100
0000
0000
0000
1010
0000
0000
0110
0000
0000
0100
0000
,
0001
0000
1000
0000
0010
0100
0010
0000
2000
0000
0100
0000
3100
0000
1000
0000
,
0010
0000
0100
0000
0101
0000
0000
0000
0011
0000
0000
0110
0000
0000
0100
0000
,
1000
0000
0001
0000
0010
0100
0010
0000
0002
0000
1000
0000
1003
0000
0100
0000
,
0010
0000
0001
0000
0101
0000
0000
0000
1010
0000
0000
1100
0000
0000
0001
0000
,
0010
0000
0100
0000
0010
0001
0010
0100
2000
0000
0001
0000
3001
0000
0100
0000
,
0010
0000
1000
0000
1100
0000
0000
0000
0011
0000
0000
0101
0000
0000
1000
0000
,
0010
0000
0100
0000
0010
1000
0010
0100
0002
0000
0010
0000
0013
0000
0100
0000
,
1000
0000
0010
0000
0101
0000
0000
0000
1100
0000
0000
0010
0001
0000
0100
0000
,
0010
0000
1000
0100
1000
0001
0010
0000
0200
0000
1000
0000
1300
0000
0010
0000
,
0100
0000
0001
0000
1010
0000
0000
0000
0011
0000
0000
1000
0100
0000
1000
0000
,
0010
0000
0100
0001
0100
0010
1000
0000
0020
0000
0100
0000
0130
0000
0001
0000
,
0010
0000
0100
0000
1100
0000
0000
0000
0101
0000
0000
0010
1000
0000
0001
0000
,
0010
0000
0100
1000
0010
1000
0001
0000
0200
0000
0010
0000
0310
0000
0000
0000
,
0010
0000
0000
0100
0010
0000
0000
0000
1010
0000
0000
0101
0000
0000
1001
0000
,
0001
0010
0100
0000
2100
0000
0000
0000
3010
0100
0001
0010
0000
0001
0100
0010
,
0000
0000
0100
0000
0001
0000
0010
0000
0000
0000
0001
0000
0011
0000
0000
0000
2100
0000
0000
0000
0000
0000
3001
0000
0000
0000
0001
0100
0020
0000
0000
0000
,
0000
0000
1030
0000
0000
1000
0000
0000
1000
0000
0100
0000
0010
0001
0010
0000
0100
0000
1000
0000
0010
0000
0100
0000
0000
0000
0010
0000
1000
0000
0100
0000
,
0000
0000
1000
0000
0010
0000
0100
0000
0000
0000
0010
0000
1010
0000
0000
0000
1200
0000
0000
0000
0000
0000
0310
0000
0000
0000
0000
0000
0010
0001
0010
0000
,
0001
0000
0000
1000
0000
0000
0100
0000
0010
0000
0100
0000
0110
0000
0000
0000
0001
0000
0100
0000
0001
0000
0000
0000
0100
0000
0001
0000
0100
0000
0000
0000
,
0001
0010
0011
0000
0001
0100
1000
0100
,
0001
0000
0010
0000
0110
0000
0000
0000
1000
0100
1000
0000
0100
1000
0100
0000
,
1000
0010
1010
0000
1000
0100
0001
0100
,
1000
0010
0110
0000
0100
0001
0100
0000
,
0001
0010
0001
0000
0100
0001
0100
0000
,
0200
0000
0300
0000
0010
1000
0010
0000
,
1000
0100
1000
0000
0010
1000
0010
0000
,
0020
0000
0030
0000
0100
0001
0100
0000
,
0100
1000
0100
0000
0010
1000
0010
0000
,
0010
0001
0010
0000
0100
0010
0100
0000
,
0001
1000
0001
2000
0002
0000
0000
0000
,
0000
3003
0220
0000
,
0000
0000
0000
0000
,
0000
0000
0000
0000
0330
0000
0000
0000
1000
0000
0010
0000
0001
0000
0010
0100
,
0010
0000
1000
0000
0100
0010
0000
0001
0100
0001
0000
1000
0010
0000
0001
0000
,
0010
0000
0100
0000
0010
1000
0010
1000
0100
0000
0010
0000
0001
0000
0100
0000
,
0010
0000
0000
1000
0000
0000
0001
0000
0000
1001
0000
0000
1000
0000
0001
0000
1000
0000
0002
0000
0000
0000
0000
0000
,
0103
0010
0100
0000
0100
0001
0100
0000
,
0100
1000
0100
0000
0010
0000
1000
0000
,
0010
0100
0010
0000
0010
1000
0010
0000
,
0010
0001
0010
0000
0100
0000
0001
0000
,
1000
0100
1000
0000
1000
0001
1000
0000
,
1000
0010
1000
0000
0100
0000
0010
0000
,
0001
0100
0001
0000
0001
1000
0001
0000
,
0001
0010
0001
0010
0200
0000
0000
0000
,
1300
0010
0100
0000
1000
0000
0100
0000
,
0001
0100
0010
0000
0001
0000
0010
0000
,
1000
0100
0010
0000
1000
0000
0010
0000
,
0001
0010
0100
0000
1000
0000
0010
0000
,
0001
0010
1000
0000
0100
0000
0010
0000
,
1000
0010
0001
0000
0100
0000
0010
0000
,
0001
0010
1000
0000
1000
0100
0001
0000
,
0100
0010
0100
0010
0002
0000
0000
0000
,
1003
0010
0100
0000
0010
1000
0100
0000
,
1000
0010
0100
0000
0010
0000
0110
0000
,
0001
0010
0100
0000
0010
0001
0100
0000
,
0001
0010
0100
0000
0010
0000
0110
0000
,
1000
0010
0100
0000
0001
0010
0100
0000
,
1000
0010
0100
0000
0001
0000
1010
0000
,
0001
0010
0100
0000
1000
0010
0100
0000
,
0001
0010
0100
0000
1000
0000
0011
0000
,
1000
0010
0100
0010
1000
0000
0001
0010
,
0100
0010
0001
0000
1000
0100
0001
0100
,
1000
0000
0001
0010
1000
0010
0001
0000
,
0100
0010
0100
0001
1000
0001
0100
0000
,
0010
1000
0000
1000
0000
0100
0000
0100
,
0000
0001
0000
0010
0100
0010
0100
0010
,
2002
0000
0000
0000
,
0000
3003
1001
0110
,
1010
0000
0100
0001
0000
0010
0001
0010
0100
0010
0000
0000
,
0011
0000
0100
1000
0000
0010
1000
0010
0100
0010
0000
0000
,
1001
0000
1000
0010
0000
0100
0001
1000
0100
0010
0000
0000
,
0110
0000
0000
0000
0100
0000
1000
0000
0000
0000
0010
0000
0100
0000
0001
0000
1000
0000
0100
0000
0000
0010
0000
0000
,
0100
0000
0100
1000
0100
0000
0100
0001
,
0100
0000
0010
0100
0010
0000
0010
0001
,
0010
0000
0010
1000
0010
0000
0010
0001
,
0100
0000
0100
1000
0010
0000
0100
0001
,
0100
0001
0100
0001
0100
0001
1000
0010
,
1000
0010
1000
0010
1000
0000
1100
0000
,
0000
0101
0000
0000
0021
0000
0000
0130
,
1000
0000
1000
0100
0010
0001
2002
0000
,
0000
0000
0000
0000
,
0000
0000
0000
3003
;

//---------------dance-double - ----------------
#NOTES:
     dance-double:
     :
     Hard:
     15:
     0.640821,1.007433,0.375769,0.140913,0.301398,573.000000,525.000000,48.000000,18.000000,0.000000,0.000000,0.640821,1.007433,0.375769,0.140913,0.301398,573.000000,525.000000,48.000000,18.000000,0.000000,0.000000:
00000000
00000000
00000000
00000000
,
00000000
00000000
00000000
00000000
,
00000000
00000000
00000000
00000000
00000000
00000000
00000000
00000000
00000000
00000000
00000000
00000000
00000000
00000000
00000000
00000000
00001000
00000000
00000000
00001000
00000000
00000000
00001000
00000000
00000000
00000000
00011000
00000000
00100000
00000000
00000000
00000000
,
00000000
00000000
00001000
00000000
00010000
00000000
00000010
00000000
00010000
00000000
00000000
00000000
00001000
00010000
00000000
00000000
00022000
00000000
00000000
00000000
00000000
00000000
00000000
00000000
00000000
00000000
00000000
00000000
00000000
00000000
00000000
00000000
,
00000000
00000000
00000000
00000000
,
00033000
00000000
00011000
00000000
00010000
01000000
10000000
00010000
,
00100000
00000000
01000000
00000000
00010000
00000000
00000000
00000000
00011000
00000000
00000000
00001100
00000000
00000000
00000100
00000000
,
00000001
00000000
00000010
00000000
00000100
00000010
00000100
00000000
00001000
00000000
00000010
00000000
00000001
00000000
00001000
00000000
,
00000100
00000000
00000010
00000000
00001000
00000000
00000000
00000000
00011000
00000000
00000000
00110000
00000000
00000000
00100000
00000000
,
10000000
00000000
01000000
00000000
00100000
01000000
00100000
00000000
00010000
00000000
10000000
00000000
00100000
00000000
00010000
00000000
,
00001000
00000000
00100000
00000000
01100000
00000000
00000000
00000000
11000000
00000000
00000000
10100000
00000000
00000000
00010000
00000000
,
00001000
00000000
00000010
00000000
00000100
00000010
00000100
00000000
00001000
00000000
00000001
00000000
00000100
00000000
00001000
00000000
,
00010000
00000000
00000100
00000000
00000110
00000000
00000000
00000000
00000011
00000000
00000000
00000101
00000000
00000000
00001000
00000000
,
00010000
00000000
01000000
00000000
00100000
01000000
00100000
00000000
01000000
00000000
10000000
00000000
00100000
00000000
00010000
00000000
,
00001000
00000000
00000010
00000000
00000101
00000000
00000000
00000000
00001100
00000000
00000000
00000001
00000010
00000000
00001000
00000000
,
00010000
00000000
00000100
00000010
00000100
00000010
00001000
00000000
00000100
00000000
00000001
00000000
00000010
00000000
00001000
00000000
,
00010000
00000000
00100000
00000000
11000000
00000000
00000000
00000000
01010000
00000000
00000000
10000000
00100000
00000000
00010000
00000000
,
00001000
00000000
01000000
00100000
01000000
00100000
00010000
00000000
00100000
00000000
10000000
00000000
01000000
00000000
00010000
00000000
,
00001000
00000000
00000010
00000000
00000110
00000000
00000000
00000000
00001001
00000000
00000000
00000010
00010000
00000000
00001000
00000000
,
00100000
00000000
01000000
00100000
01000000
00100000
10000000
00000000
00100000
00000000
00010000
00000000
10010000
00000000
00000000
00000000
,
01100000
00000000
00000000
10000000
01000000
00000000
00000000
00000000
00110000
00000000
00000000
00011000
00000000
00000000
00001010
00000000
,
00000010
00000100
00000001
00000000
00002000
00000000
00000000
00000000
00003001
00000100
00000010
00001000
00000000
00000100
00010000
00001000
,
00000000
00000000
00100000
00000000
00010000
00000000
01000000
00000000
00000000
00000000
00100000
00000000
10100000
00000000
00000000
00000000
12000000
00000000
00000000
00000000
00000000
00000000
03010000
00000000
00000000
00000000
00010000
00001000
00020000
00000000
00000000
00000000
,
00000000
00000000
00030100
00000000
00000000
00000100
00000000
00000000
00000100
00000000
00000010
00000000
00000001
00000100
00000001
00000000
00000100
00000000
00001000
00000000
00010000
00000000
00000100
00000000
00000000
00000000
00010000
00000000
00001000
00000000
01000000
00000000
,
00000000
00000000
00001000
00000000
00010000
00000000
00100000
00000000
00000000
00000000
10000000
00000000
11000000
00000000
00000000
00000000
01020000
00000000
00000000
00000000
00000000
00000000
00031000
00000000
00000000
00000000
00000000
00000000
00001000
00010000
00001000
00000000
,
00000100
00000000
00000000
00000001
00000000
00000000
00000010
00000000
00000100
00000000
00000010
00000000
00000110
00000000
00000000
00000000
00000001
00000000
00000100
00000000
00001000
00000000
00000000
00000000
00010000
00000000
00000000
00000000
00001000
00000000
00000000
00000000
,
00010000
00100000
10100000
00000000
10000000
01000000
00100000
01000000
,
00010000
00000000
00001000
00000000
00010000
00000000
01000000
00000000
10000000
00100000
00010000
00000000
00001000
00000000
00010000
00000000
,
00001000
00000100
00000101
00000000
00000001
00000010
00000100
00000010
,
00001000
00010000
00001000
00000010
00000001
00000100
00000001
00000000
,
00000001
00000010
00000001
00000000
00000100
00000000
00001000
00000000
,
00010000
00000000
00100000
00000000
10000000
01000000
10000000
00000000
,
10000000
00100000
10000000
00000000
01000000
00000000
00010000
00000000
,
00001000
00000000
00000010
00000000
00000001
00001000
00000010
00000000
,
00010000
00000000
00001000
00000000
00100000
00010000
10000000
00000000
,
00100000
00000000
01000000
00000000
00001000
00010000
00000100
00000000
,
00001000
00000000
00000010
00002000
00000002
00000000
00000000
00000000
,
00000000
00003003
00000220
00000000
,
00000000
00000000
00000000
00000000
,
00000000
00000000
00000000
00000000
00000330
00000000
00000000
00000000
00000001
00000000
00000100
00000000
00001000
00000000
00010000
00001000
,
00010000
00000000
00100000
00000000
10000000
01000000
00000000
00100000
01000000
00100000
00000000
00010000
01000000
00000000
00001000
00000000
,
00010000
00000000
00000100
00000000
00000010
00000100
00000010
00000100
00000010
00000000
00000001
00000000
00000100
00000000
00001000
00000000
,
00010000
00000000
00000000
01000000
00000000
00000000
10000000
00000000
00000000
10010000
00000000
00000000
00010000
00000000
01000000
00000000
00010000
00000000
02000000
00000000
00000000
00000000
00000000
00000000
,
03001000
00010000
00001000
00000000
00010000
00001000
00010000
00000000
,
00001000
00010000
00001000
00000000
00000100
00000000
00000001
00000000
,
00000010
00000100
00000010
00000000
00000100
00000010
00000100
00000000
,
00000010
00000100
00000010
00000000
00001000
00000000
00010000
00000000
,
01000000
00100000
01000000
00000000
00100000
01000000
00100000
00000000
,
01000000
00100000
01000000
00000000
10000000
00000000
00100000
00000000
,
00010000
00001000
00010000
00000000
00001000
00010000
00001000
00000000
,
00010000
00001000
00010000
00001000
00020000
00000000
00000000
00000000
,
00030100
00001000
00000010
00000000
00000100
00000000
00000001
00000000
,
00001000
00000100
00010000
00000000
00001000
00000000
00100000
00000000
,
00010000
01000000
00100000
00000000
10000000
00000000
00010000
00000000
,
00100000
01000000
10000000
00000000
00100000
00000000
00010000
00000000
,
00001000
00010000
00000100
00000000
00001000
00000000
00000010
00000000
,
00000100
00000001
00000010
00000000
00001000
00000000
00010000
00000000
,
01000000
10000000
00100000
00000000
01000000
00010000
00100000
00000000
,
00001000
00010000
00001000
00010000
00002000
00000000
00000000
00000000
,
00103000
00010000
01000000
00000000
00100000
10000000
01000000
00000000
,
00100000
00010000
01000000
00000000
00001000
00000000
00011000
00000000
,
00000100
00001000
00000010
00000000
00000100
00000001
00000010
00000000
,
00000100
00001000
00000010
00000000
00010000
00000000
00011000
00000000
,
00001000
00010000
00100000
00000000
00010000
00100000
01000000
00000000
,
00100000
10000000
01000000
00000000
00100000
00000000
00011000
00000000
,
00010000
00001000
00000010
00000000
00001000
00000010
00000100
00000000
,
00000010
00000001
00000100
00000000
00000010
00000000
00011000
00000000
,
00010000
00100000
01000000
00100000
00010000
00000000
00001000
00000100
,
00000010
00000100
00001000
00000000
00010000
01000000
00100000
01000000
,
00010000
00000000
00001000
00000010
00000100
00000010
00001000
00000000
,
00010000
00001000
00010000
00001000
00100000
01000000
00100000
00000000
,
01000000
10000000
00000000
10000000
00000000
00100000
00000000
00100000
,
00000000
00010000
00000000
00001000
00010000
00001000
00010000
00000000
,
00022000
00000000
00000000
00000000
,
00000000
00033000
00011000
00000110
,
00001001
00000000
00000001
00000000
00000100
00000000
00001000
00000000
00010000
00001000
00000000
00000000
,
00101000
00000000
00100000
00000000
01000000
00000000
10000000
00000000
00100000
01000000
00000000
00000000
,
01010000
00000000
00010000
00000000
00100000
00000000
01000000
00000000
00010000
00001000
00000000
00000000
,
00011000
00000000
00000000
00000000
00001000
00000000
00000000
00000000
00000100
00000000
00000000
00000000
00000001
00000000
00000000
00000000
00000010
00000000
00000100
00000000
00000000
00001000
00000000
00000000
,
00000100
00000000
00001000
00000100
00010000
00000000
00001000
00010000
,
00001000
00000000
00010000
00001000
00100000
00000000
00010000
00100000
,
00010000
00000000
00100000
00010000
01000000
00000000
00100000
01000000
,
00100000
00000000
10000000
01000000
00100000
00000000
01000000
00010000
,
00001000
00000000
00010000
00001000
00000100
00000000
00000001
00000010
,
00000100
00000000
00000010
00001000
00010000
00000000
00010010
00000000
,
00000000
00101000
00000000
00000000
00021000
00000000
00000000
00030100
,
00000010
00000000
00000001
00000100
00001000
00010000
00022000
00000000
,
00000000
00000000
00000000
00000000
,
00000000
00000000
00000000
00033000
;

//---------------dance-double - ----------------
#NOTES:
     dance-double:
     :
     Challenge:
     17:
     0.814166,1.250607,0.501026,0.250513,0.653682,728.000000,664.000000,64.000000,32.000000,0.000000,0.000000,0.814166,1.250607,0.501026,0.250513,0.653682,728.000000,664.000000,64.000000,32.000000,0.000000,0.000000:
// measure 0
00000000
00000000
00000000
00000000
,  // measure 1
00000000
00000000
00000000
00000000
,  // measure 2
00000000
00000000
00000000
00000000
00000000
00000000
00000000
00000000
00000000
00000000
00000000
00000000
00000000
00000000
00000000
00000000
00001000
00010000
00000000
00001000
00100000
00000000
00001000
00010000
00000000
00000000
00000100
00001000
00000100
00000000
00000000
00000000
,  // measure 3
00000110
00000000
00000000
00000000
00000001
00000100
00000001
00000100
00000001
00000000
00000000
00000000
00000100
00001000
00010000
00000000
00022000
00000000
00000000
00000000
00000000
00000000
00000000
00000000
00000000
00000000
00000000
00000000
00000000
00000000
00000000
00000000
,  // measure 4
00000000
00000000
00000000
00000000
00000000
00000000
00000000
00000000
00000000
00033000
00000000
00000000
00001000
00000000
00010000
00000000
00001000
00000000
00100000
00000000
00010000
00000000
01000000
00000000
,  // measure 5
00100000
00000000
10000000
00000000
00100000
00000000
10000000
00000000
00100000
00000000
10000000
00000000
00020000
00000000
00000000
00000000
00000000
00000000
00000000
00000000
00000000
00000000
00000000
00000000
01030000
00000000
00000000
00100000
00000000
00000000
01000000
00000000
00000000
00100000
00000000
00000000
01000000
00000000
00000000
00000000
00000000
00000000
00001000
00000000
00000000
00000000
00000000
00000000
,  // measure 6
00010000
00000000
00000100
00000000
00001100
00000000
00000000
00000000
00000011
00000000
00000001
00000100
00000000
00000001
00000010
00000000
,  // measure 7
00000001
00000000
00000000
00000000
00000000
00000000
00000100
00000000
00000000
00000000
00000000
00000000
00001000
00000000
00010000
00000000
00001000
00000000
00010000
00000000
00000000
00000000
00000000
00000000
00001000
00000000
00000000
00100000
00000000
00000000
00001000
00000000
00000000
00100000
00000000
00000000
00010000
00000000
00000000
00000000
00000000
00000000
01000000
00000000
00000000
00000000
00000000
00000000
,  // measure 8
00100000
00000000
20000000
00000000
01000000
00000000
30000000
00000000
10010000
00000000
00010000
01000000
00000000
00001000
00010000
00000000
,  // measure 9
00011000
00000000
00000100
00000000
00001000
00000100
00000000
00000010
00000100
00000010
00000000
00000001
00000200
00000000
00000010
00000000
,  // measure 10
00000300
00000000
00000110
00000000
00001001
00000000
00000000
00000000
00001000
00000010
00000000
00010000
00001000
00000000
00100000
00000000
,  // measure 11
01100000
00000000
00000000
00000000
00000000
00000000
01000000
00000000
00000000
00000000
00000000
00000000
10000000
00000000
00100000
00000000
10000000
00000000
00100000
00000000
00000000
00000000
00000000
00000000
01000000
00000000
00000000
00010000
00000000
00000000
01000000
00000000
00000000
00010000
00000000
00000000
00100000
00000000
00000000
00000000
00000000
00000000
01000000
00000000
00000000
00000000
00000000
00000000
,  // measure 12
00010000
00000000
00002000
00000000
00010000
00000000
00003000
00000000
00011000
00000000
00010000
00000100
00000000
00001000
00000100
00000000
,  // measure 13
00000010
00000001
00000010
00000001
00000010
00000001
00000200
00000000
00001300
00010000
00001000
01000000
00010000
00000000
00100000
00000000
,  // measure 14
01000000
00000000
10000000
00000000
10100000
00000000
00000000
00000000
01010000
00000000
00010000
00100000
00000000
01000000
10000000
00000000
,  // measure 15
00100000
00000000
00000000
00000000
00000000
00000000
00010000
00000000
00000000
00000000
00000000
00000000
00001000
00000000
00010000
00000000
00001000
00000000
00010000
00000000
00000000
00000000
00000000
00000000
00000100
00000000
00000000
00001000
00000000
00000000
00000100
00000000
00000000
00000010
00000000
00000000
00000001
00000000
00000000
00000000
00000000
00000000
00000100
00000000
00000000
00000000
00000000
00000000
,  // measure 16
00000010
00000000
00020000
00000000
00001000
00000000
00030000
00000000
00011000
00000000
00001000
00100000
00000000
01000000
10000000
00000000
,  // measure 17
10100000
00000000
00100000
00000000
01000000
00001000
00000000
00010000
00001000
00010000
00000000
00000100
00001000
00000000
00000100
00000000
,  // measure 18
00000000
00000000
00001100
00000000
00000011
00000000
00000000
00000000
00000001
00000100
00000000
00001000
00010000
00000000
00001000
00000000
,  // measure 19
00011000
00000000
00000000
00000000
00000000
00000000
00100000
00000000
00000000
00000000
00000000
00000000
00010000
00000000
01000000
00000000
00010000
00000000
01000000
00000000
00000000
00000000
00000000
00000000
00100000
00000000
00000000
10000000
00000000
00000000
01000000
00000000
00000000
00100000
00000000
00000000
01000000
00000000
00000000
00000000
00000000
00000000
00000000
00000000
00000000
00000000
00000000
00000000
,  // measure 20
00010000
00000000
00002000
00000000
00020000
00000000
00033000
00000000
00011000
00000000
00000000
00001010
00000000
00000000
00000011
00000000
,  // measure 21
00000001
00000000
00000100
00000000
00000001
00000000
00000100
00000000
00000001
00000000
00000100
00000000
00000020
00000000
00000000
00000000
00000000
00000000
00000000
00000000
00000000
00000000
00000000
00000000
00001030
00000000
00000000
00000100
00000000
00000000
00000010
00000000
00000000
00000001
00000000
00000000
00001000
00000000
00000000
00000100
00000000
00000000
00000010
00000000
00000000
00001000
00000000
00000000
,  // measure 22
00010000
00000000
00000000
00000000
00000000
00000000
00000000
00000000
00000000
00000000
00000000
00000000
01000000
00000000
00000000
00000000
00000000
00000000
00000000
00000000
00000000
00000000
00000000
00000000
00100000
00000000
00000000
00000000
00000000
00000000
00000000
00000000
00000000
00000000
00000000
00000000
00010000
00000000
00000000
00000000
00000000
00000000
00000000
00000000
00000000
00000000
00000000
00000000
00000000
00000000
00000000
00000000
00000000
00000000
00000000
00000000
00000000
00000000
00000000
00000000
10000000
00000000
00000000
00000000
00000000
00000000
00000000
00000000
00000000
00000000
00000000
00000000
00100000
00000000
00000000
00000000
01000000
00000000
00000000
00000000
00100000
00000000
00000000
00000000
00000000
00000000
00000000
00000000
00000000
00000000
00000000
00000000
00000000
00000000
00000000
00000000
02100000
00000000
00000000
00000000
00000000
00000000
00000000
00000000
00000000
00000000
00000000
00000000
00000000
00000000
00000000
00000000
00000000
00000000
00000000
00000000
00000000
00000000
00000000
00000000
00000000
00000000
00000000
00000000
00000000
00000000
00000000
00000000
00000000
00000000
00000000
00000000
03002000
00000000
00000000
00000000
00000000
00000000
00000000
00000000
00000000
00000000
00000000
00000000
00000000
00000000
00000000
00000000
00000000
00000000
00000000
00000000
00000000
00000000
00000000
00000000
00013000
00000000
00000000
00000000
00000000
00000000
00000100
00000000
00000000
00000000
00000000
00000000
00002000
00000000
00000000
00000000
00000000
00000000
00000000
00000000
00000000
00000000
00000000
00000000
00000000
00000000
00000000
00000000
00000000
00000000
00000000
00000000
00000000
00000000
00000000
00000000
,  // measure 23
00000000
00000000
00000001
00000000
00000000
00000001
00000000
00000000
00003001
00000000
00000001
00000100
00000010
00001000
00000001
00000000
00000010
00000000
00000100
00000000
00001000
00000000
00000100
00000000
00010000
00000000
00001000
00000000
00100000
00000000
00010000
00000000
,  // measure 24
00100000
00000000
00000000
00000000
00000000
00000000
00000000
00000000
00000000
00000000
00000000
00000000
01000000
00000000
00000000
00000000
00000000
00000000
00000000
00000000
00000000
00000000
00000000
00000000
10000000
00000000
00000000
00000000
00000000
00000000
00000000
00000000
00000000
00000000
00000000
00000000
00100000
00000000
00000000
00000000
00000000
00000000
00000000
00000000
00000000
00000000
00000000
00000000
00000000
00000000
00000000
00000000
00000000
00000000
00000000
00000000
00000000
00000000
00000000
00000000
01000000
00000000
00000000
00000000
00000000
00000000
00000000
00000000
00000000
00000000
00000000
00000000
00001000
00000000
00000000
00000000
00010000
00000000
00000000
00000000
00001000
00000000
00000000
00000000
00000000
00000000
00000000
00000000
00000000
00000000
00000000
00000000
00000000
00000000
00000000
00000000
00201000
00000000
00000000
00000000
00000000
00000000
00000000
00000000
00000000
00000000
00000000
00000000
00000000
00000000
00000000
00000000
00000000
00000000
00000000
00000000
00000000
00000000
00000000
00000000
00000000
00000000
00000000
00000000
00000000
00000000
00000000
00000000
00000000
00000000
00000000
00000000
02300000
00000000
00000000
00000000
00000000
00000000
00000000
00000000
00000000
00000000
00000000
00000000
00000000
00000000
00000000
00000000
00000000
00000000
00000000
00000000
00000000
00000000
00000000
00000000
00000000
00000000
00000000
00000000
00000000
00000000
00000000
00000000
00000000
00000000
00000000
00000000
13000000
00000000
00000000
00000000
00000000
00000000
00100000
00000000
00000000
00000000
00000000
00000000
10000000
00000000
00000000
00000000
00000000
00000000
00100000
00000000
00000000
00000000
00000000
00000000
,  // measure 25
01000000
00000000
00000000
01001000
00000000
00000000
00011000
00000000
00010000
00000100
00001000
00000100
00000020
00000000
00000000
00000000
00000031
00000000
00000100
00000000
00000010
00000000
00001000
00000000
00000001
00000000
00000100
00000000
00000010
00000000
00001000
00000000
,  // measure 26
00000200
00000000
00000000
00010000
00000000
00000000
00010300
00000000
00000000
00000000
00000000
00000000
00010000
00000000
00001000
00000000
00010000
00000000
01000000
00000000
10000000
00000000
00100000
00000000
,  // measure 27
01100000
00000000
00000000
00000000
01000000
00010000
20000000
00000000
30010000
00100000
01000000
10000000
00010000
00100000
01000000
10000000
,  // measure 28
00200000
00000000
00000000
01000000
00000000
00000000
01300000
00000000
00000000
00000000
00000000
00000000
01000000
00000000
00001000
00000000
00010000
00000000
00000100
00000000
00001000
00000000
00000010
00000000
,  // measure 29
00010000
00000000
00001000
00000000
00000100
00000000
00000001
00000000
00000010
00000000
00000100
00000000
00001000
00000000
00000000
00000001
00000000
00000000
00001000
00000000
00000000
00000001
00000000
00000000
,  // measure 30
00000100
00000010
00000100
00000010
00010000
00001000
00010000
00001000
,  // measure 31
00100000
01000000
00100000
01000000
10000000
00010000
10000000
00010000
,  // measure 32
01000000
00001000
01000000
00001000
00010000
00000100
00010000
00000100
,  // measure 33
00001000
00000010
00001000
00000010
00000100
00000001
00000010
00000100
,  // measure 34
00001000
00000010
00010000
00001000
01000000
00010000
00100000
01000000
,  // measure 35
10000000
00100000
01000000
00001000
00010000
00000010
00000100
00000001
,  // measure 36
00001000
00000100
00010000
00001000
00022000
00000000
00000000
00000000
,  // measure 37
00000000
00033000
02200000
00000000
,  // measure 38
00000000
00000000
00000000
00000000
,  // measure 39
00000000
00000000
00000000
00000000
03300000
00000000
00000000
00000000
10010000
00000000
00010000
00000000
01010000
00000000
01000000
00001000
,  // measure 40
00010000
00000000
00000100
00000000
00001000
00000010
00000000
00001000
00000100
00000010
00000000
00000001
00000100
00000000
00001000
00000000
,  // measure 41
00011000
00000000
00010000
00000000
00001000
00100000
01000000
10000000
01000000
00000000
00010000
00000000
00011000
00000000
00001000
00000000
,  // measure 42
01001000
00000000
00000000
00000000
00000000
00000000
00010000
00000000
00000000
00000000
00000000
00000000
00010100
00000000
00000000
00000000
00000000
00000000
00022000
00000000
00000000
00033000
00000000
00000000
00001000
00000000
00000000
00000000
00100000
00000000
00000000
00000000
01000000
00000000
00000000
00000000
20000000
00000000
00000000
00000000
00000000
00000000
00000000
00000000
00000000
00000000
00000000
00000000
,  // measure 43
30100000
00000000
00100000
00000000
00100000
00000000
00100000
00010000
,  // measure 44
00001000
00000000
00011000
00000000
00010100
00000000
00000100
00000010
,  // measure 45
00000001
00000000
00000000
00000101
00000000
00000000
00001100
00000000
,  // measure 46
00001000
00000000
00010000
00000000
00100000
10000000
01000000
00100000
,  // measure 47
01000000
00000000
01000000
00000000
01000000
00000000
01000000
00010000
,  // measure 48
00001000
00000000
00011000
00000000
00010000
00000100
00001000
00000100
,  // measure 49
00000010
00000000
00000000
00000011
00000000
00000000
00000101
00000000
,  // measure 50
00000100
00000000
00000000
00001000
00000000
00000000
00010000
00001000
00010000
00001000
00010000
00001000
,  // measure 51
01000000
00000000
01000000
00000000
01000000
00000000
01000000
00100000
,  // measure 52
10000000
00000000
11000000
00000000
01010000
00000000
00010000
00001000
,  // measure 53
00000010
00000000
00000000
00000011
00000000
00000000
00001100
00000000
,  // measure 54
00001000
00000000
00000010
00000000
00010000
00001000
00100000
01000000
,  // measure 55
10000000
00000000
10000000
00000000
10000000
00000000
10000000
00100000
,  // measure 56
00010000
00000000
00011000
00000000
00001000
00010000
00000100
00000010
,  // measure 57
00000001
00000000
00000000
00000101
00000000
00000000
00001010
00000000
,  // measure 58
00001000
00000000
00000000
00000100
00000000
00000000
00000010
00000000
00000000
00000001
00000000
00000000
00001000
00000000
00000010
00000000
00001000
00000000
00000010
00000000
00001000
00000000
00000010
00000000
,  // measure 59
00010000
00001000
00100000
00001000
00010000
00000010
00010000
00001000
,  // measure 60
01000000
00001000
00010000
00000100
00010000
00000000
00011000
00000000
,  // measure 61
00001000
00010000
00100000
00010000
00001000
00000010
00001000
00010000
,  // measure 62
01000000
00010000
00001000
00000100
00001000
00000000
00011000
00000000
,  // measure 63
00010000
00100000
00010000
00100000
10000000
01000000
10000000
01000000
,  // measure 64
00010000
00001000
00010000
00001000
00010000
00000000
00011000
00000000
,  // measure 65
00001000
00000010
00001000
00000010
00000001
00000100
00000001
00000100
,  // measure 66
00001000
00010000
00001000
00010000
00001000
00000000
00011000
00000000
,  // measure 67
00010000
00000100
00010000
00000100
00001000
00000010
00001000
00000010
,  // measure 68
00000100
00000001
00000100
00000001
00000010
00001000
00000010
00001000
,  // measure 69
00010000
00100000
00010000
00100000
10000000
01000000
10000000
01000000
,  // measure 70
00010000
00001000
00000010
00000001
00001000
00000100
00000010
00000001
,  // measure 71
00000100
00000110
00000000
00010010
00000000
00011000
00000000
01001000
,  // measure 72
00000000
01100000
00000000
10100000
10000000
01000000
00020000
00002000
,  // measure 73
00000000
00000000
00000000
00000000
,  // measure 74
00000000
00033000
00011000
00000110
,  // measure 75
00000001
00000000
00000010
00000000
00001000
00000000
00010000
00000000
00001000
00000000
00010000
00000000
00100000
00000000
10000000
00000000
01000000
00000000
00100000
00000000
00000000
01000000
00000000
00000000
,  // measure 76
10000000
00000000
01000000
00000000
00010000
00000000
00001000
00000000
00010000
00000000
00001000
00000000
00000100
00000000
00000001
00000000
00000010
00000000
00000100
00000000
00000000
00000010
00000000
00000000
,  // measure 77
00000001
00000000
00000100
00000000
00001000
00000000
00010000
00000000
00001000
00000000
00010000
00000000
01000000
00000000
10000000
00000000
00100000
00000000
00010000
00000000
00000000
00100000
00000000
00000000
,  // measure 78
10000000
00000000
01000000
00000000
00010000
00000000
00001000
00000000
00000100
00000000
00000001
00000000
00000010
00000000
00001000
00000000
00010000
00000000
00001000
00000000
00000000
00100000
00000000
00000000
,  // measure 79
01000000
10000000
00100000
01000000
00010000
00100000
01000000
00010000
,  // measure 80
00001000
00000010
00000100
00001000
00000010
00000001
00000010
00000100
,  // measure 81
00001000
00000100
00000001
00000010
00001000
00010000
00001000
01000000
,  // measure 82
00010000
00100000
01000000
00010000
01000000
10000000
00100000
00010000
,  // measure 83
00100000
01000000
00010000
00100000
01000000
00010000
00001000
00000010
,  // measure 84
00000001
00000100
00001000
00010000
00100000
10000000
11000000
00000000
,  // measure 85
00000000
00101000
00000000
00000000
00010020
00000000
00000000
00000100
,  // measure 86
00000130
00000000
00000001
00000010
00000100
00001000
00022000
00000000
,  // measure 87
00000000
00000000
00000000
00000000
,  // measure 88
00000000
00000000
00000000
00033000
;
