#TITLE:Ma Friend;
#SUBTITLE:;
#ARTIST:Oh My Girl!;
#TITLETRANSLIT:;
#SUBTITLETRANSLIT:;
#ARTISTTRANSLIT:;
#GENRE:K-POP;
#CREDIT:MUINELIM;
#BANNER:Ma Friend.png;
#BACKGROUND:Ma Friend-bg.png;
#LYRICSPATH:;
#CDTITLE:;
#MUSIC:Ma Friend.ogg;
#OFFSET:0.154000;
#SAMPLESTART:16.570053;
#SAMPLELENGTH:11.665211;
#SELECTABLE:YES;
#DISPLAYBPM:122.000000;
#BPMS:0.000000=121.979996
;
#STOPS:
;
#BGCHANGES:0.000=Ma Friend.mp4=1.000=1=0=1===CrossFade==,
99999=-nosongbg-=1.000=0=0=0 // don't automatically add -songbackground-
;
#KEYSOUNDS:;
#ATTACKS:;

//---------------dance-single - ----------------
#NOTES:
     dance-single:
     :
     Beginner:
     1:
     0.078151,0.117934,0.007928,0.015857,0.000000,69.000000,68.000000,1.000000,2.000000,0.000000,0.000000,0.078151,0.117934,0.007928,0.015857,0.000000,69.000000,68.000000,1.000000,2.000000,0.000000,0.000000:
0000
0000
0000
0000
,
0000
0000
0000
0000
,
0000
0000
0000
0000
,
0000
0000
0000
0000
,
0000
0000
1000
0000
,
0000
0000
0001
0000
,
0000
0000
1000
0000
,
0000
0000
0001
0000
,
0000
0000
1000
0000
,
1000
0000
1000
0000
,
0000
0000
0100
0000
,
0100
0000
0100
0000
,
0000
0000
0010
0000
,
0010
0000
0010
0000
,
0000
0000
0001
0000
,
0001
0000
0001
0000
,
0000
0000
0100
0000
,
0100
0000
0100
0000
,
0000
0000
0010
0000
,
0010
0000
0010
0000
,
0000
0000
1000
0000
,
1000
0000
1000
0000
,
0000
0000
0001
0000
,
0001
0000
0001
0000
,
0000
0000
1001
0000
,
0000
0000
1000
0000
,
0000
0000
1000
0000
,
0000
0000
0100
0000
,
0000
0000
0100
0000
,
0000
0000
0010
0000
,
0000
0000
0010
0000
,
0000
0000
0001
0000
,
0000
0000
0001
0000
,
0000
0000
0100
0000
,
0000
0000
0100
0000
,
0000
0000
0010
0000
,
0000
0000
0010
0000
,
0000
0000
1000
0000
,
0000
0000
0001
0000
,
0000
0000
0100
0000
,
0000
0000
0010
0000
,
0010
0000
0020
0000
,
0000
0000
0030
0000
,
0000
0000
0010
0000
,
0010
0000
0010
0000
,
0010
0010
0000
0000
,
0000
0000
0010
0000
,
0000
0000
0010
0000
,
0000
0000
0010
0000
,
0010
0000
0010
0000
,
0000
0000
1000
0000
,
0000
0000
0001
0000
,
0000
0000
0100
0000
,
0000
0000
0010
0000
,
0000
0000
1000
0000
,
0000
0000
0001
0000
,
0000
0000
0100
0000
,
0100
0000
0200
0000
,
0000
0000
0300
0000
,
0000
0100
0100
0000
;

//---------------dance-single - ----------------
#NOTES:
     dance-single:
     :
     Easy:
     4:
     0.142710,0.188694,0.023785,0.031713,0.000000,126.000000,123.000000,3.000000,4.000000,0.000000,0.000000,0.142710,0.188694,0.023785,0.031713,0.000000,126.000000,123.000000,3.000000,4.000000,0.000000,0.000000:
// measure 0
0000
0000
0000
0000
,  // measure 1
0000
0000
0000
0000
,  // measure 2
0000
0000
0000
0000
,  // measure 3
0000
0000
0000
0000
,  // measure 4
0000
0000
1000
0000
,  // measure 5
0100
0000
0010
0000
,  // measure 6
0001
0000
0100
0000
,  // measure 7
0020
0000
0030
0100
,  // measure 8
0010
0010
0010
0000
,  // measure 9
1000
0000
0001
0000
,  // measure 10
0100
0000
0010
0000
,  // measure 11
1000
0000
0001
0000
,  // measure 12
0100
0000
0010
0000
,  // measure 13
0010
0000
1000
0000
,  // measure 14
1000
0000
0001
0000
,  // measure 15
0001
0000
0100
0000
,  // measure 16
0100
0100
0100
0000
,  // measure 17
0001
0000
1000
0000
,  // measure 18
0010
0000
0100
0000
,  // measure 19
0001
0000
1000
0000
,  // measure 20
0010
0000
0100
0000
,  // measure 21
0100
0000
0001
0000
,  // measure 22
0001
0000
1000
0000
,  // measure 23
1000
0000
0010
0000
,  // measure 24
0010
0010
0020
0030
,  // measure 25
0000
0000
0010
0000
,  // measure 26
1000
0000
0100
0000
,  // measure 27
0010
0000
0001
0000
,  // measure 28
1000
0000
0010
0000
,  // measure 29
0100
0000
0001
0000
,  // measure 30
0010
0000
0100
0000
,  // measure 31
1000
0000
0010
0000
,  // measure 32
0100
0000
0001
1000
,  // measure 33
1000
0001
0000
0100
,  // measure 34
0000
0010
0000
1000
,  // measure 35
0000
0001
0000
0010
,  // measure 36
0000
0100
0000
1000
,  // measure 37
0000
0010
0000
0100
,  // measure 38
0001
0100
0000
0010
,  // measure 39
1000
0010
0110
0000
,  // measure 40
0100
0100
0001
0000
,  // measure 41
1000
0000
0020
0000
,  // measure 42
0000
0000
0030
0000
,  // measure 43
0010
0010
0020
0000
,  // measure 44
0000
0030
0100
0010
,  // measure 45
1000
0001
0100
0000
,  // measure 46
0010
0000
1000
0000
,  // measure 47
0001
0000
0100
0000
,  // measure 48
0010
0000
1000
0001
,  // measure 49
0001
1000
0000
0010
,  // measure 50
0000
0100
0000
0001
,  // measure 51
0000
0010
0000
0100
,  // measure 52
0000
1000
0000
0010
,  // measure 53
0000
0100
0000
0001
,  // measure 54
0010
0001
0000
1000
,  // measure 55
0010
1000
0000
0001
,  // measure 56
0100
0001
0000
1000
,  // measure 57
0100
1000
1100
0000
,  // measure 58
0000
0000
0100
0000
,  // measure 59
0010
0000
0011
0000
;

//---------------dance-single - ----------------
#NOTES:
     dance-single:
     :
     Medium:
     6:
     0.241248,0.309205,0.079283,0.126853,0.000000,213.000000,203.000000,10.000000,16.000000,0.000000,0.000000,0.241248,0.309205,0.079283,0.126853,0.000000,213.000000,203.000000,10.000000,16.000000,0.000000,0.000000:
0000
0000
0000
0000
,
0000
0000
0000
0000
,
0000
0000
0000
0000
,
0000
0000
0000
0000
,
0000
0000
2000
0000
,
3000
0000
0002
0000
,
0003
0000
0200
0000
,
0000
0300
0010
0100
,
0010
0110
0100
0001
,
0010
0000
0100
1000
,
0010
0000
0100
0001
,
1000
0000
0010
1000
,
0001
0000
0100
0001
,
0010
0100
0100
1000
,
0010
0100
0100
0001
,
0010
0100
2000
3001
,
1000
1001
0001
0100
,
0010
0000
1000
0010
,
0100
0000
0001
0010
,
0100
0000
1000
0100
,
0010
0000
0100
1000
,
0010
0010
0100
0001
,
0010
0010
0100
1000
,
0010
0100
0002
1003
,
0001
1000
1001
0000
,
0000
0000
0000
0000
0000
0000
0001
0100
,
0001
1000
0100
1000
,
0001
0000
0101
0000
0000
0000
1000
0100
,
1000
0001
0100
0001
,
1000
0000
1100
0000
0000
0000
0001
0010
,
0001
0000
1000
0000
0001
0010
0001
0010
,
0001
0000
1000
0000
0001
0001
0010
0000
,
0001
0000
1000
0000
0010
0100
0000
0100
,
0020
0000
1030
0000
0000
0000
1000
0100
,
1000
0001
0100
0001
,
1000
0000
1100
0000
0000
0000
0001
0100
,
0001
1000
0100
1000
,
0001
0000
0101
0000
0000
0000
1000
0010
,
1000
0000
0010
1000
0010
0000
1000
0010
,
1000
0000
0010
1000
0010
0010
0000
0000
,
0200
0310
0010
1000
,
0001
0100
0120
0000
,
0000
0000
2030
0000
,
0000
0000
3002
0000
,
0000
0000
0203
0000
,
0010
0310
0010
1000
,
0100
0010
0100
0000
0010
0000
0001
0000
,
0100
0010
0100
0000
0010
0000
1000
0000
,
0100
0000
0010
0010
0000
0001
0010
0100
,
1000
0010
0100
0001
,
1000
0000
0100
0000
0010
0001
0010
0001
,
0010
0011
0000
0001
,
0100
0000
0010
0000
1000
0100
1000
0100
,
1000
0000
1100
0000
0000
0000
0100
1000
,
0001
0000
0100
0000
0000
0000
0010
1000
,
0100
0000
0010
0000
0000
0000
0001
0100
,
0010
0100
0001
0001
0000
1000
0100
0000
,
0010
0001
2000
0000
,
3020
0000
0230
0000
,
0302
0000
2000
0000
,
3003
0000
0000
0000
;

//---------------dance-single - ----------------
#NOTES:
     dance-single:
     :
     Hard:
     8:
     0.343183,0.428130,0.134782,0.206137,0.039642,303.000000,286.000000,17.000000,26.000000,0.000000,0.000000,0.343183,0.428130,0.134782,0.206137,0.039642,303.000000,286.000000,17.000000,26.000000,0.000000,0.000000:
0000
0000
0000
0000
,
0000
0000
0000
0000
,
0000
0000
0000
0000
,
0000
0000
0000
0000
,
0000
0000
0000
0000
2000
0000
0000
0100
,
0000
0000
0000
3002
0000
0000
0000
0100
,
0000
0000
0000
0000
2003
0000
0001
0002
,
0000
0000
0000
0000
3003
0000
0000
0000
0100
0000
0100
0000
0000
0010
0000
0000
,
0100
0000
0110
0000
0010
1000
0100
0000
,
1000
0000
0001
0000
0010
0001
0100
0001
,
0010
0000
0011
0000
0010
0001
0100
0000
,
0001
0000
1000
0000
0010
1000
0100
1000
,
0010
0000
1010
0000
0000
1000
0100
0010
,
0002
0100
0103
0000
0000
1000
0100
0010
,
0002
0100
0103
0000
0000
1000
0100
0010
,
0002
0100
0103
0010
0000
1000
0001
1000
,
0010
0000
0000
0010
0000
0000
0010
0000
0100
0000
0001
0000
1000
0000
0000
0000
,
0010
0000
0100
0000
0001
1000
0010
0100
,
0001
0000
1001
0000
0010
1000
0001
0000
,
0100
0000
0010
0000
1000
0001
0100
0010
,
1000
0000
1001
0000
0000
0001
0100
0010
,
2000
0100
3100
0000
0000
0001
0100
0010
,
2000
0100
3100
0000
0000
0001
0100
0010
,
2000
0100
3100
0010
0000
0010
0001
0100
,
0010
0000
0000
0100
0000
0000
0010
0000
0110
0000
0000
0000
0000
0000
0000
0000
,
0000
0000
0100
0001
,
0010
0001
0100
0001
,
0010
0001
0100
0000
0010
0000
1000
0000
,
0100
1000
0010
1000
,
0100
1000
0010
0000
0100
0000
0001
0000
,
0010
0100
1000
0000
0010
0000
0100
0000
,
0001
0010
0100
0000
1000
0000
0010
0000
,
0100
0010
0100
0000
0001
1000
0100
0010
,
0100
0000
0000
0100
0000
0000
1000
0000
0010
0000
0000
0000
0100
0000
0001
0000
,
0010
0000
0001
0100
0010
0000
0100
0001
,
0010
0100
2000
0000
3100
0000
0100
1000
,
0010
0000
1000
0100
0010
0000
0100
1000
,
0010
0100
0002
0000
0013
0000
0110
0000
,
0100
1100
1000
1001
,
0001
0000
0011
0000
0100
0020
0000
0000
,
0130
0000
0010
0000
0100
0000
0000
0000
0010
1000
0000
0000
0001
0100
0000
0000
,
0010
1000
0000
0000
0001
0100
0000
0000
0120
0000
0000
0000
0000
0000
0000
0000
,
0000
0000
2030
0000
,
0000
0000
3002
0000
,
0000
0000
0203
0320
,
0130
0001
1000
0010
0110
0001
0010
0100
,
1000
0010
0100
0000
0100
0001
0010
0100
,
1000
0010
0100
0000
0100
0001
0010
0100
,
1000
0010
0100
0010
0000
0010
1000
0100
,
0010
0000
0000
0010
0000
0000
0010
0000
0100
0000
0001
0000
0010
0000
0000
0000
,
0010
0100
1000
0000
0010
0100
0001
1000
,
0100
0000
0110
0000
0010
0001
0100
0000
,
0010
1000
0001
0000
0010
0100
1000
0010
,
0100
0000
0101
0000
1000
0100
0010
0001
,
0200
0010
0310
0000
1000
0100
0010
0001
,
0200
0010
0310
0000
1000
0100
0010
0001
,
0200
0010
0310
1000
0000
0001
0010
0100
,
1100
0000
0000
0101
0000
0000
1001
0000
2000
0000
0000
0000
0000
0000
0000
0000
,
3020
0000
0230
0000
,
0302
0000
2000
0000
,
3003
0000
0000
0000
;

//---------------dance-double - ----------------
#NOTES:
     dance-double:
     :
     Easy:
     4:
     0.137047,0.188694,0.031713,0.031713,0.000000,121.000000,117.000000,4.000000,4.000000,0.000000,0.000000,0.137047,0.188694,0.031713,0.031713,0.000000,121.000000,117.000000,4.000000,4.000000,0.000000,0.000000:
00000000
00000000
00000000
00000000
,
00000000
00000000
00000000
00000000
,
00000000
00000000
00000000
00000000
,
00000000
00000000
00000000
00000000
,
00000000
00000000
00000001
00000000
,
00000100
00000000
00000010
00000000
,
00010000
00000000
00001000
00000000
,
00200000
00000000
00300000
00010000
,
01000000
01000000
01000000
00000000
,
00100000
00000000
10000000
00000000
,
01000000
00000000
00100000
00000000
,
00010000
00000000
01000000
00000000
,
00001000
00000000
00010000
00000000
,
00010000
00000000
00000100
00000000
,
00000100
00000000
00001000
00000000
,
00001000
00000000
00000010
00000000
,
00000010
00000010
00000010
00000000
,
00000100
00000000
00000001
00000000
,
00001000
00000000
00000100
00000000
,
00010000
00000000
00001000
00000000
,
00100000
00000000
00010000
00000000
,
00010000
00000000
01000000
00000000
,
01000000
00000000
00100000
00000000
,
00100000
00000000
10000000
00000000
,
10000000
10000000
20000000
30000000
,
00000000
00000000
00010000
00000000
,
01000000
00000000
00001000
00000000
,
00010000
00000000
00000100
00000000
,
00001000
00000000
00000010
00000000
,
00010000
00000000
00001000
00000000
,
00100000
00000000
00010000
00000000
,
01000000
00000000
00001000
00000000
,
00010000
00000000
00000100
00001000
,
00001000
00000100
00000000
00010000
,
00000000
00001000
00000000
00100000
,
00000000
01000000
00000000
10000000
,
00000000
00100000
00000000
01000000
,
00000000
00010000
00000000
00100000
,
00001000
00010000
00000000
00000010
,
00010000
00001000
00011000
00000000
,
00100000
00100000
00010000
00000000
,
01000000
00000000
00002000
00000000
,
00000000
00000000
00003000
00000000
,
00010000
00010000
00020000
00000000
,
00000000
00030000
00000100
00001000
,
00000001
00001000
00001001
00000000
,
00000001
00000000
00000100
00000000
,
00001000
00000000
00010000
00000000
,
00100000
00000000
10000000
01000000
,
01000000
10000000
00000000
00100000
,
00000000
01000000
00000000
00010000
,
00000000
00100000
00000000
00001000
,
00000000
00010000
00000000
00000100
,
00000000
00001000
00000000
00000010
,
00000000
00000100
00000000
00000001
,
00000000
00001000
00000000
00000100
,
00000000
00010000
00000000
00001000
,
00000000
01000000
01100000
00000000
,
00000000
00000000
00000000
00000000
,
00000000
00000000
00000110
00000000
;

//---------------dance-double - ----------------
#NOTES:
     dance-double:
     :
     Medium:
     6:
     0.236717,0.285420,0.103068,0.103068,0.000000,209.000000,196.000000,13.000000,13.000000,0.000000,0.000000,0.236717,0.285420,0.103068,0.103068,0.000000,209.000000,196.000000,13.000000,13.000000,0.000000,0.000000:
00000000
00000000
00000000
00000000
,
00000000
00000000
00000000
00000000
,
00000000
00000000
00000000
00000000
,
00000000
00000000
00000000
00000000
,
00000000
00000000
02000000
00000000
,
03000000
00000000
00002000
00000000
,
00003000
00000000
00020000
00000000
,
00000000
00030000
00000010
00001000
,
00000100
00001100
00001000
00000001
,
00000100
00000000
00000001
00001000
,
00000100
00000000
00010000
00001000
,
00100000
00000000
00001000
00010000
,
00000010
00000000
00010000
00001000
,
00100000
01000000
01000000
10000000
,
00100000
01000000
01000000
00010000
,
00100000
01000000
20000000
30010000
,
10000000
10010000
00010000
10000000
,
00100000
00000000
10000000
00010000
,
00100000
00000000
00001000
00010000
,
00000100
00000000
00010000
00001000
,
01000000
00000000
00001000
00010000
,
00000100
00000010
00000010
00000001
,
00000100
00000010
00000010
00001000
,
00000100
00000010
00000002
00001003
,
00000001
00001000
00001001
00000000
,
00000000
00000000
00000000
00000000
00000000
00000000
00000001
00000100
,
00000001
00001000
00000100
00010000
,
01000000
00000000
10000000
00000000
00000000
00000000
10000000
00100000
,
10000000
00010000
00100000
00001000
,
00000010
00000000
00000001
00000000
00000000
00000000
00000001
00000100
,
00000001
00000000
00001000
00000000
00000001
00000000
00001000
00000100
,
00001000
00000000
00000001
00000000
00000100
00001000
00010000
00000000
,
00100000
00000000
10000000
00000000
01000000
00100000
00000000
00100000
,
00002000
00000000
00013000
00000000
00000000
00000000
00010000
00001000
,
00000100
00000001
00000100
00001000
,
00010000
00000000
00011000
00000000
00000000
00000000
00001000
00010000
,
00100000
10000000
00100000
00010000
,
00001000
00011000
00000000
00010000
,
00100000
10000000
01000000
00010000
,
00001000
00000000
00000010
00000001
00000010
00000010
00000000
00000000
,
00000002
00000103
00000100
00001000
,
00010000
01000000
21000000
00000000
,
00000000
00000000
30200000
00000000
,
00000000
00000000
00320000
00000000
,
00000000
00000000
00032000
00000000
,
00000010
00003010
00000010
00000001
,
00000100
00000001
00000100
00000000
00000010
00000000
00010000
00000000
,
00001000
00100000
00001000
00000000
01000000
00000000
00100000
00000000
,
10000000
00000000
01000000
01000000
00000000
00100000
00001000
00010000
,
00000010
00001000
00000001
00000100
,
00001000
00000000
00010000
00000000
00100000
10000000
01000000
00000000
,
10000000
11000000
00000000
01000000
,
00010000
00000000
00001000
00000000
00000010
00000001
00000100
00000000
,
00000001
00000000
00000101
00000000
00000000
00000000
00000001
00000100
,
00001000
00000000
00010000
00000000
00000000
00000000
00000100
00001000
,
00010000
00000000
00100000
00000000
00000000
00000000
00001000
00010000
,
00100000
00000000
10000000
10000000
00000000
01000000
00100000
00000000
,
00001000
00010000
00011000
00000000
,
01001000
00000000
00011000
00000000
,
00010010
00000000
00022000
00000000
,
00033000
00000000
00000000
00000000
;

//---------------dance-double - ----------------
#NOTES:
     dance-double:
     :
     Hard:
     8:
     0.323929,0.377388,0.118925,0.095140,0.023785,286.000000,271.000000,15.000000,12.000000,0.000000,0.000000,0.323929,0.377388,0.118925,0.095140,0.023785,286.000000,271.000000,15.000000,12.000000,0.000000,0.000000:
00000000
00000000
00000000
00000000
,
00000000
00000000
00000000
00000000
,
00000000
00000000
00000000
00000000
,
00000000
00000000
00000000
00000000
,
00000000
00000000
00000000
00000000
00002000
00000000
00000000
01003000
,
00000000
00000000
00000000
00020000
00000000
00000000
00000000
00030010
,
00000000
00000000
00000000
00000000
00002000
00000000
00010000
00020000
,
00000000
00000000
00000000
00000000
00033000
00000000
00000000
00000000
00001000
00000000
00001000
00000000
00000000
00010000
00000000
00000000
,
00001000
00011000
00010000
01000000
,
10000000
00000000
00100000
00000000
00010000
00001000
00010000
00000100
,
00001000
00011000
00001000
00000010
,
00000001
00000000
00000100
00000000
00001000
00010000
00001000
00100000
,
00010000
00000000
00011000
00000000
00000000
00001000
00010000
00100000
,
01000000
00010000
00100000
00000000
00000000
00001000
00010000
00100000
,
01000000
00010000
00100000
00000000
00000000
00001000
00010000
00100000
,
01000000
00010000
00100000
00100000
00000000
00010000
01000000
00001000
,
00010000
00000000
00000000
00001000
00000000
00000000
00010000
00000000
00001000
00000000
00000000
00000000
00000100
00000000
00000000
00000000
,
00000001
00000000
00000010
00000000
00001000
00010000
00001000
01000000
,
00010000
00011000
00010000
00100000
,
10000000
00000000
01000000
00000000
00010000
00001000
00010000
00000010
,
00001000
00000000
00011000
00000000
00000000
00010000
00001000
00000010
,
00000100
00001000
00000010
00000000
00000000
00010000
00001000
00000010
,
00000100
00001000
00000010
00000000
00000000
00010000
00001000
00000010
,
00000100
00001000
00000010
00010000
00000000
00010000
00001000
00100000
,
01000000
00000000
00000000
01000000
00000000
00000000
01000000
00000000
01100000
00000000
00000000
00000000
00000000
00000000
00000000
00000000
,
00000000
00000000
10000000
01000000
,
00010000
01000000
10000000
01000000
,
00010000
00001000
00000100
00000000
00000001
00000000
00000010
00000000
,
00001000
00000010
00000001
00000010
,
00001000
00010000
00100000
00000000
10000000
00000000
01000000
00000000
,
00100000
00001000
00010000
00000000
00000100
00000000
00001000
00000000
,
00000010
00000100
00000001
00000000
00001000
00000000
00000100
00000000
,
00010000
00001000
00100000
00000000
00010000
10000000
01000000
00100000
,
01000000
00000000
00000000
01000000
00000000
00000000
00010000
00000000
00001000
00000000
00000000
00000000
00100000
00000000
00010000
00000000
,
01000000
00000000
00100000
00000000
10000000
00000000
01000000
00010000
,
00001000
00000100
00000002
00000000
00000013
00000000
00000010
00001000
,
00000100
00000000
00000010
00000000
00000001
00000000
00000100
00001000
,
00010000
00100000
20000000
00000000
31000000
00000000
01000000
00000000
,
00100000
00001000
00010000
00000100
,
00000010
00000000
00000001
00000000
00000100
00000200
00000000
00000000
,
00000310
00001000
00000100
00000000
00010100
00000000
00011000
00000000
,
01001000
01100000
20100000
00000000
,
00000000
00000000
32000000
00000000
,
00000000
00000000
03020000
00000000
,
00000000
00000000
00032000
00003200
,
00000301
00000100
00000010
00001000
00000100
00010000
00000100
00001000
,
00000010
00010000
00001000
00000000
00100000
00010000
01000000
00010000
,
00100000
00001000
00010000
00000000
00000100
00001000
00000001
00001000
,
00000100
00000010
00000001
00000100
00000000
00000100
00001000
00010000
,
00100000
00000000
00000000
00100000
00000000
00000000
00100000
00000000
10000000
00000000
01000000
00000000
00100000
00000000
00000000
00000000
,
00010000
00000000
01000000
00000000
00001000
00010000
00001000
00000100
,
00000010
00000000
00000110
00000000
00000100
00000001
00000010
00000000
,
00001000
00000000
00010000
00000000
00100000
01000000
00100000
10000000
,
01000000
00000000
01010000
00000000
00010000
01000000
00001000
00010000
,
00000100
00000010
00000001
00000000
00001000
00000010
00010000
00001000
,
00100000
01000000
10000000
00000000
00100000
00010000
00001000
00100000
,
01000000
00010000
00001000
00000010
00000000
00000010
00000001
00000100
,
00001000
00000000
00000000
00010000
00000000
00000000
00100000
00000000
10100000
00000000
00000000
00000000
00000000
00000000
00000000
00000000
,
00000000
00000000
00000000
00000000
,
00000000
00000000
00000101
00000000
;
