#TITLE:MP3;
#SUBTITLE:;
#ARTIST:LUCY;
#TITLETRANSLIT:;
#SUBTITLETRANSLIT:;
#ARTISTTRANSLIT:;
#GENRE:K-POP;
#CREDIT:MUINELIM;
#BANNER:MP3.png;
#BACKGROUND:MP3-bg.png;
#LYRICSPATH:;
#CDTITLE:;
#MUSIC:MP3.ogg;
#OFFSET:-0.147000;
#SAMPLESTART:38.088173;
#SAMPLELENGTH:13.877644;
#SELECTABLE:YES;
#BPMS:0.000000=102.000000
;
#STOPS:
;
#BGCHANGES:0.000=MP3.avi=1.000=0=0=0=StretchNoLoop====,
99999=-nosongbg-=1.000=0=0=0 // don't automatically add -songbackground-
;
#KEYSOUNDS:;
#ATTACKS:;

//---------------dance-single - ----------------
#NOTES:
     dance-single:
     :
     Beginner:
     1:
     0.079922,0.123079,0.027973,0.000000,0.000000,60.000000,57.000000,3.000000,0.000000,0.000000,0.000000,0.079922,0.123079,0.027973,0.000000,0.000000,60.000000,57.000000,3.000000,0.000000,0.000000,0.000000:
// measure 0
0000
0000
0000
0000
,  // measure 1
0000
0000
0000
0000
,  // measure 2
0000
0000
0000
0000
,  // measure 3
0000
0000
0000
0000
,  // measure 4
0000
0100
0000
0000
,  // measure 5
0000
0100
0000
0000
,  // measure 6
0000
0100
0000
0000
,  // measure 7
0000
0100
0000
0000
,  // measure 8
0000
0010
0000
0000
,  // measure 9
0000
0010
0000
0000
,  // measure 10
0000
0010
0000
0000
,  // measure 11
0000
0010
0000
0000
,  // measure 12
0000
1000
0000
0000
,  // measure 13
0000
0001
0000
0000
,  // measure 14
0000
1000
0000
0001
,  // measure 15
0000
1000
0000
0000
,  // measure 16
0000
1001
0000
0000
,  // measure 17
0000
0100
0000
0100
,  // measure 18
0000
1001
0000
0000
,  // measure 19
0000
0010
0000
0010
,  // measure 20
0000
1001
0000
0000
,  // measure 21
0000
1000
0000
0001
,  // measure 22
0000
0100
0000
0010
,  // measure 23
0000
1000
0000
0001
,  // measure 24
0000
0100
0000
0000
,  // measure 25
0000
1000
0000
0000
,  // measure 26
0000
0010
0000
0000
,  // measure 27
0000
0001
0000
0000
,  // measure 28
0000
1000
0000
0000
,  // measure 29
0000
0100
0000
0000
,  // measure 30
0000
0001
0000
0000
,  // measure 31
0000
0010
0000
0000
,  // measure 32
0000
1000
0000
1000
,  // measure 33
0000
1000
0000
0000
,  // measure 34
0000
0001
0000
0001
,  // measure 35
0000
0001
0000
0000
,  // measure 36
0000
0100
0000
0100
,  // measure 37
0000
0100
0000
0100
,  // measure 38
0000
0010
0000
0010
,  // measure 39
0000
0010
0000
0010
,  // measure 40
0000
1000
0000
0001
,  // measure 41
0000
1000
0000
0001
,  // measure 42
0000
1000
0000
1000
,  // measure 43
0000
1000
0000
0001
,  // measure 44
0001
0000
0000
0000
;

//---------------dance-single - ----------------
#NOTES:
     dance-single:
     :
     Easy:
     4:
     0.165171,0.205132,0.074593,0.065269,0.000000,124.000000,116.000000,8.000000,7.000000,0.000000,0.000000,0.165171,0.205132,0.074593,0.065269,0.000000,124.000000,116.000000,8.000000,7.000000,0.000000,0.000000:
0000
0000
0000
0000
,
0000
0000
0000
0000
,
0000
0000
0000
0000
,
0000
0000
0000
0000
,
0000
1000
0000
1000
,
0000
0001
0000
0001
,
0000
1000
0000
0001
,
0000
2002
0000
3003
,
0000
1000
1000
1000
,
0000
0010
0010
0010
,
0000
0001
0001
0001
,
0000
0100
0100
0100
,
0000
1000
0000
0001
,
0000
0100
0010
0200
,
0300
0010
0000
0100
,
0010
0220
0000
0000
,
0330
0100
0001
0100
,
0001
0100
0100
0100
,
0000
0010
1000
0010
,
1000
0010
0010
0010
,
0000
1000
0001
0100
,
0001
1000
0010
1000
,
0001
0100
0100
0010
,
0010
1001
0000
1001
,
0000
1000
0000
0010
,
0000
0001
0000
0100
,
0000
1000
0000
0010
,
0000
0001
0000
0100
,
0000
0001
0000
0010
,
0000
1000
0000
0100
,
0000
0001
0000
0010
,
0000
1000
0000
0100
,
0100
1001
0001
0010
,
0001
0100
0001
0010
,
0000
1000
1000
0100
,
1000
0010
1000
0100
,
0000
0001
1000
0001
,
0100
0001
1000
0001
,
0001
1000
0001
1000
,
0010
1000
0001
1000
,
1000
0010
0100
0001
,
1000
0010
0100
0010
,
0010
1001
0000
1001
,
0000
2002
3003
0100
,
0100
0000
0000
0000
;

//---------------dance-single - ----------------
#NOTES:
     dance-single:
     :
     Medium:
     6:
     0.250421,0.288001,0.167835,0.177159,0.000000,188.000000,170.000000,18.000000,19.000000,0.000000,0.000000,0.250421,0.288001,0.167835,0.177159,0.000000,188.000000,170.000000,18.000000,19.000000,0.000000,0.000000:
0000
0000
0000
0000
,
0000
0000
0000
0000
,
0000
0000
0000
0000
,
0000
0000
0000
0000
,
0000
0001
0000
1000
,
0000
0001
1000
2002
,
3003
1000
0001
1000
,
0010
0200
0000
0020
,
0330
0110
1000
0001
,
1000
0000
0010
0100
0010
0000
0100
0010
,
0100
0001
0010
0100
,
1000
2002
3003
0200
,
0320
0130
0000
0001
,
0000
0010
0000
1000
,
0000
0100
0010
0000
0000
0010
0100
0001
,
1000
0020
0000
0000
0000
0000
0100
0000
,
0130
0000
0010
0000
1000
0000
0100
1000
,
0001
0000
0100
0000
0001
0000
0010
0001
,
1000
0000
0100
0000
1000
0000
0100
0010
,
0001
0000
0010
0000
0001
0000
0010
0100
,
1000
0000
0010
0100
0001
0000
0100
0010
,
1000
0000
0001
0100
0010
1000
0001
0000
,
1000
1010
0001
0011
,
1000
2002
3003
1001
,
0000
0000
0100
0000
0100
0000
0010
1000
,
0010
0000
0100
0001
0100
0000
0010
0000
,
1000
0000
0001
0000
0100
0000
0010
0100
,
0010
0000
1000
0100
0010
0001
0020
0000
,
0030
0000
0100
0000
0100
0000
1000
0100
,
1000
0000
0001
0010
0001
0000
1000
0000
,
0001
0100
1000
0010
,
0001
1000
2002
0000
3003
0000
0010
0000
,
0010
0001
0101
1000
,
1100
0000
0001
0010
0100
1000
0020
0000
,
0030
1000
1100
0001
,
0101
0000
1000
0100
0010
0001
0200
0000
,
0300
0010
1010
0100
,
0101
0010
0011
0100
,
1100
0001
1000
0010
,
0001
0100
0001
0000
0010
0000
1000
0000
,
0100
1000
0001
0100
,
1000
0010
1000
0000
0100
0000
0001
0000
,
0010
0001
1100
1000
,
0101
2000
3002
0203
,
0010
0310
0000
0000
0000
0000
0000
0000
;

//---------------dance-single - ----------------
#NOTES:
     dance-single:
     :
     Hard:
     9:
     0.356983,0.370287,0.298374,0.410264,0.125876,268.000000,236.000000,32.000000,44.000000,0.000000,0.000000,0.356983,0.370287,0.298374,0.410264,0.125876,268.000000,236.000000,32.000000,44.000000,0.000000,0.000000:
0000
0000
0000
0000
,
0000
0000
0000
0000
,
0000
0000
0000
0000
,
0000
0000
0000
0000
,
0000
1000
0010
0000
1000
0100
2000
0000
,
3002
0000
1003
0100
0010
0001
0011
0000
,
0000
0001
0100
0000
0001
0010
0100
1000
,
0001
0100
0020
0000
0000
0100
0130
0000
,
1001
0000
0000
0000
0110
0000
0000
0010
1000
0000
0000
1000
0100
0000
1000
0000
,
0010
0100
0001
0001
1000
1000
0100
0010
,
0001
0000
1000
0010
2000
0000
3001
0010
,
0002
0203
0320
2030
,
3002
1003
0000
0010
,
0000
0001
0000
0100
,
0000
1000
0001
0000
1001
0001
0010
0100
,
1000
0000
0220
0000
0000
0000
0000
0300
0000
0000
0000
0000
0100
0000
0000
0000
,
0130
0000
0000
0000
0110
0000
0000
0010
0002
0000
0000
0000
0103
0000
0010
0000
,
2000
0000
3100
0010
0001
0100
1010
0000
,
0101
0000
0000
0000
0110
0000
0000
0010
2000
0000
0000
0000
3100
0000
0010
0000
,
0002
0000
0103
0010
1000
0100
0011
0000
,
1100
0000
0000
0000
1001
0000
0000
0001
0200
0000
0000
0000
0310
0000
1000
0000
,
0002
0000
0103
0001
0010
0100
2100
0000
,
3020
0032
2003
3200
,
0010
0010
0310
1000
0001
0100
1001
0000
,
0000
0000
0000
0000
0110
0000
0000
0010
1000
0000
0000
1000
0100
0000
0000
0100
,
0010
0000
0000
0010
0001
0000
0100
0000
0001
0000
1000
0000
0200
0000
0000
0000
,
0320
0000
0000
0000
0031
0000
0000
0001
0100
0000
0000
0100
0010
0000
0000
0010
,
1000
0000
0000
1000
0100
0000
1000
0000
0001
0000
0100
0000
0010
0000
1000
0000
,
1100
0000
0000
0000
0011
0000
0000
0001
0100
0000
0000
0100
0010
0000
0000
0010
,
1000
0000
0000
1000
0100
0000
0000
0100
0001
0000
0000
0001
0100
0000
0000
0100
,
0010
0000
0000
0010
0001
0000
0000
0001
0100
0000
0000
0100
1000
0000
0000
1000
,
0100
0000
0000
0100
0010
0000
0010
0000
1000
0000
0001
0000
0020
0000
0100
0000
,
0130
0000
2100
0000
3020
0000
1030
0100
,
0020
0000
0031
0100
1000
0100
0001
0010
,
0110
0000
0012
0000
0203
0000
0301
0010
,
0200
0000
1300
0010
0001
0010
1000
0100
,
0110
0000
1200
0000
0302
0000
0103
0010
,
0002
0000
1003
0100
0010
1000
0010
0001
,
0100
0010
0210
0000
0302
0000
0023
0000
,
1030
0100
0002
0000
0023
0000
1030
0100
,
0110
2001
3200
0302
,
0013
1000
0200
0000
0302
0000
0013
1000
,
1001
0011
0101
1100
,
1010
0000
0000
0000
0110
0000
0000
0000
1001
0000
0000
0000
0001
0000
0100
0010
,
0000
1000
0010
0000
0000
0000
0000
0000
0000
0000
0000
0000
0000
0000
0000
0000
;

//---------------dance-double - ----------------
#NOTES:
     dance-double:
     :
     Easy:
     3:
     0.131871,0.184619,0.074593,0.065269,0.000000,99.000000,91.000000,8.000000,7.000000,0.000000,0.000000,0.131871,0.184619,0.074593,0.065269,0.000000,99.000000,91.000000,8.000000,7.000000,0.000000,0.000000:
00000000
00000000
00000000
00000000
,
00000000
00000000
00000000
00000000
,
00000000
00000000
00000000
00000000
,
00000000
00000000
00000000
00000000
,
00000000
00001000
00000000
00001000
,
00000000
00010000
00000000
00010000
,
00000000
00001000
00000000
00010000
,
00000000
00022000
00000000
00033000
,
00000000
00001000
00000000
00010000
,
00000000
00100000
00000000
10000000
,
00000000
01000000
00000000
00010000
,
00000000
00001000
00000000
00000010
,
00000000
00000001
00000000
00000100
,
00000000
00001000
00010000
00002000
,
00003000
00010000
00000000
00001000
,
00010000
00022000
00000000
00000000
,
00033000
00001000
00000000
00010000
,
00000000
00100000
00000000
01000000
,
00000000
00001000
00000000
00010000
,
00000000
00000010
00000000
00000100
,
00000000
00001000
00000000
00010000
,
00000000
00100000
00000000
01000000
,
00000000
00001000
00000000
00010000
,
00000000
00011000
00000000
00011000
,
00000000
00001000
00000000
00000100
,
00000000
00000001
00000000
00000010
,
00000000
00001000
00000000
00010000
,
00000000
00100000
00000000
10000000
,
00000000
01000000
00000000
00010000
,
00000000
00001000
00000000
00100000
,
00000000
01000000
00000000
00010000
,
00000000
00001000
00000000
00000010
,
00000000
00001001
00000001
00000100
,
00000000
00000001
00001000
00000100
,
00000000
00010000
00001000
01000000
,
00000000
00001000
00010000
01000000
,
00000000
00010000
00001000
00000100
,
00000000
00001000
00010000
00000100
,
00000000
00010000
01000000
10000000
,
00000000
10000000
00100000
00010000
,
00000000
00001000
00000010
00000001
,
00000000
00000001
00000100
00001000
,
00000000
00011000
00000000
00011000
,
00000000
00022000
00033000
01000000
,
01000000
00000000
00000000
00000000
;

//---------------dance-double - ----------------
#NOTES:
     dance-double:
     :
     Medium:
     6:
     0.247757,0.288001,0.177159,0.177159,0.000000,186.000000,167.000000,19.000000,19.000000,0.000000,0.000000,0.247757,0.288001,0.177159,0.177159,0.000000,186.000000,167.000000,19.000000,19.000000,0.000000,0.000000:
00000000
00000000
00000000
00000000
,
00000000
00000000
00000000
00000000
,
00000000
00000000
00000000
00000000
,
00000000
00000000
00000000
00000000
,
00000000
00010000
00000000
00001000
,
00000000
00010000
00001000
00022000
,
00033000
00010000
00000100
00001000
,
00000001
00000200
00000000
00000020
,
00000330
00001001
00000001
00000100
,
00001000
00000000
00010000
00001000
00010000
00000000
00001000
00010000
,
00001000
00010000
00100000
10000000
,
00010000
20020000
30030000
02000000
,
03200000
01300000
00000000
00001000
,
00000000
00010000
00000000
00000010
,
00000000
00000100
00000100
00000000
00000000
00000001
00000010
00001000
,
00010000
00002000
00000000
00000000
00000000
00000000
01000000
00000000
,
01003000
00000000
00001000
00000000
00010000
00000000
00001000
00010000
,
00000010
00000000
00010000
00000000
00001000
00000000
00010000
00001000
,
01000000
00000000
00001000
00000000
00010000
00000000
00001000
00010000
,
00000100
00000000
00010000
00000000
00001000
00000000
00010000
00001000
,
00100000
00000000
00010000
00100000
01000000
00000000
10000000
00100000
,
01000000
00000000
00010000
10000000
01000000
00010000
00001000
00000000
,
00010000
00010010
00001000
00101000
,
00010000
00022000
00033000
00011000
,
00000000
00000000
00000100
00000000
00000100
00000000
00001000
00000010
,
00001000
00000000
00000001
00000100
00000001
00000000
00000010
00000000
,
00001000
00000000
00010000
00000000
00100000
00000000
10000000
01000000
,
10000000
00000000
01000000
00010000
00001000
00000000
00020000
00000000
,
00030000
00000000
00000010
00000000
00000010
00000000
00001000
00000100
,
00001000
00000000
00000001
00000010
00000001
00000000
00000100
00000000
,
00001000
00010000
00100000
10000000
,
01000000
00100000
02200000
00000000
03300000
00000000
01000000
00000000
,
00010000
00001000
00101000
00010000
,
00010010
00000000
00001000
00010000
00100000
00000000
20000000
00000000
,
30000000
01000000
01100000
00010000
,
01010000
00000000
00001000
00010000
00000100
00000000
00000020
00000000
,
00000030
00000001
00000101
00001000
,
00001100
00010000
00011000
00100000
,
01100000
10000000
00100000
00010000
,
00100000
01000000
00100000
00000000
00010000
00000000
00001000
00000000
,
00000010
00001000
00010000
00001000
,
00000100
00000010
00000100
00000000
00000001
00000000
00000010
00000000
,
00001000
00010000
00110000
10100000
,
11000000
02000000
03020000
00032000
,
00000100
00003100
00000000
00000000
00000000
00000000
00000000
00000000
;

//---------------dance-double - ----------------
#NOTES:
     dance-double:
     :
     Hard:
     9:
     0.327678,0.370287,0.205132,0.419588,0.088580,246.000000,224.000000,22.000000,45.000000,0.000000,0.000000,0.327678,0.370287,0.205132,0.419588,0.088580,246.000000,224.000000,22.000000,45.000000,0.000000,0.000000:
00000000
00000000
00000000
00000000
,
00000000
00000000
00000000
00000000
,
00000000
00000000
00000000
00000000
,
00000000
00000000
00000000
00000000
,
00000000
00010000
00000100
00000000
00001000
00000100
00000010
00000100
,
00000010
00000001
00000100
00000010
00010000
00001000
00011000
00000000
,
00000000
00001000
01000000
00000000
00010000
01000000
00100000
10000000
,
00010000
00000000
00000000
00010000
02000000
00000000
00000000
00000000
00000000
00000000
00001000
00000000
03001000
00000000
00000000
00000000
,
00000000
00000000
00001000
00000000
00011000
00000000
00000000
00000000
00010100
00000000
00000000
00000100
00001000
00000000
00000001
00000000
,
00001000
00000000
00000000
00000100
00001000
00000000
00000010
00000000
00001000
00000000
00000001
00000000
00000101
00000000
00000000
00000000
,
00000000
00000000
00000000
00000100
00001000
00000000
00010000
00000000
00001000
00000000
00000100
00000000
00001000
00000000
00010000
00000000
,
00100000
00000000
00000000
00100000
20000000
00000000
00000000
00000000
00000000
00000000
01000000
00000000
32000000
00000000
00000000
00000000
,
00000000
00010000
03010000
00000000
00000000
00000000
00001000
00000000
,
00000000
00000010
00000000
00000001
,
00000000
00000100
00002000
00000000
00000000
00013000
00100000
10000000
,
01000000
00200000
00000000
00000000
00000000
00000000
00001000
00001000
,
00301000
00000000
00021000
00000000
00030200
00000000
00001300
00000100
,
00000020
00000000
00000031
00000100
00000010
00010000
00001000
00000000
,
00000000
00010000
00012000
00000000
02003000
00000000
03010000
01000000
,
00200000
00000000
10300000
01000000
00100000
00001000
00010000
00000000
,
00000000
00001000
00021000
00000000
00030020
00000000
00001030
00000100
,
00000020
00000000
00000031
00000100
00000010
00010000
00002000
00000000
,
00203000
02300000
23000000
30200000
,
00320000
00001000
00031000
00010000
00001000
00010000
00011000
00000000
,
00000000
00000000
00000000
00000000
01010000
00000000
00000000
10000000
01000000
00000000
00000000
00000000
00010000
00000000
00000000
10000000
,
01000000
00000000
00010000
00001000
00000010
00000001
00001001
00000000
,
00000100
00000000
00000000
00000000
00001100
00000000
00000000
00000001
00000100
00000000
00000000
00000000
00001000
00000000
00000000
00000001
,
00000100
00000000
00001000
00010000
00100000
10000000
01000000
00100000
,
01100000
00000000
00000000
00000000
10010000
00000000
00000000
01000000
00100000
00000000
00000000
00000000
10000000
00000000
00000000
01000000
,
00100000
00000000
00010000
01000000
00001000
00010000
00000200
00000000
,
00000320
00000032
00000203
00002300
,
00013000
00100000
20000000
00000000
00000000
00000000
01000000
01000000
,
31000000
00000000
01200000
00000000
00302000
00000000
00013000
00001000
,
00000020
00000000
00000000
00000000
00000130
00000000
00000010
00000000
00000001
00000000
00000100
00000000
00001000
00000000
00000000
00001000
,
00010000
00001000
00200000
00000000
02300000
00000000
13000000
00100000
,
00020000
00000000
00130000
00010000
00001000
00000010
00000100
00000010
,
00000011
00000000
00000000
00000000
00001100
00000000
00000000
00000100
00020000
00000000
00000000
00000000
00031000
00000000
00010000
00000000
,
02000000
00000000
03100000
01000000
10000000
00100000
00020000
00000000
,
00032000
00003020
00000032
00002003
,
00003010
00000000
00010000
00000000
00002000
00000000
00000000
00000000
00000000
00000000
00000000
00000000
00103000
00000000
00100000
01000000
,
00000000
01000000
10000000
00000000
00200000
00000000
00000000
00000000
00320000
00000000
00000000
00000000
00032000
00000000
00000000
00000000
,
00003010
00000000
00000001
00000000
00000200
00000000
00000000
00000000
00002300
00000000
00000000
00000000
00013000
00000000
00010000
00000100
,
00000000
00000100
00000010
00000000
00000011
00000000
00000000
00000000
00001010
00000000
00000000
00000000
00011000
00000000
00000000
00000000
,
00110000
00000000
00000000
00000000
10100000
00000000
00000000
00000000
10010000
00000000
00000000
00000000
01000000
00000000
00100000
00010000
,
00000000
00010000
00001000
00000000
00000000
00000000
00000000
00000000
00000000
00000000
00000000
00000000
00000000
00000000
00000000
00000000
;
