#TITLE:MAMA;
#SUBTITLE:;
#ARTIST:EXO-K;
#TITLETRANSLIT:;
#SUBTITLETRANSLIT:;
#ARTISTTRANSLIT:;
#GENRE:K-POP;
#CREDIT:MUINELIM;
#BANNER:MAMA.png;
#BACKGROUND:MAMA-bg.png;
#LYRICSPATH:;
#CDTITLE:;
#MUSIC:MAMA.ogg;
#OFFSET:0.000000;
#SAMPLESTART:58.666668;
#SAMPLELENGTH:13.333332;
#SELECTABLE:YES;
#DISPLAYBPM:90:180;
#BPMS:0.000000=45,8.000000=90,116.000000=180,180.000000=90
;
#STOPS:
;
#BGCHANGES:0.000=MAMA.avi=1.000=1=0=0=StretchNoLoop==CrossFade==,
99999=-nosongbg-=1.000=0=0=0 // don't automatically add -songbackground-
;
#KEYSOUNDS:;
#ATTACKS:;

//---------------dance-single - ----------------
#NOTES:
     dance-single:
     :
     Hard:
     13:
     0.458265,0.572728,0.288346,0.288346,0.342411,445.000000,405.000000,40.000000,40.000000,0.000000,0.000000,0.458265,0.572728,0.288346,0.288346,0.342411,445.000000,405.000000,40.000000,40.000000,0.000000,0.000000:
0000
0000
0000
0000
,
0000
0000
0000
0000
,
1002
0000
0100
0000
0000
0100
0103
0000
,
2001
0000
0000
0000
0010
0000
0000
0010
0000
0000
3010
0000
0220
0000
0330
0000
,
0100
0001
0100
0000
0000
0000
0010
1000
0010
0000
0000
0000
0100
0001
1000
0000
,
0100
1000
0100
0000
0000
0000
0010
0001
0010
0000
0000
0000
0100
1000
0100
0000
,
0010
0001
1000
0000
0000
0000
0010
1000
0001
0000
0100
0000
0010
0000
1000
0000
,
2002
0000
0000
3003
,
0001
0100
0001
0100
0010
0000
0100
0001
0000
0100
0010
0000
1000
0000
1100
0000
,
0100
1000
0100
1000
0010
0000
1000
0100
0000
1000
0001
0000
0010
0000
0011
0000
,
0001
0000
0100
0010
1000
0000
0010
0100
0001
0000
0010
0100
1000
0000
0001
0010
,
0200
0000
0000
0000
0001
0000
0000
0000
0000
0000
1300
0000
1000
0010
1000
0010
,
0100
0000
0001
0010
0100
0000
1000
0010
0000
0010
0001
0000
0101
0000
0000
0000
,
1000
0100
1000
0100
0010
0000
0001
0100
0000
0100
1000
0000
1010
0000
0000
0000
,
0010
0100
0010
0100
0001
0000
1000
0010
0000
0010
0001
0010
0001
0000
0100
0000
,
0120
0000
0001
0000
0000
1000
1030
0000
,
1100
0000
0001
0000
0101
0000
1000
0100
0010
0000
0100
0000
1000
0000
0010
0000
,
0101
0000
0001
0000
1000
0000
0100
0010
0000
0100
0000
0000
1001
0000
0000
0000
,
0011
0000
1000
0000
0010
1000
0010
0100
0010
0000
0100
0000
0001
0000
0000
0000
,
2002
0000
0000
3003
,
1000
0000
0001
0000
0010
0000
0001
0100
0000
0000
1000
0100
0001
0000
0010
0000
,
0100
0000
1000
0000
0010
0000
0001
0010
0000
0000
0100
0000
0110
0000
1000
0000
,
0001
0000
0100
0000
1000
0000
0100
0010
0000
0000
0100
0000
0110
0000
0001
0000
,
1000
0100
0000
0001
0000
0100
0000
0010
0000
0000
0001
0000
1001
0000
0000
0000
,
1010
0001
0011
0100
0120
0000
1030
0100
,
0001
0000
0100
0000
0010
0000
0001
0100
0000
1000
0100
0000
0001
0010
0001
0010
,
0100
0000
1000
0010
0000
1000
0100
0010
0001
0000
0100
0001
0000
0010
0100
1000
,
0020
0032
0203
2300
,
0002
0000
0000
0000
0000
0000
0000
0000
3003
0000
0000
0000
0110
0000
0100
0010
,
0100
0000
0002
0000
0000
0000
0013
0000
0100
0000
1000
0000
0100
1000
0100
0000
,
1000
0100
0010
0001
0100
0020
0000
0000
,
1030
1000
0001
0010
0100
1000
0010
0100
,
0002
0000
1003
0100
0020
0031
0010
0100
,
1100
0000
0100
0010
0011
0000
0001
0100
,
1000
0100
0001
0010
1000
0010
0001
0100
,
0010
0010
1000
0010
0100
0100
0001
1000
,
0010
0000
0010
0000
1010
0000
0000
0000
1000
0100
0000
0000
0010
0001
0000
0000
,
0100
0010
0200
0000
0302
0000
0103
0010
,
0200
0000
2300
0000
3100
0010
0110
0000
,
0010
0100
0020
0000
2030
0000
3010
0100
,
0020
0000
0032
0000
0013
0100
0110
0010
,
1000
0000
1000
0100
0000
0100
0001
0000
,
0001
0010
0000
0010
0100
0000
0001
1000
,
2002
0000
0000
0000
,
0000
0000
3003
0110
,
1000
0000
0010
0000
0001
0000
0010
1000
0000
0100
0010
0100
0001
0000
0100
0000
,
0001
0000
0100
0000
1000
0000
0010
0001
0000
0010
0100
0010
1000
0000
0100
0000
,
0001
0000
0100
0000
0010
0000
0001
0100
0000
1000
0100
0010
0100
0000
0001
0000
,
0010
1000
0000
0001
0000
0100
0000
1100
0000
0010
0100
0000
0011
0000
0000
0000
,
0102
1003
2100
3001
1001
0001
0100
0010
,
2010
0000
3001
0000
0012
0000
1003
0100
0000
1000
0010
0100
0001
0010
0100
1000
,
0010
0000
0010
0001
0000
0100
0010
1000
0100
0000
0100
0001
0000
0010
0100
1000
,
2100
3020
0032
0203
,
1300
0010
0100
0000
0000
0000
1000
0100
0010
0000
0000
0000
0100
0000
1100
0000
,
0001
0100
0010
0000
0000
0000
0011
0000
1000
0010
0100
0000
0000
0000
0000
0000
,
0001
0010
0100
0000
0000
0000
0010
0001
0100
0000
0000
0000
1010
0000
0001
0010
,
0100
1000
0020
0000
0200
0000
0000
0000
0000
0000
0000
0000
0330
0000
0000
0000
;

//---------------dance-double - ----------------
#NOTES:
     dance-double:
     :
     Hard:
     13:
     0.441788,0.531819,0.230677,0.223469,0.327994,429.000000,397.000000,32.000000,31.000000,0.000000,0.000000,0.441788,0.531819,0.230677,0.223469,0.327994,429.000000,397.000000,32.000000,31.000000,0.000000,0.000000:
00000000
00000000
00000000
00000000
,
00000000
00000000
00000000
00000000
,
00021000
00000000
00000010
00000000
00000000
00000010
00030010
00000000
,
00012000
00000000
00000000
00000000
00100000
00000000
00000000
00100000
00000000
00000000
00103000
00000000
00200000
00000000
00000000
00000000
,
01300000
10000000
01000000
00000000
00000000
00000000
00100000
00010000
00100000
00000000
00000000
00000000
00001000
00010000
00001000
00000000
,
00000100
00000001
00000100
00000000
00000000
00000000
00000010
00001000
00000010
00000000
00000000
00000000
00010000
00001000
00010000
00000000
,
00000100
00001000
00000010
00000000
00000000
00000000
00100000
00010000
01000000
00000000
00001000
00000000
00010000
00000000
00001000
00000000
,
00022000
00000000
00000000
00033000
,
00010000
00000100
00010000
00000100
00001000
00000000
00000010
00001000
00000000
00000001
00001000
00000000
00000100
00000000
00010000
00000000
,
00001000
00100000
00001000
00100000
00010000
00000000
00100000
00001000
00000000
00100000
00010000
00000000
01000000
00000000
00100000
00000000
,
10000000
00000000
01000000
00100000
01000000
00000000
00010000
00001000
00010000
00000000
00000010
00000100
00000010
00000000
00001000
00000001
,
00002000
00000000
00000000
00000000
00010000
00000000
00000000
00000000
00000000
00000000
00003001
00000000
00000001
00000100
00000001
00001000
,
00000010
00000000
00010000
00001000
00100000
00000000
00010000
01000000
00000000
00100000
10000000
00000000
01000000
00000000
00000000
00000000
,
10000000
01000000
10000000
00010000
00100000
00000000
00010000
01000000
00000000
00001000
00010000
00000000
00000100
00000000
00000000
00000000
,
00000010
00000001
00000010
00000100
00001000
00000000
00000010
00010000
00000000
00010000
00001000
00100000
01000000
00000000
10000000
00000000
,
10020000
00000000
00001000
00000000
00000000
10000000
10030000
00000000
,
11000000
00000000
00010000
00000000
01010000
00000000
00001000
00010000
00000100
00000000
00001000
00000000
00000010
00000000
00000100
00000000
,
00000101
00000000
00001000
00000000
00001100
00000000
00010000
00001000
00000000
00010000
00000000
00000000
00011000
00000000
00000000
00000000
,
00100000
00000000
01000000
00000000
10000000
00100000
10000000
01000000
10000000
00000000
00100000
00000000
00010000
00000000
00000000
00000000
,
00022000
00000000
00000000
00033000
,
00001000
00000000
00000100
00000000
00000001
00000000
00000010
00001000
00000000
00000000
00000010
00000001
00000100
00000000
00001000
00000000
,
00010000
00000000
00100000
00000000
10000000
00000000
01000000
00010000
00000000
00000000
00001000
00000000
00011000
00000000
00010000
00000000
,
01000000
00000000
10000000
00000000
00100000
00000000
00010000
00001000
00000000
00000000
00010000
00000000
00011000
00000000
00001000
00000000
,
00000100
00000001
00000000
00000010
00000000
00001000
00000000
00010000
00000000
00000000
00001000
00000000
00011000
00000000
00000000
00000000
,
01002000
00013000
00020100
00031000
00012000
00000000
00003010
00000010
,
00000001
00000000
00000100
00000000
00001000
00000000
00010000
00000100
00000000
00010000
00001000
00000000
00010000
01000000
00010000
01000000
,
10000000
00000000
00100000
00010000
00000000
00010000
00001000
00010000
00001000
00000000
00000100
00000001
00000000
00000001
00000010
00000001
,
00000020
00002030
00023000
02030000
,
23000000
00000000
00000000
00000000
00000000
00000000
00000000
00000000
00000000
00000000
00000000
00000000
30100000
00000000
00100000
01000000
,
00100000
00000000
02000000
00000000
00000000
00000000
03010000
00000000
00100000
00000000
00001000
00000000
00010000
00001000
00010000
00000000
,
00000100
00001000
00000100
00000010
00000001
00000200
00000000
00000000
,
00000310
00000010
00001000
00000100
00010000
00001000
00100000
00010000
,
20000000
00000000
30010000
01000000
00002000
00013000
00010000
00000100
,
00000010
00000000
00001000
00100000
01000000
00000000
00010000
00001000
,
00000100
00000001
00000100
00001000
00010000
00001000
00000100
00000001
,
00000010
00001000
00010000
00001000
00010000
00100000
10000000
01000000
,
00010000
00001000
00010000
00001000
00011000
00000000
00001100
00000000
,
00000100
00000000
00000001
00000000
00000100
00000000
00001000
00020000
,
00000000
00031000
01001000
00010100
,
00010000
00000000
00001000
00000000
00100000
00000000
01000000
20000000
,
00000000
00000000
31000000
00000000
00010000
00001000
00010000
00000100
,
00000010
00000000
00000010
00000001
00000000
00000001
00000100
00000000
,
00000100
00000010
00000000
00000010
00001000
00000000
00000100
00010000
,
00022000
00000000
00000000
00000000
,
00000000
00000000
00033000
00011000
,
00001000
00000000
00010000
00000000
01000000
00000000
10000000
00100000
00000000
00010000
00100000
01000000
00010000
00000000
00100000
00000000
,
00001000
00000000
00010000
00000000
00000100
00000000
00001000
00000010
00000000
00000001
00000010
00000100
00000001
00000000
00000010
00000000
,
00001000
00000000
00100000
00000000
00010000
00000000
01000000
10000000
00000000
01000000
00010000
00100000
01000000
00000000
00010000
00000000
,
00001000
00000010
00000000
00000001
00000000
00001000
00000000
00000100
00000000
00010000
00001000
00000000
00011000
00000000
00000000
00000000
,
00010100
00001000
01001000
00010000
00011000
00001000
00010000
00001000
,
00101000
00000000
00010000
00000000
00010010
00000000
00001000
00010000
00000000
00001000
00000100
00000000
00000001
00000000
00000010
00000100
,
00000001
00000000
00000100
00001000
00000000
00000100
00010000
00001000
00100000
00000000
10000000
00100000
00000000
01000000
10000000
00100000
,
02100000
03020000
00032000
00003020
,
00000130
00000001
00000100
00000000
00000000
00000000
00000010
00001000
00000010
00000000
00000000
00000000
00010000
00000000
00011000
00000000
,
00100000
00010000
00100000
00000000
00000000
00000000
00110000
00000000
01000000
10000000
01000000
00000000
00000000
00000000
00000000
00000000
,
10000000
00100000
00010000
00000000
00000000
00000000
00100000
00010000
00001000
00000000
00000000
00000000
00011000
00000000
00010000
00001000
,
00000100
00000010
00002000
00000000
00000002
00000000
00000000
00000000
00000000
00000000
00000000
00000000
00003003
00000000
00000000
00000000
;

//---------------dance-single - ----------------
#NOTES:
     dance-single:
     :
     Beginner:
     3:
     0.089593,0.143182,0.021626,0.043252,0.000000,87.000000,84.000000,3.000000,6.000000,0.000000,0.000000,0.089593,0.143182,0.021626,0.043252,0.000000,87.000000,84.000000,3.000000,6.000000,0.000000,0.000000:
0000
0000
0000
0000
,
0000
0000
0000
0000
,
0000
0000
0000
0000
,
0000
0000
0000
0000
,
1000
0000
1000
0000
,
0001
0000
0001
0000
,
1000
0000
0001
0001
,
0002
0000
0003
0000
,
0001
0000
0000
0000
,
0100
0000
0000
0000
,
0010
0000
0000
0000
,
1000
0000
0000
0000
,
0001
0000
0000
0000
,
0010
0000
0000
0000
,
0100
0000
0000
0000
,
1000
0000
0000
0000
,
0001
0000
0001
0000
,
0100
0000
0100
0000
,
1000
0000
1000
0000
,
0020
0000
0030
0000
,
0010
0000
0001
0000
,
0010
0000
0001
0000
,
0100
0000
0010
0000
,
0100
0000
0010
0000
,
1000
0000
0100
0000
,
1000
0000
0100
0000
,
1000
0000
0001
0000
,
0100
0000
0100
0000
,
0200
0000
0300
0010
,
0010
0000
0010
0000
,
1000
0000
0000
0000
,
0100
0000
0100
0000
,
0001
0000
0000
0000
,
0010
0000
0000
0000
,
1000
0000
0000
0000
,
0001
0000
0000
0000
,
0100
0000
0000
0000
,
0010
0000
0100
0000
,
0010
0000
0100
0000
,
0001
0000
1000
0000
,
0001
0000
0000
0000
,
1001
0000
0000
0000
,
1001
0000
0000
0000
,
2002
0000
0000
0000
,
0000
0000
3003
0000
,
1000
0000
0010
0000
,
0001
0000
0100
0000
,
1000
0000
0010
0000
,
0001
0000
0000
0000
,
0001
0000
0010
0000
,
1000
0000
0100
0000
,
0001
0000
0010
0000
,
1000
1000
1000
1000
,
1000
0000
0000
0000
,
0100
0000
0000
0000
,
0010
0000
0000
0001
,
0001
0002
0000
0003
;

//---------------dance-single - ----------------
#NOTES:
     dance-single:
     :
     Easy:
     6:
     0.187425,0.245455,0.093713,0.086504,0.000000,182.000000,169.000000,13.000000,12.000000,0.000000,0.000000,0.187425,0.245455,0.093713,0.086504,0.000000,182.000000,169.000000,13.000000,12.000000,0.000000,0.000000:
0000
0000
0000
0000
,
0000
0000
0000
0000
,
0000
0000
0000
0000
,
0000
0000
0000
0000
,
1000
0100
1000
0100
,
0001
0010
0001
0010
,
1000
0100
0001
0010
,
2002
0000
0000
3003
,
1000
0010
0100
0000
,
0001
0100
0010
0000
,
1000
0010
0100
0001
,
1001
0000
0000
0100
,
1000
0100
0010
0000
,
0001
0010
0100
0000
,
1000
0100
0010
0001
,
1001
0000
0000
0010
,
0010
0001
0100
1000
,
0010
0001
0200
0300
,
1000
0100
0001
0010
,
2002
0000
0000
3003
,
1000
0010
1000
0100
,
1000
0010
0001
0100
,
0001
0010
0001
0100
,
1000
0001
1001
0000
,
0100
0000
0010
0010
0010
0000
0100
0000
,
0001
1000
0020
0030
,
0100
0001
0100
1000
,
0100
0001
1000
0010
,
0220
0000
0000
0330
,
0110
0000
0100
0001
,
0100
0010
0100
0000
,
0010
1000
0010
0100
,
0010
1000
0010
0000
,
0110
0000
0001
0000
,
0100
0000
1000
0000
,
0010
0001
1000
0001
,
0010
0001
1000
0000
,
0100
0000
1000
0100
,
1000
0000
0100
0000
,
0010
0000
0001
0010
,
0001
0000
0010
0000
,
0100
0010
0100
1000
,
0001
1000
0100
0000
,
0220
0000
0000
0000
,
0000
0000
0330
0000
,
1000
1000
0010
0010
,
0001
0001
0100
0100
,
1000
0010
0001
0100
,
1000
0001
0110
0000
,
1000
0000
0001
0001
0001
0000
1000
0000
,
0100
0001
0010
0100
,
0010
1000
0010
0000
0100
0001
0100
0000
,
1000
0010
0001
0100
,
1001
0000
0000
0100
,
0110
0000
0110
0000
,
1000
1000
0000
0001
0001
0000
0100
0010
,
0200
0020
0000
0330
;

//---------------dance-single - ----------------
#NOTES:
     dance-single:
     :
     Medium:
     10:
     0.307913,0.368182,0.100921,0.151382,0.039648,299.000000,285.000000,14.000000,21.000000,0.000000,0.000000,0.307913,0.368182,0.100921,0.151382,0.039648,299.000000,285.000000,14.000000,21.000000,0.000000,0.000000:
0000
0000
0000
0000
,
0000
0000
0000
0000
,
2000
0000
0010
0000
0000
0010
3010
0000
,
0002
0000
0000
0000
0100
0000
0000
0100
0000
0000
0100
0000
0103
0000
0000
0000
,
0001
0010
0001
0000
1000
0100
1000
0000
,
0001
0100
0001
0000
1000
0010
1000
0000
,
0010
0100
0010
0000
1000
0001
1000
0002
,
2000
0000
0000
3003
,
0001
0100
0010
0000
1000
0100
0010
0000
,
0001
1000
0100
0000
1000
0001
0010
0000
,
0001
0100
0001
0100
0010
1000
0100
0010
,
0002
0000
0100
0000
0000
1000
1003
0000
,
1000
0010
0100
0000
0001
0010
0100
0000
,
1000
0001
0010
0000
0001
1000
0100
0000
,
1000
0010
1000
0010
0100
0001
0010
0100
,
2000
0000
0010
0000
0000
0001
3001
0000
,
0001
0010
0100
1000
0001
0010
0100
1000
,
0010
0100
0001
1000
0100
0100
0110
0000
,
0001
0100
0010
1000
0001
0010
0100
0000
,
2002
0000
0000
3003
,
1000
0000
0010
0000
0100
0000
0000
0001
0000
0000
1000
0000
1000
0000
0000
0000
,
0001
0000
0100
0000
0010
0000
0000
1000
0000
0000
0001
0000
0001
0000
0000
0000
,
1000
0000
0100
0000
0010
0000
0000
0001
0000
0000
0100
0000
0100
0000
0000
0000
,
0001
0000
0100
0000
0010
0000
0000
1000
0000
0000
0001
0000
1001
0000
0000
0000
,
1000
0010
0001
0010
1000
0000
0001
0100
,
1000
0000
0100
0000
0001
0000
0000
0010
0000
0000
0100
0000
0110
0000
0000
0000
,
1000
0010
0100
0000
0001
0100
0010
0000
,
2000
3200
0320
0032
,
2000
0000
0000
3003
,
0001
0100
0000
0000
0001
0000
0010
0000
,
0001
0000
1000
0000
0010
1000
0000
0000
,
0100
1000
0100
0000
0010
0000
0100
1000
,
0100
0000
0001
0000
0100
1000
0000
0000
,
1010
0010
0100
0001
,
0010
0100
1000
0010
,
0001
0010
0100
0000
1000
0100
0010
0000
,
0100
0001
1000
0010
0100
0000
0110
0000
,
0001
0000
0010
0000
0100
0000
1000
0010
,
0000
0001
0010
1000
,
0100
0000
0010
0000
0001
0000
0100
0010
,
0000
0000
1000
0000
0001
0000
0010
0100
,
0010
0000
0001
0100
0000
0010
0100
0000
,
1000
0100
0000
0001
0100
0000
0010
0000
,
2002
0000
0000
0000
,
0000
0000
0000
3003
,
1000
0000
0010
0000
0100
0000
0000
0001
0000
0000
0100
0000
0001
0000
0010
0000
,
0100
0000
0001
0000
0100
0000
0000
1000
0000
0000
0010
0000
0100
0000
1000
0000
,
0100
0000
0001
0000
0010
0000
0000
0100
0000
0000
1000
0000
0010
0000
0001
0000
,
0010
0000
0000
0100
0000
0000
0001
0000
1000
0000
0010
0000
0110
0000
0000
0000
,
1000
0010
0001
0100
1000
0000
0001
0010
,
1000
0000
0100
0000
0001
0000
0000
0010
0000
0000
0100
0000
0110
0000
0000
0000
,
1000
0010
0001
0000
1000
0100
0001
0000
,
0020
0230
2300
3002
,
0103
0100
0000
0010
0010
0000
1000
0001
,
0101
0100
0000
1010
0010
0000
1000
0001
,
0011
0010
0000
1100
0100
0000
1000
0001
,
0110
0002
2000
0000
0000
0000
3003
0000
;

//---------------dance-double - ----------------
#NOTES:
     dance-double:
     :
     Easy:
     6:
     0.182276,0.204546,0.108130,0.086504,0.000000,177.000000,162.000000,15.000000,12.000000,0.000000,0.000000,0.182276,0.204546,0.108130,0.086504,0.000000,177.000000,162.000000,15.000000,12.000000,0.000000,0.000000:
00000000
00000000
00000000
00000000
,
00000000
00000000
00000000
00000000
,
00000000
00000000
00000000
00000000
,
00000000
00000000
00000000
00000000
,
00001000
01000000
00001000
01000000
,
00000100
00010000
00000100
00010000
,
00001000
00100000
00000010
00010000
,
00022000
00000000
00000000
00033000
,
00001000
00100000
00010000
00000000
,
01000000
00001000
00010000
00000000
,
00001000
00100000
00000010
00010000
,
00011000
00000000
00000000
00010000
,
00010000
00000100
00001000
00000000
,
00000010
00010000
00001000
00000000
,
00010000
00000100
01000000
00001000
,
00011000
00000000
00000000
00010000
,
00010000
00001000
00000100
00000001
,
00000010
00001000
00020000
00030000
,
00001000
00010000
01000000
10000000
,
20020000
00000000
00000000
30030000
,
00010000
01000000
00001000
00010000
,
00000100
00001000
00000010
00010000
,
00001000
00100000
00010000
01000000
,
00001000
00010000
00011000
00000000
,
00000100
00001000
00001001
00001000
,
00000100
00010000
00002000
00003000
,
00100000
00010000
00100000
01000000
,
10000000
00100000
00010000
00001000
,
00022000
00000000
00000000
00033000
,
00011000
00000000
00010000
00000100
,
00010000
00001000
00010000
00000000
,
00001000
01000000
00001000
00010000
,
00001000
00100000
00001000
00000000
,
00011000
00000000
00010000
00000000
,
00001000
00000000
00000100
00000000
,
00000001
00000010
00000100
00000010
,
00000001
00000010
00000100
00000000
,
00010000
00000000
00001000
00000000
,
00100000
00000000
01000000
00000000
,
10000000
00000000
00100000
00000000
,
00010000
00000000
00001000
00000000
,
00100000
01000000
10000000
01000000
,
00100000
01000000
00010000
00000000
,
00022000
00000000
00000000
00000000
,
00000000
00000000
00033000
00000000
,
00001000
00001000
00000100
00000100
,
00000001
00000001
00000010
00000010
,
00001000
00010000
01000000
10000000
,
00100000
00010000
00011000
00000000
,
00001000
00100000
01100000
00100000
,
00001000
00010000
00000100
00000010
,
00000001
00000100
00010000
01000000
,
00100000
10000000
01000000
00010000
,
00011000
00000000
00000000
00001000
,
01001000
00000000
00010100
00000000
,
00010000
00010000
00000000
00001000
00001000
00000000
00000100
00000000
,
00000002
00002000
00000000
00003003
;

//---------------dance-double - ----------------
#NOTES:
     dance-double:
     :
     Medium:
     10:
     0.290406,0.327273,0.093713,0.151382,0.039648,282.000000,269.000000,13.000000,21.000000,0.000000,0.000000,0.290406,0.327273,0.093713,0.151382,0.039648,282.000000,269.000000,13.000000,21.000000,0.000000,0.000000:
// measure 0
00000000
00000000
00000000
00000000
,  // measure 1
00000000
00000000
00000000
00000000
,  // measure 2
00002000
00000000
01000000
00000000
00000000
01000000
01003000
00000000
,  // measure 3
00020000
00000000
00000000
00000000
00000100
00000000
00000000
00000100
00000000
00000000
00000100
00000000
00030100
00000000
00000000
00000000
,  // measure 4
00000100
00001000
00000001
00000000
00000100
00000000
00001000
00000000
,  // measure 5
01000000
00010000
10000000
00000000
01000000
00000000
00010000
00000000
,  // measure 6
00000100
00001000
00000010
00000000
00100000
00010000
01000000
00000000
,  // measure 7
00022000
00000000
00000000
00033000
,  // measure 8
00001000
00010000
01000000
00000000
10000000
00000000
00100000
00000000
,  // measure 9
00010000
00001000
00000100
00000000
00000001
00000000
00000010
00000000
,  // measure 10
00001000
00010000
01000000
00000000
00010000
00001000
00000100
00000000
,  // measure 11
00002000
00000000
00010000
00000000
00000000
01000000
01003000
00000000
,  // measure 12
01000000
00010000
10000000
00000000
00100000
00000000
00010000
00000000
,  // measure 13
00000010
00001000
00000001
00000000
00000100
00000000
00001000
00000000
,  // measure 14
00010000
00001000
00000100
00000000
00001000
00010000
01000000
00000000
,  // measure 15
00020000
00000000
00001000
00000000
00000000
00000010
00030010
00000000
,  // measure 16
00010000
00001000
00000100
00000010
00010000
00001000
00000100
00000010
,  // measure 17
00000100
00000001
00000010
00001000
00010000
00000000
00011000
00000000
,  // measure 18
00001000
00010000
00100000
10000000
00010000
01000000
00001000
00000000
,  // measure 19
00022000
00000000
00000000
00033000
,  // measure 20
00010000
00000000
00000100
00000000
00001000
00000000
00000000
00000010
00000000
00000000
00000100
00000000
00000001
00000000
00000000
00000000
,  // measure 21
00000010
00000000
00000100
00000000
00010000
00000000
00000000
00001000
00000000
00000000
00100000
00000000
01000000
00000000
00000000
00000000
,  // measure 22
10000000
00000000
00100000
00000000
01000000
00000000
00000000
00010000
00000000
00000000
00100000
00000000
01000000
00000000
00000000
00000000
,  // measure 23
00010000
00000000
00001000
00000000
00000010
00000000
00000000
00000001
00000000
00000000
00001000
00000000
00001001
00000000
00000000
00000000
,  // measure 24
00000001
00000100
00001000
00010000
00100000
00000000
10000000
01000000
,  // measure 25
00010000
00000000
00001000
00000000
00000100
00000000
00000000
00000001
00000000
00000000
00000010
00000000
00000110
00000000
00000000
00000000
,  // measure 26
00001000
00000100
00010000
00000000
00001000
01000000
00010000
00000000
,  // measure 27
20000000
32000000
03200000
00302000
,  // measure 28
00020000
00000000
00000000
00033000
,  // measure 29
00010000
00010000
00000000
00000000
00000100
00000000
00001000
00000000
,  // measure 30
00000100
00000000
00000010
00000000
00000001
00000001
00000000
00000000
,  // measure 31
00000100
00001000
00010000
00000000
00001000
00000000
00000100
00001000
,  // measure 32
00010000
00000000
00001000
00000000
00100000
00100000
00000000
00000000
,  // measure 33
01100000
10000000
00100000
00010000
,  // measure 34
00001000
00010000
00001000
00000100
,  // measure 35
00000001
00000010
00001000
00010000
,  // measure 36
00001000
00000000
00010000
00001000
00010000
00000000
00011000
00000000
,  // measure 37
00001000
00000000
00100000
00000000
01000000
00000000
10000000
00100000
,  // measure 38
00000000
00010000
00001000
00100000
,  // measure 39
01000000
00000000
00010000
00000000
00001000
00000000
00000100
00000001
,  // measure 40
00000000
00000010
00000100
00001000
,  // measure 41
00000010
00000000
00010000
00001000
00000000
00001000
00010000
00000000
,  // measure 42
00010000
01000000
00000000
01000000
10000000
00000000
00010000
00000000
,  // measure 43
20020000
00000000
00000000
00000000
,  // measure 44
00000000
00000000
00000000
30030000
,  // measure 45
10000000
00000000
00100000
00000000
00010000
00000000
00000000
00001000
00000000
00000000
00100000
00000000
00010000
00000000
01000000
00000000
,  // measure 46
00001000
00000000
00010000
00000000
00000100
00000000
00000000
00001000
00000000
00000000
00000010
00000000
00001000
00000000
00000100
00000000
,  // measure 47
00000010
00000000
00000001
00000000
00000100
00000000
00000000
00000010
00000000
00000000
00010000
00000000
00001000
00000000
00100000
00000000
,  // measure 48
00010000
00000000
00000000
01000000
00000000
00000000
00100000
00000000
10000000
00000000
00010000
00000000
10010000
00000000
00000000
00000000
,  // measure 49
10000000
01000000
00010000
00001000
00000100
00000000
00001000
00010000
,  // measure 50
00000100
00000000
00000010
00000000
00000001
00000000
00000000
00000100
00000000
00000000
00001000
00000000
00011000
00000000
00000000
00000000
,  // measure 51
01000000
00010000
00001000
00000000
00000100
00001000
00010000
00000000
,  // measure 52
00002000
00003200
00000302
00002003
,  // measure 53
00003010
00000010
00000000
00010000
00010000
00000000
00001000
00010000
,  // measure 54
01000000
01000000
00000000
10000000
10000000
00000000
00100000
00010000
,  // measure 55
00011000
00000010
00000000
00011000
00100000
00000000
00011000
00001000
,  // measure 56
00000100
00000002
00002000
00000000
00000000
00000000
00003003
00000000
;
