#TITLE:MAISON;
#SUBTITLE:;
#ARTIST:Dreamcatcher;
#TITLETRANSLIT:;
#SUBTITLETRANSLIT:;
#ARTISTTRANSLIT:;
#GENRE:K-POP;
#CREDIT:;
#BANNER:MAISON.png;
#JACKET:MAISON-jacket.png;
#BACKGROUND:MAISON-bg.png;
#LYRICSPATH:;
#CDTITLE:;
#MUSIC:MAISON.ogg;
#OFFSET:0.062000;
#SAMPLESTART:46.184147;
#SAMPLELENGTH:13.998833;
#SELECTABLE:YES;
#DISPLAYBPM:120:240;
#BPMS:0.000000=120,159.000000=60,163.000000=240,291.000000=120;
#STOPS:13.000000=0.25,13.500000=0.25,14.000000=0.25,14.500000=0.25
;
#BGCHANGES:0.000=MAISON-bg.png=1.000=0=0=1====#000000=#000000,
1.000=MAISON.avi=1.000=1=0=0=StretchNoLoop==CrossFade==,
99999=-nosongbg-=1.000=0=0=0 // don't automatically add -songbackground-
;
#KEYSOUNDS:;
#ATTACKS:;

//---------------dance-single - ----------------
#NOTES:
     dance-single:
     :
     Hard:
     13:
     0.539097,0.769659,0.400745,0.392396,0.480059,452.000000,404.000000,48.000000,47.000000,0.000000,0.000000,0.539097,0.769659,0.400745,0.392396,0.480059,452.000000,404.000000,48.000000,47.000000,0.000000,0.000000:
0000
0000
0000
0000
,
0000
0000
0000
0000
,
0000
0000
0000
0000
,
0000
0000
0000
0000
0000
0000
0000
0000
0000
0000
0000
0000
1000
0000
0000
0001
,
0000
0000
0100
0000
0100
0010
0000
0100
0000
0010
1000
0001
1000
0000
0000
1000
,
0000
0000
0010
0000
0010
0100
0000
0010
0000
0100
0001
1000
0001
0000
0000
0001
,
0000
0000
0100
0000
0010
1000
0000
0001
0000
0100
0010
0100
0001
0010
0000
0001
,
0100
0010
1000
0000
0010
0100
0000
0010
2000
0000
0000
0000
3100
0000
0100
0000
,
1000
0000
0010
0000
0001
0000
0010
0000
1000
0000
0100
0000
0010
0100
0000
1000
,
0000
0010
0000
0100
0000
0001
0000
1000
0000
0100
0000
0010
0000
0000
0000
0000
,
0012
0000
0000
0000
0203
0000
0000
0000
0320
0000
0000
0000
1030
0000
0000
1100
,
0000
0000
1001
0000
0001
0000
0000
0011
0000
0000
1001
0000
1000
0000
0001
0000
,
0010
0000
1000
0000
0010
0000
0001
0000
0100
0010
0000
1000
0000
0001
0000
0010
,
0000
0100
0000
2000
0000
0000
0000
0000
3010
0100
0000
0001
0000
1000
0000
0100
,
0000
0010
0000
0002
0000
0000
0000
0000
0103
0010
0000
1000
0000
0001
0000
0100
,
0000
1000
0000
0100
0010
0000
1000
0000
0100
0000
0010
0000
0012
0000
0000
0000
,
0203
0000
0000
0000
2300
0000
0000
0000
3010
0000
0010
0000
0001
0100
0000
1000
,
0000
0100
0000
0010
0000
1000
0000
0100
0000
0010
0000
0002
0000
0000
0000
0000
,
0103
0000
0000
0000
0100
0000
0010
0000
1000
0000
0001
0000
0010
0100
0000
1000
,
0000
0001
0000
0010
0000
1000
0000
0010
0000
0100
0000
2000
0000
0000
0000
0000
,
3002
0023
2030
3200
,
0000
0301
0001
1000
0100
0010
0012
0000
,
0203
0000
0010
0310
0000
1010
0000
0101
,
0000
0011
0000
1100
0000
1001
1001
0001
,
0100
0000
0010
1000
0010
0000
1000
0010
1000
0000
0001
0000
0101
0000
0000
1010
,
0000
0000
0010
0100
0010
0000
0100
0010
0100
0000
0001
0000
0011
0000
0000
1100
,
0000
0000
0100
1000
0100
0000
1000
0100
1000
0000
0001
0000
0101
0000
0000
0110
,
0000
0000
1010
0000
1100
0000
0000
0110
0000
0000
0011
0000
2002
0000
3003
0000
,
1001
0000
1000
0010
0100
0000
0010
1000
0100
0000
0010
0000
0011
0000
0000
0101
,
0000
0000
0100
0001
1000
0000
0010
1000
0001
0000
0010
0000
0110
0000
0000
1100
,
0000
0000
1000
0010
0100
0000
0010
1000
0100
0000
0010
0000
0011
0000
0000
0101
,
0000
0000
1100
0000
1010
0000
0000
1001
0000
0000
0110
0000
2002
0000
0000
0000
,
0000
0000
0000
3003
,
1000
0010
0001
1000
0100
0001
0020
0000
,
0230
0000
2300
0000
0001
3002
0000
0000
,
0000
0103
0010
0001
0010
1000
0200
0000
,
0320
0032
0203
2300
,
0000
0100
3200
0000
0000
0010
0320
0000
,
0031
0010
1000
0100
0010
0001
0101
0100
,
1000
0100
0001
0010
0100
1000
2020
0000
,
0000
3000
0100
0001
0100
1030
2002
0000
,
3003
0010
0100
0001
,
0010
1000
0010
0100
,
1000
0010
0001
0010
,
0100
0001
1000
0200
,
0300
0000
0000
0000
0100
1000
0000
0000
0000
0000
0000
0000
1000
0010
0000
0000
,
0010
0100
0000
0000
0000
0000
0000
0000
0100
0001
0000
0000
0000
0000
0000
0000
,
0001
0010
0000
0000
0000
0000
0000
0000
0010
0100
0000
0000
0100
0000
0010
0000
,
0100
0000
0010
0100
0010
0000
2002
0000
,
3003
0100
0010
1000
,
0100
0001
0100
0010
,
0001
0100
1000
0100
,
0010
1000
0001
0020
,
0030
0000
0000
0000
0010
0001
0000
0000
0000
0000
0000
0000
0001
0100
0000
0000
,
0100
0010
0000
0000
0000
0000
0000
0000
0010
1000
0000
0000
0000
0000
0000
0000
,
1000
0100
0000
0000
0000
0000
0000
0000
0100
0010
0000
0000
0010
0100
0000
0000
,
0100
0020
0000
0000
0000
0000
0000
0000
0130
0000
0000
0000
2002
0000
0000
0000
,
3003
0000
1001
0000
0001
0010
1000
0000
,
0010
0001
1000
0000
0010
0000
1010
0000
,
1000
0000
0001
0000
1000
0100
0001
0000
,
0100
1000
0001
0000
0100
0000
0101
0000
,
0001
0000
0000
0000
0001
0010
0000
0000
0000
0000
0000
0000
0010
0100
0000
0000
,
0100
1000
0000
0000
0000
0000
0000
0000
1000
0010
0000
0000
0000
0000
0000
0000
,
0010
0100
0000
0000
0000
0000
0000
0000
0100
0001
0000
0000
0001
1000
0000
0000
,
1000
0020
0000
0000
0130
0000
0010
0000
0100
0000
0000
0000
0110
0000
0000
0000
,
0010
0000
1001
0000
0001
0010
0100
0010
,
0001
0100
1000
0100
0001
0000
0010
0000
,
0100
0000
1001
0000
1000
0100
0010
0100
,
1000
0010
0001
0010
1000
0000
0100
0000
,
0010
0000
0000
0000
0001
1000
0000
0000
0000
0000
0000
0000
1000
0010
0000
0000
,
0010
0200
0000
0000
0000
0000
0000
0000
0300
0000
0000
0000
0100
0001
0000
0000
,
0000
0000
0001
0010
0000
0000
0000
0000
0010
1000
0000
0000
1000
0100
0000
0000
,
0000
0000
0100
0001
0000
0000
0000
0000
0001
0010
0000
0000
0220
0000
0000
0000
,
0000
0000
0000
0330
;

//---------------dance-double - ----------------
#NOTES:
     dance-double:
     :
     Hard:
     13:
     0.527170,0.738873,0.692954,0.409094,0.133582,442.000000,359.000000,83.000000,49.000000,0.000000,0.000000,0.527170,0.738873,0.692954,0.409094,0.133582,442.000000,359.000000,83.000000,49.000000,0.000000,0.000000:
00000000
00000000
00000000
00000000
,
00000000
00000000
00000000
00000000
,
00000000
00000000
00000000
00000000
,
00000000
00000000
00000000
00000000
00000000
00000000
00000000
00000000
00000000
00000000
00000000
00000000
00001000
00000000
00000000
00010000
,
00000000
00000000
01000000
00000000
10000000
00100000
00000000
01000000
00000000
00100000
20000000
00000000
31000000
00000000
00000000
00010000
,
00000000
00000000
00001000
00000000
00000010
00000001
00000000
00000100
00000000
00000001
00000020
00000000
00001030
00000000
00000000
00010000
,
00000000
00000000
01000000
00000000
10000000
00100000
00000000
00010000
00000000
00100000
20000000
00000000
31000000
00010000
00000000
00010000
,
00001000
00000000
00010000
00000000
00001000
00000100
00000000
00000100
00000002
00000000
00000000
00000000
00000013
00000000
00000010
00000000
,
00001000
00010000
00001000
00000100
00001000
00010000
00100000
10000000
,
01000000
00100000
01000000
10000000
01000000
00010000
00011000
00000000
,
00001020
00000000
00000000
00000000
00000032
00000000
00000000
00000000
00000203
00000000
00000000
00000000
00001300
00000000
00000000
00011000
,
00000000
00000000
00010100
00000000
00010000
00000000
00000000
00011000
00000000
00000000
01001000
00000000
01000000
00000000
00001000
00000000
,
00010000
00100000
00010000
00001000
00010000
01000000
00010000
00001000
,
00000100
00000001
00000020
00000000
00001030
00010000
00100000
10000000
,
01000000
00100000
00020000
00000000
01030000
00001000
00010000
00100000
,
00001000
00000010
00010000
00001000
00000100
00000001
00000021
00000000
,
00002030
00000000
00023000
00000000
00130000
00100000
10000000
01000000
,
00010000
01000000
00100000
00010000
01000000
00001000
00020000
00000000
,
00030100
00000000
00000100
00000010
00000001
00000100
00001000
00000100
,
00000010
00010000
00001000
00000100
00010000
01000000
00200000
00000000
,
20300000
32000000
03020000
00032000
,
00000000
00003100
00000100
00000001
00000010
00001000
00021000
00000000
,
00030200
00000000
00000010
00000310
00000000
00000011
00000000
00001100
,
00000000
01010000
00000000
10100000
00000000
10010000
10010000
10000000
,
00100000
00000000
00010000
00100000
01000000
00000000
00100000
00000000
00010000
00000000
00001000
00000000
00011000
00000000
00000000
00010100
,
00000000
00000000
00000100
00000010
00000001
00000000
00000100
00000000
00001000
00000000
00000100
00000000
00000110
00000000
00000000
00010010
,
00000000
00000000
00010000
00001000
00000100
00000000
00010000
00000000
01000000
00000000
00100000
00000000
10100000
00000000
00000000
11000000
,
00000000
00000000
01010000
00000000
00011000
00000000
00000000
00001010
00000000
00000000
00000011
00000000
00000202
00000000
00000303
00000000
,
00000110
00000000
00000010
00010000
00001000
00000000
00000100
00000000
00001000
00000000
00010000
00000000
01010000
00000000
00000000
11000000
,
00000000
00000000
10000000
00100000
00010000
00000000
00100000
00000000
01000000
00000000
00010000
00000000
00110000
00000000
00000000
00101000
,
00000000
00000000
00001000
00010000
00000100
00000000
00000010
00000000
00000001
00000000
00000100
00000000
00000110
00000000
00000000
00010010
,
00000000
00000000
00011000
00000000
00101000
00000000
00000000
01100000
00000000
00000000
10010000
00000000
20020000
00000000
00000000
00000000
,
00000000
00000000
00000000
30030000
,
10000000
01000000
00100000
00010000
00001000
00000010
00000200
00000000
,
00000302
00000000
00002003
00000000
00000100
00003200
00000000
00000000
,
00000000
00010300
00001000
00100000
01000000
10000000
00200000
00000000
,
00320000
00032000
00003200
00000302
,
00000000
00000010
00000023
00000000
00000000
00001000
00002030
00000000
,
00013000
01000000
10000000
01000000
00100000
00010000
00011000
00001000
,
00000010
00000001
00000010
00000100
00001000
00010000
00022000
00000000
,
00000000
00033000
00010010
00010100
00101000
01001000
00022000
00000000
,
00033000
00010000
00001000
00000010
,
00001000
00010000
00100000
00010000
,
00001000
00000100
00001000
00010000
,
01000000
00010000
00001000
00000020
,
00000030
00000011
00000000
00000101
,
00001100
00000000
00011000
00000000
,
01010000
00000000
00000000
00000000
11000000
00000000
10000000
00100000
,
10000000
00000000
00010000
01000000
00010000
00000000
00022000
00000000
,
00033000
00001000
00010000
01000000
,
00010000
00001000
00000100
00001000
,
00010000
00100000
00010000
00001000
,
00000010
00001000
00010000
02000000
,
03000000
11000000
00000000
10100000
,
00110000
00000000
00011000
00000000
,
00001010
00000000
00000011
00000101
,
00002100
00000000
00000000
00020000
,
00033000
00000000
00011000
00000000
00001000
00010000
01000000
00000000
,
00010000
01000000
10000000
00000000
00100000
00000000
00110000
00000000
,
00010000
00000000
00001000
00000000
00010000
00001000
00000010
00000000
,
00001000
00000010
00000001
00000000
00000100
00000000
00001100
00000000
,
00001000
00011000
00000000
01001000
,
01100000
00000000
10100000
00000000
,
11000000
00000000
00110000
00101000
,
00011000
00000000
00001000
00010000
00000100
00000000
00000110
00000000
,
00000001
00000000
00001001
00000000
00001000
00000100
00000010
00000001
,
00001000
00000000
00000010
00010000
00001000
00000000
00100000
00000000
,
00010000
00000000
10010000
00000000
10000000
01000000
00100000
00010000
,
01000000
00000000
00001000
00010000
00000100
00000000
00000010
00000000
,
00000001
00000101
00000000
00001010
,
00020200
00000000
00030300
00101000
,
00000000
01100000
00000000
00000000
11000000
00000000
10100000
00000000
,
00000000
00110000
00000000
00000000
00011000
00000000
00002020
00000000
,
00000000
00000000
00000000
00003030
;

//---------------dance-single - ----------------
#NOTES:
     dance-single:
     :
     Beginner:
     5:
     0.168170,0.246291,0.041744,0.008349,0.000000,141.000000,136.000000,5.000000,1.000000,0.000000,0.000000,0.168170,0.246291,0.041744,0.008349,0.000000,141.000000,136.000000,5.000000,1.000000,0.000000,0.000000:
// measure 0
0000
0000
0000
0000
,  // measure 1
0000
0000
0000
0000
,  // measure 2
0000
0000
0000
0000
,  // measure 3
0000
0000
0000
1000
,  // measure 4
0000
1000
1000
0001
,  // measure 5
0000
0001
0001
1000
,  // measure 6
0000
1000
1000
0001
,  // measure 7
0000
0001
0001
0100
,  // measure 8
0000
1000
0000
0010
,  // measure 9
0000
0001
0000
0100
,  // measure 10
0000
1000
0000
0010
,  // measure 11
0000
0001
0000
1000
,  // measure 12
0000
0100
0000
0001
,  // measure 13
0000
0010
0000
1000
,  // measure 14
0000
0100
0000
0001
,  // measure 15
0000
0010
0000
0100
,  // measure 16
0000
0010
0000
0001
,  // measure 17
0000
0100
0000
1000
,  // measure 18
0000
0010
0000
0001
,  // measure 19
0000
0100
0000
1000
,  // measure 20
0000
0010
0000
0100
,  // measure 21
0000
0010
0000
1000
,  // measure 22
0000
0100
0000
0010
,  // measure 23
0010
0010
0010
0010
,  // measure 24
0000
0001
0001
0100
,  // measure 25
0000
1000
1000
0100
,  // measure 26
0000
0001
0001
0100
,  // measure 27
0000
1000
0000
1001
,  // measure 28
0000
1000
1000
0010
,  // measure 29
0000
0001
0001
0010
,  // measure 30
0000
1000
1000
0010
,  // measure 31
0000
0001
0000
1001
,  // measure 32
0000
0000
0000
0010
,  // measure 33
0000
0000
0000
1000
,  // measure 34
0000
0000
0000
0001
,  // measure 35
0000
0000
0000
0100
,  // measure 36
0000
0100
0100
0100
,  // measure 37
0000
0010
0000
0100
,  // measure 38
0000
0010
0010
0010
,  // measure 39
0000
1000
0001
1001
,  // measure 40
0000
0000
0000
1000
,  // measure 41
0000
0000
0000
1000
,  // measure 42
0000
0000
0000
1000
,  // measure 43
0000
0000
0000
1000
,  // measure 44
0000
1000
0000
1000
,  // measure 45
0000
0001
0000
1000
,  // measure 46
0000
0001
0000
1000
,  // measure 47
0000
0001
0000
1001
,  // measure 48
0000
0000
0000
0001
,  // measure 49
0000
0000
0000
0001
,  // measure 50
0000
0000
0000
0001
,  // measure 51
0000
0000
0000
0001
,  // measure 52
0000
0001
0000
0001
,  // measure 53
0000
1000
0000
0001
,  // measure 54
0000
1000
0000
1001
,  // measure 55
0000
0000
0000
0100
,  // measure 56
0100
0000
0000
0100
,  // measure 57
0000
0010
0000
1000
,  // measure 58
0000
0000
0000
0010
,  // measure 59
0000
0100
0000
0001
,  // measure 60
0000
0000
0000
0100
,  // measure 61
0000
0010
0000
1000
,  // measure 62
0000
0001
0000
0100
,  // measure 63
0000
0010
0000
1000
,  // measure 64
1000
0000
0000
0001
,  // measure 65
0000
0100
0000
0010
,  // measure 66
0000
0000
0000
1000
,  // measure 67
0000
0010
0000
0100
,  // measure 68
0000
0000
0000
0001
,  // measure 69
0000
0100
0000
0010
,  // measure 70
0000
1000
0000
0001
,  // measure 71
0000
0000
0000
1000
,  // measure 72
0000
0000
0010
0020
,  // measure 73
0000
0000
0000
0030
;

//---------------dance-single - ----------------
#NOTES:
     dance-single:
     :
     Easy:
     7:
     0.287439,0.369437,0.208721,0.091837,0.000000,241.000000,216.000000,25.000000,11.000000,0.000000,0.000000,0.287439,0.369437,0.208721,0.091837,0.000000,241.000000,216.000000,25.000000,11.000000,0.000000,0.000000:
0000
0000
0000
0000
,
0000
0000
0000
0000
,
0000
0000
0000
0000
,
0000
0000
0000
1000
,
0001
1000
1000
0001
,
1000
0001
0001
0100
,
0010
0000
0100
0000
0100
0000
0010
0100
,
0010
0000
0100
0010
0100
0000
0001
0000
,
1000
0001
1000
0010
,
0100
0010
0100
0001
,
1000
0010
0100
0001
,
1000
0000
0010
0000
0100
0010
0100
0000
,
0010
0100
0010
1000
,
0001
1000
0001
0100
,
0010
1000
0001
0100
,
0010
1000
0001
0100
,
1000
0000
0010
0000
0001
0000
0100
0100
,
0100
0000
0010
0010
0010
0000
1000
0000
,
0100
0000
0001
0000
0010
0000
1000
1000
,
1000
0000
0001
0001
0001
0000
0010
0000
,
0100
1000
0001
1001
,
0000
0010
0100
0010
,
1000
0001
0100
1000
,
0010
0001
1000
1001
,
0000
0010
0010
0000
1000
0000
0100
0000
,
0000
0010
0010
0000
0001
0000
0100
0000
,
0000
0010
0010
0000
1000
0000
0100
0000
,
1000
0001
1000
1001
,
0000
0010
0010
0000
0001
0000
0100
0000
,
0000
0010
0010
0000
1000
0000
0100
0000
,
0000
0010
0010
0000
0001
0000
0100
0000
,
0001
1000
0001
1001
,
0000
0000
0000
0010
,
0000
0010
1000
0100
,
0010
0001
0200
0310
,
0000
0010
0100
0001
,
0010
0100
2000
3001
,
0000
0002
0003
2000
,
3010
0100
0001
1000
,
0010
0100
0001
1001
,
0000
0000
0000
1000
,
0000
0001
0000
1000
,
0000
0010
0000
1000
,
0000
0100
0000
0010
,
0000
0001
0000
0100
,
0000
0110
0000
0001
,
1000
0000
0110
0000
,
1001
0000
0001
1000
,
2002
3003
0000
0001
,
0000
1000
0000
0001
,
0000
0100
0000
0001
,
0000
0010
0000
0100
,
0000
1000
0000
0010
,
0000
0110
0000
1000
,
0001
0000
0110
0000
,
1001
0000
0010
0100
,
0020
0000
0000
0130
,
0000
0000
0100
0001
,
0010
0001
0100
0000
,
0000
0000
0010
1000
,
0100
1000
0010
0000
,
0000
0110
0000
1000
,
0001
0000
0110
0000
,
1001
0000
0110
0001
,
1000
0000
0000
2002
,
3003
0000
1000
0100
,
0010
0100
1000
0000
,
0000
0000
0001
0010
,
0100
0010
0001
0000
,
0000
1001
0000
0110
,
0110
0000
0000
1010
,
0000
0101
0000
0011
,
0000
1100
0000
2002
,
0000
0000
0000
3003
;

//---------------dance-single - ----------------
#NOTES:
     dance-single:
     :
     Medium:
     10:
     0.399552,0.461796,0.375698,0.258814,0.029221,335.000000,290.000000,45.000000,31.000000,0.000000,0.000000,0.399552,0.461796,0.375698,0.258814,0.029221,335.000000,290.000000,45.000000,31.000000,0.000000,0.000000:
0000
0000
0000
0000
,
0000
0000
0000
0000
,
0000
0000
0000
0000
,
0000
0000
0000
0000
0000
0000
0000
0000
0000
0000
0000
0000
1000
0000
0000
1000
,
0000
0000
1000
0000
0001
0000
0000
0000
1000
0000
0000
0000
0001
0000
0000
0001
,
0000
0000
0001
0000
1000
0000
0000
0000
0001
0000
0000
0000
0100
0000
0000
0100
,
0000
0100
0010
0000
0100
0000
0110
0000
,
1001
0000
0110
0100
0010
1000
0001
0000
,
0010
0000
0100
0000
1000
0000
0010
0100
,
0001
0000
0010
0001
0100
0000
0010
0000
,
1000
0100
0010
0001
,
1000
0000
0010
0000
0100
0010
0110
0000
,
0100
0000
0001
0000
0010
0000
0100
1000
,
0010
0000
1000
0100
0010
0000
0100
1000
,
0001
0000
0010
0001
1000
0000
0001
0100
,
0010
0000
0100
0001
0010
0100
2000
0000
,
3020
0230
0302
1003
,
1010
0001
0101
2000
,
3200
0320
0032
1003
,
1100
0001
0011
1000
,
0001
1000
0100
0000
1000
0001
0020
0000
,
0130
0000
0100
1000
0010
0100
0010
0000
,
0010
0000
0001
0100
0000
1000
0000
0001
,
0000
1000
0000
0001
0000
1000
1001
0000
,
0000
0001
0100
0001
0100
0010
0010
0000
,
0000
1000
0100
1000
0100
0010
0010
0000
,
0000
0000
0001
0000
0100
0000
0001
0000
0100
0000
0010
0000
0010
0000
0000
1000
,
0000
0000
0001
0000
0010
0000
0000
0001
0000
0000
1000
0000
1001
0000
0000
0000
,
0000
0001
0010
0001
0010
0100
0100
0000
,
0000
1000
0010
1000
0010
0100
0100
0000
,
0000
0000
0001
0000
0010
0000
0001
0000
0010
0000
0100
0000
0100
0000
0000
1000
,
0000
0000
0010
0000
0100
0000
0000
0001
0000
0000
1000
0000
2002
0000
0000
0000
,
0000
0000
3003
1001
,
1000
0010
1000
0000
0001
0000
0010
0000
,
0100
0000
1000
0000
0010
0010
0000
0000
,
0000
0100
0001
0100
0010
0100
0002
0000
,
2003
3200
0320
0032
,
0000
1003
0010
0000
0000
0010
0100
0000
,
0100
0001
0010
0000
0100
1000
0010
0000
,
0100
0001
1000
0010
0100
0001
2002
0000
,
0000
0000
3003
0000
0000
0010
2002
0000
,
3003
1000
0010
0100
,
0010
1000
0200
0000
,
0320
0000
0031
0100
,
0010
1000
0001
1001
,
0000
0110
0000
1001
,
1001
0000
0101
0000
,
1010
0000
0110
0100
,
0010
1000
0001
2002
,
3003
1000
0100
0010
,
0100
1000
0020
0000
,
0230
0000
0301
0010
,
0100
1000
0001
1001
,
0000
0110
0000
1001
,
1001
0000
0011
0000
,
1100
0000
0110
0010
,
0200
0000
0000
0310
,
0010
0100
1000
0100
,
0001
0100
1000
0100
,
0010
0001
0010
1000
,
0010
0001
0010
0100
,
1000
1100
0000
1010
,
1010
0000
0011
0000
,
0101
0000
1001
0001
,
0100
0000
0010
0100
0010
0000
1000
0000
,
0100
0001
0100
1000
,
0010
0001
1000
0100
,
0001
0010
1000
0010
,
0001
0100
0010
1000
,
0001
0011
0000
1010
,
2020
0000
3030
1100
,
0000
0101
0000
0000
1001
0000
0011
0000
,
0000
1010
0000
0000
1001
0000
0220
0000
,
0000
0000
0000
0330
;

//---------------dance-double - ----------------
#NOTES:
     dance-double:
     :
     Easy:
     8:
     0.286246,0.369437,0.200372,0.091837,0.000000,240.000000,216.000000,24.000000,11.000000,0.000000,0.000000,0.286246,0.369437,0.200372,0.091837,0.000000,240.000000,216.000000,24.000000,11.000000,0.000000,0.000000:
00000000
00000000
00000000
00000000
,
00000000
00000000
00000000
00000000
,
00000000
00000000
00000000
00000000
,
00000000
00000000
00000000
00001000
,
00010000
00000010
00000010
00010000
,
00001000
00100000
00100000
00001000
,
00010000
00000000
00000100
00000000
00000100
00000000
00010000
00001000
,
00010000
00000000
00001000
00010000
00001000
00000000
00010000
00000000
,
01000000
00010000
01000000
10000000
,
00100000
10000000
00100000
00010000
,
00001000
00100000
01000000
10000000
,
00100000
00000000
00010000
00000000
00001000
00010000
00001000
00000000
,
00000100
00001000
00000100
00000001
,
00000010
00000001
00000010
00001000
,
00010000
00000100
00000010
00000001
,
00001000
00000010
00010000
00001000
,
00100000
00000000
01000000
00000000
10000000
00000000
00100000
00010000
,
00001000
00000000
00010000
00001000
00000010
00000000
00000001
00000000
,
00000100
00000000
00000010
00000000
00010000
00000000
00001000
00100000
,
00010000
00000000
00100000
00001000
00010000
00000000
00100000
00000000
,
10000000
01000000
00100000
01100000
,
00000000
01000000
00010000
00001000
,
00000010
00000001
00000100
00001000
,
00010000
00001000
00000010
00000110
,
00000000
00000100
00000010
00000000
00000001
00000000
00000100
00000000
,
00000000
00000010
00001000
00000000
00000100
00000000
00000010
00000000
,
00000000
00000001
00000100
00000000
00000010
00000000
00010000
00000000
,
00001000
00100000
01000000
01100000
,
00000000
00100000
00010000
00000000
01000000
00000000
00100000
00000000
,
00000000
10000000
01000000
00000000
00100000
00000000
00010000
00000000
,
00000000
10000000
00100000
00000000
01000000
00000000
00010000
00000000
,
00100000
00001000
00010000
00011000
,
00000000
00000000
00000000
01000000
,
00000000
01000000
00010000
00000100
,
00000001
00000010
00000200
00000310
,
00000000
00000010
00001000
00100000
,
10000000
00100000
01000000
20000000
,
30000000
00200000
00300000
00020000
,
00031000
00000010
00000001
00000100
,
00001000
00010000
00001000
00011000
,
00000000
00000000
00000000
00010000
,
00000000
00001000
00000000
00000100
,
00000000
00000001
00000000
00000100
,
00000000
00001000
00000000
00010000
,
00000000
00100000
00000000
10000000
,
00000000
11000000
00000000
01000000
,
00010000
00000000
00011000
00000000
,
00001010
00000000
00000010
00000001
,
00000202
00000303
00000000
00001000
,
00000000
00010000
00000000
00100000
,
00000000
10000000
00000000
00100000
,
00000000
00010000
00000000
00001000
,
00000000
00000100
00000000
00000001
,
00000000
00000011
00000000
00000010
,
00001000
00000000
00011000
00000000
,
00110000
00000000
00100000
10000000
,
12000000
00000000
00000000
03100000
,
00000000
00000000
00100000
00001000
,
00000010
00000001
00001000
00000000
,
00000000
00000000
00000100
00010000
,
01000000
10000000
00010000
00000000
,
00000000
10010000
00000000
00010000
,
01000000
00000000
01001000
00000000
,
00011000
00000000
00010100
00000100
,
00000010
00000000
00000000
00002002
,
00003003
00000000
00000001
00000100
,
00010000
01000000
10000000
00000000
,
00000000
00000000
10000000
00100000
,
00001000
00000010
00000001
00000000
,
00000000
00001001
00000000
00001000
,
00000100
00000000
00000000
00010100
,
00000000
00011000
00000000
01001000
,
00000000
01100000
00000000
20020000
,
00000000
00000000
00000000
30030000
;

//---------------dance-double - ----------------
#NOTES:
     dance-double:
     :
     Medium:
     11:
     0.405515,0.461796,0.409094,0.175326,0.029221,340.000000,291.000000,49.000000,21.000000,0.000000,0.000000,0.405515,0.461796,0.409094,0.175326,0.029221,340.000000,291.000000,49.000000,21.000000,0.000000,0.000000:
00000000
00000000
00000000
00000000
,
00000000
00000000
00000000
00000000
,
00000000
00000000
00000000
00000000
,
00000000
00000000
00000000
00000000
00000000
00000000
00000000
00000000
00000000
00000000
00000000
00000000
00001000
00000000
00000000
00001000
,
00000000
00000000
00001000
00000000
00010000
00000000
00000000
00000000
00011000
00000000
00000000
00000000
00010000
00000000
00000000
00010000
,
00000000
00000000
00010000
00000000
00001000
00000000
00000000
00000000
00011000
00000000
00000000
00000000
00010000
00000000
00000000
00001000
,
00000000
00010000
00001000
00000000
00010000
00000000
00010100
00000000
,
01001000
00000000
00011000
00001000
00100000
01000000
10000000
00000000
,
00100000
00000000
00010000
00000000
00100000
00000000
10000000
01000000
,
00010000
00000000
01000000
00010000
00001000
00000000
00010000
00000000
,
00001000
00000010
00000001
00000100
,
00001000
00000000
00000100
00000000
00000001
00000010
00000110
00000000
,
00000010
00000000
00000001
00000000
00000100
00000000
00001000
00010000
,
00100000
00000000
00010000
00100000
10000000
00000000
00100000
10000000
,
01000000
00000000
10000000
01000000
00010000
00000000
01000000
00010000
,
00001000
00000000
00010000
00001000
00000010
00000001
00002000
00000000
,
00003100
00020000
00031000
00100000
,
00110000
10000000
10100000
00020000
,
01030000
00002000
00013000
00000100
,
00001100
00000001
00000011
00001000
,
00000001
00000100
00001000
00020000
,
00130000
00000000
00100000
10000000
01000000
00100000
01000000
00000000
,
00010000
00000000
00001000
00000010
00000000
00000001
00000000
00000100
,
00000000
00001000
00000000
00010000
00000000
00001000
00011000
00000000
,
00000000
00010000
01000000
00010000
01000000
10000000
00100000
00000000
,
00000000
00100000
00010000
00100000
00010000
00001000
00000010
00000000
,
00000000
00000000
00000010
00000000
00000001
00000000
00000010
00000000
00000001
00000000
00000100
00000000
00001000
00000000
00000000
01000000
,
00000000
00000000
00001000
00000000
00010000
00000000
00000000
00000100
00000000
00000000
00010000
00000000
00011000
00000000
00000000
00000000
,
00000000
00001000
00000100
00001000
00000100
00000001
00000010
00000000
,
00000000
00000010
00001000
00000010
00001000
00010000
00100000
00000000
,
00000000
00000000
00100000
00000000
10000000
00000000
00100000
00000000
10000000
00000000
01000000
00000000
00010000
00000000
00000000
00000100
,
00000000
00000000
00010000
00000000
00001000
00000000
00000000
01000000
00000000
00000000
00001000
00000000
00022000
00000000
00000000
00000000
,
00000000
00000000
00033000
00011000
,
00010000
00000100
00001000
00000000
00000100
00000000
00000010
00000000
,
00000001
00000000
00000100
00000000
00001000
00010000
00000000
00000000
,
00000000
00001000
00010000
00100000
00010000
00001000
00020000
00000000
,
00130000
20000000
31000000
00020000
,
00000000
00031000
00001000
00000000
00000000
00010000
00010000
00000000
,
00001000
00000010
00000001
00000000
00000010
00001000
00010000
00000000
,
00100000
10000000
01000000
00100000
00001000
00010000
00022000
00000000
,
00000000
00000000
00033000
00000000
00000000
00011000
00022000
00000000
,
00033000
00001000
00100000
01000000
,
10000000
01000000
00100000
00001000
,
00010000
00100000
10000000
01000000
,
00100000
00001000
00010000
00011000
,
00000000
00010100
00000000
00000110
,
00000110
00000000
00000011
00000000
,
00000101
00000000
00001100
00001000
,
00010000
00100000
00010000
00022000
,
00033000
00010000
00000100
00000010
,
00000001
00000010
00000100
00010000
,
00001000
00000100
00000001
00000010
,
00000100
00010000
00001000
00011000
,
00000000
00101000
00000000
01100000
,
01100000
00000000
11000000
00000000
,
10100000
00000000
00100000
00010000
,
00012000
00000000
00000000
00003010
,
00000010
00000001
00000010
00000100
,
00010000
00001000
00100000
01000000
,
10000000
00100000
00010000
00100000
,
01000000
00010000
00100000
00001000
,
00010000
00010100
00000000
01001000
,
01001000
00000000
00010010
00000000
,
00101000
00000000
00011000
00001000
,
00000100
00000001
00000011
00000010
,
00000100
00010000
00001000
00100000
,
01000000
10000000
00100000
00010000
,
00100000
01000000
00010000
00100000
,
01000000
00010000
00001000
00000010
,
00000001
00000101
00000000
00001100
,
00002200
00000000
00003300
00011000
,
00000000
00110000
00000000
00000000
10100000
00000000
11000000
00000000
,
00000000
01010000
00000000
00000000
00011000
00000000
00020200
00000000
,
00000000
00000000
00000000
00030300
;
