#VERSION:0.83;
#TITLE:MAGO;
#SUBTITLE:;
#ARTIST:G-Friend;
#TITLETRANSLIT:;
#SUBTITLETRANSLIT:;
#ARTISTTRANSLIT:;
#GENRE:XROSS;
#ORIGIN:;
#CREDIT:MILEN;
#BANNER:MAGO.png;
#BACKGROUND:MAGO-bg.png;
#PREVIEWVID:;
#JACKET:MAGO-jacket.png;
#CDIMAGE:;
#DISCIMAGE:;
#LYRICSPATH:;
#CDTITLE:;
#MUSIC:MAGO.ogg;
#OFFSET:0.000000;
#SAMPLESTART:46.000000;
#SAMPLELENGTH:11.000000;
#SELECTABLE:YES;
#DISPLAYBPM:120.000000;
#BPMS:0.000=120.000;
#STOPS:;
#DELAYS:;
#WARPS:;
#TIMESIGNATURES:0.000=4=4;
#TICKCOUNTS:0.000=4;
#COMBOS:0.000=1;
#SPEEDS:0.000=1.000=0.000=0;
#SCROLLS:0.000=1.000;
#FAKES:;
#LABELS:0.000=Song Start;
#BGCHANGES:0.000=MAGO.avi=1.000=0=0=1=Centered====,
99999=-nosongbg-=1.000=0=0=0 // don't automatically add -songbackground-
;
#KEYSOUNDS:;
#ATTACKS:
;

//---------------dance-single - ----------------
#NOTEDATA:;
#CHARTNAME:;
#STEPSTYPE:dance-single;
#DESCRIPTION:;
#CHARTSTYLE:;
#DIFFICULTY:Beginner;
#METER:2;
#RADARVALUES:0.089827,0.169697,0.015152,0.022727,0.000000,83.000000,81.000000,2.000000,3.000000,0.000000,0.000000,0.000000,0.000000,0.000000,0.089827,0.169697,0.015152,0.022727,0.000000,83.000000,81.000000,2.000000,3.000000,0.000000,0.000000,0.000000,0.000000,0.000000;
#CREDIT:MILEN;
#DISPLAYBPM:120.000000;
#NOTES:
0000
0000
0000
0000
,
0000
0000
0000
0000
,
0000
0000
0000
0000
,
0000
0000
0000
0000
,
0000
0000
0000
0000
,
0000
0000
0000
0000
,
0000
0000
0000
0000
,
0000
0000
0000
0000
,
1000
0000
0000
0000
,
0001
0000
0000
0000
,
1000
0000
0000
0000
,
0001
0000
0000
0000
,
1000
0000
1000
0000
,
0001
0000
0001
0000
,
1000
0000
0001
0000
,
0100
0000
0000
0000
,
0100
0000
0000
0000
,
0010
0000
0000
0000
,
1000
0000
0000
0000
,
0001
0000
0000
0000
,
0100
0000
0000
0000
,
0010
0000
0000
0000
,
1000
0000
0000
0000
,
0001
0001
0001
0000
,
1001
0000
0000
0000
,
1000
0000
0010
0000
,
1000
0000
0010
0000
,
1000
0000
1000
0000
,
1000
0000
0000
0000
,
0001
0000
0010
0000
,
0001
0000
0001
0000
,
0001
0000
0100
0000
,
1000
0000
0000
0000
,
0001
0000
0000
0000
,
1000
0000
0000
0000
,
0001
0000
0000
0000
,
0100
0000
0000
0000
,
0010
0000
0000
0000
,
0100
0000
0010
0000
,
0100
0000
0100
0000
,
0200
0000
0000
0000
,
0300
0000
0000
0000
,
0020
0000
0000
0000
,
0030
0000
0000
0000
,
1000
0000
0000
0000
,
0001
0000
0000
0000
,
1000
0000
0001
0000
,
1000
1000
1000
0000
,
1001
0000
0000
0000
,
0001
0000
0100
0000
,
0001
0000
0100
0000
,
0001
0000
0001
0000
,
0001
0000
0000
0000
,
1000
0000
0100
0000
,
1000
0000
1000
0000
,
1000
0000
0010
0000
,
0001
0000
0000
0000
,
0100
0000
0000
0000
,
0010
0000
0000
0000
,
1000
0000
0000
0000
,
0001
0000
0010
0000
,
0100
0000
1000
0000
,
0010
0000
0100
0000
,
0010
0010
0020
0000
,
0030
0000
0000
0000
;

//---------------dance-single - ----------------
#NOTEDATA:;
#CHARTNAME:;
#STEPSTYPE:dance-single;
#DESCRIPTION:;
#CHARTSTYLE:;
#DIFFICULTY:Easy;
#METER:4;
#RADARVALUES:0.149351,0.218182,0.045455,0.189394,0.000000,138.000000,132.000000,6.000000,25.000000,0.000000,0.000000,0.000000,0.000000,0.000000,0.149351,0.218182,0.045455,0.189394,0.000000,138.000000,132.000000,6.000000,25.000000,0.000000,0.000000,0.000000,0.000000,0.000000;
#CREDIT:MILEN;
#DISPLAYBPM:120.000000;
#NOTES:
0000
0000
0000
0000
,
0000
0000
0000
0000
,
0000
0000
0000
0000
,
0000
0000
0000
0000
,
0000
0000
0000
0000
,
0000
0000
0000
0000
,
0000
0000
0000
0000
,
0000
0000
0000
0000
,
1000
0000
0001
0000
,
1000
0000
0001
0000
,
1000
0000
0001
0000
,
1000
0000
0001
0000
,
0100
0100
0100
0000
,
0010
0010
0010
0000
,
1000
0000
0001
0000
,
0100
0010
0100
0010
,
0200
0000
0300
0001
,
1000
0001
1001
0000
,
0020
0030
0200
0300
,
0020
0000
0000
0030
,
0000
0010
1000
0100
,
0100
0010
0001
0100
,
0100
0000
0010
0000
,
1000
0001
1000
0000
,
2002
0000
3003
0010
,
0010
0000
0001
0000
,
0100
0000
1000
0000
,
0010
0100
0010
0010
,
2002
0000
3003
0000
,
1000
0000
0100
0000
,
0001
0000
0010
0000
,
1000
0001
1000
1000
,
0010
0000
1000
0000
,
0010
0000
1000
0000
,
0001
0000
0010
0000
,
0001
0000
0010
0000
,
0001
0000
1000
0000
,
0010
0000
0100
0000
,
0010
1000
0001
0100
,
0010
0010
0020
0030
,
2000
0000
0000
0000
,
3000
0000
0000
0000
,
0002
0000
0000
0000
,
0003
0000
0000
0000
,
0200
0300
0020
0030
,
2000
3000
0002
0003
,
0100
0010
1000
0001
,
0100
0100
0100
0000
,
2002
0000
3003
0010
,
0010
0000
1000
0000
,
0100
0000
0001
0000
,
0010
0100
0010
0010
,
2002
0000
3003
0000
,
0001
0000
0100
0000
,
1000
0000
0010
0000
,
0001
1000
0001
0001
,
1000
0010
1000
0000
,
0010
1000
0010
0000
,
2000
3000
0002
0003
,
1000
1000
0000
1000
,
0001
0010
0001
0000
,
0010
0001
0010
0000
,
0002
0003
2000
3000
,
0010
0100
0220
0000
,
0330
0000
0000
0000
;

//---------------dance-single - ----------------
#NOTEDATA:;
#CHARTNAME:;
#STEPSTYPE:dance-single;
#DESCRIPTION:;
#CHARTSTYLE:;
#DIFFICULTY:Medium;
#METER:8;
#RADARVALUES:0.267316,0.387879,0.174242,0.424242,0.000000,247.000000,224.000000,23.000000,56.000000,0.000000,0.000000,0.000000,0.000000,0.000000,0.267316,0.387879,0.174242,0.424242,0.000000,247.000000,224.000000,23.000000,56.000000,0.000000,0.000000,0.000000,0.000000,0.000000;
#CREDIT:MILEN;
#DISPLAYBPM:120.000000;
#NOTES:
0000
0000
0000
0000
,
0000
0000
0000
0000
,
0000
0000
0000
0000
,
0000
0000
0000
0000
,
0000
0000
0000
0000
,
0000
0000
0000
0000
,
0000
0000
0000
0000
,
0000
0000
0000
0000
,
1000
0001
1000
1000
,
0001
1000
0001
0001
,
0100
0010
1000
0001
,
0100
0100
0020
0130
,
0010
1000
0100
0000
1000
0000
0001
0000
,
0010
0001
0100
0000
0001
0000
1000
0000
,
0100
0010
0001
1000
,
0010
0100
0010
0100
0020
0000
0030
0000
,
1000
0002
0000
0000
0003
0000
1000
0100
,
0000
1000
0001
0200
0000
0000
0310
0000
,
0020
2030
3002
0203
,
0320
0000
0000
0000
0130
0100
0100
0000
,
1001
0000
0010
0001
0100
0000
0100
0000
,
0110
0000
0010
1000
0100
0000
0100
0000
,
0110
0010
0100
0010
,
2000
3002
1003
0000
,
2002
0000
0000
0000
3003
0000
0001
0100
,
0010
0100
0001
0010
,
0100
2000
3010
0002
,
0013
1000
0001
1000
,
2002
0000
0000
0000
3003
0000
1000
0100
,
0000
0100
0010
0001
0200
0000
0310
0010
,
1010
0101
1010
0101
,
0001
0000
1000
0000
0001
0100
0010
0100
,
0002
0013
2000
3010
,
0001
0010
1000
0010
,
0002
0103
2000
3100
,
0001
0100
1000
0100
,
0001
0010
0100
0000
0010
0100
1000
0000
,
0010
0100
0001
0100
0020
0000
1030
0100
,
1100
0011
1100
0011
,
0002
0203
0320
2030
,
3002
0000
0000
0000
,
0100
0000
0000
0003
,
2000
0000
0000
0000
,
0010
0000
0000
3000
,
0002
0000
0010
0003
,
2000
0000
0100
3000
,
0020
0230
0302
2003
,
3200
0320
0031
0000
,
2002
0000
0000
0000
3003
0000
1000
0010
,
0100
0010
1000
0100
,
0010
0002
0103
2000
,
3100
0001
1000
0001
,
2002
0000
0000
0000
3003
0000
0001
0010
,
0000
0010
0100
1000
0020
0000
0130
0100
,
0101
1010
0101
1010
,
1000
0000
0001
0000
1000
0010
0100
0010
,
2000
3100
0002
0013
,
1000
0100
0001
0010
,
2000
3010
0002
0103
,
1000
0010
0001
0100
,
2000
3020
0230
0302
,
1003
0100
0010
0001
0100
0000
0100
0010
,
1010
0101
1010
0101
,
0002
0023
0230
2300
,
3001
0000
0000
0000
;

//---------------dance-single - ----------------
#NOTEDATA:;
#CHARTNAME:;
#STEPSTYPE:dance-single;
#DESCRIPTION:;
#CHARTSTYLE:;
#DIFFICULTY:Hard;
#METER:11;
#RADARVALUES:0.399351,0.484848,0.409091,0.492424,0.109848,369.000000,315.000000,54.000000,65.000000,0.000000,0.000000,0.000000,0.000000,0.000000,0.399351,0.484848,0.409091,0.492424,0.109848,369.000000,315.000000,54.000000,65.000000,0.000000,0.000000,0.000000,0.000000,0.000000;
#CREDIT:MILEN;
#DISPLAYBPM:120.000000;
#NOTES:
// measure 0
0000
0000
0000
0000
,  // measure 1
0000
0000
0000
0000
,  // measure 2
0000
0000
0000
0000
,  // measure 3
0000
0000
0000
0000
,  // measure 4
0000
0000
0000
0000
,  // measure 5
0000
0000
0000
0000
,  // measure 6
0000
0000
0000
0000
,  // measure 7
0000
0000
0000
0000
,  // measure 8
2000
3010
0002
0013
,  // measure 9
2000
3100
0002
0103
,  // measure 10
2000
0000
0000
0000
3001
0000
0001
0100
0001
0000
0010
0000
0100
0000
1000
0000
,  // measure 11
1020
0230
0302
2003
,  // measure 12
3100
0000
0100
0010
0100
0000
0010
0001
0010
0000
0000
0000
0011
0000
0000
0000
,  // measure 13
0001
0000
0100
0010
0100
0000
0010
1000
0010
0000
0000
0000
1010
0000
1000
0000
,  // measure 14
0002
0203
0320
2030
,  // measure 15
3001
0010
0100
1000
0001
0010
0100
1000
,  // measure 16
0010
0210
0000
0000
0000
0301
1000
0200
,  // measure 17
0000
0301
0100
2000
0000
0000
3010
0100
,  // measure 18
0001
0000
0000
0101
0000
0000
1000
0000
0100
0000
0000
1100
0000
0000
0010
0000
,  // measure 19
0210
0000
0000
0000
0001
0000
0000
0000
1300
0000
0100
0010
0100
0000
0001
0010
,  // measure 20
0002
0000
0000
0000
0103
0010
0000
0000
1010
0000
0000
0000
0101
0000
0000
0000
,  // measure 21
1010
0000
0000
0000
1000
0001
0000
0000
0011
0000
0000
0000
1100
0000
0000
0000
,  // measure 22
0012
0203
0320
2030
,  // measure 23
3001
0001
0001
0000
,  // measure 24
1001
0110
2002
3003
,  // measure 25
0001
0000
0000
0100
0000
0000
1000
0000
0010
0000
0000
0001
0000
0000
1000
0000
,  // measure 26
0020
0000
0000
0000
0130
0001
0000
0000
0020
0000
0000
0000
0130
1000
0000
0000
,  // measure 27
0010
0000
0100
0000
0001
0000
1000
0000
0100
0000
0010
0000
0001
0000
0100
0010
,  // measure 28
0100
0000
1001
0000
0110
0010
1000
0200
,  // measure 29
0000
0000
0310
0000
0001
0000
0200
0000
0010
0000
0000
0000
0310
1000
0000
0000
,  // measure 30
1100
0101
0011
1010
,  // measure 31
1001
0000
0110
0000
1001
0001
0100
0010
,  // measure 32
1000
1000
0100
0010
0001
0001
0100
0010
,  // measure 33
1000
0000
0001
0000
0010
0000
0100
0000
2000
0000
0000
0000
3010
0100
0000
0000
,  // measure 34
0100
0001
0100
1000
0100
0001
0010
0100
,  // measure 35
2000
0000
0002
0000
0000
0000
0000
0000
3003
0000
0000
0000
0110
0000
0010
0100
,  // measure 36
0010
0010
1000
0100
0010
0010
0001
0100
,  // measure 37
1000
0000
0100
0000
0001
0000
0010
0000
0200
0000
0000
0000
1300
0010
0000
0000
,  // measure 38
0011
0101
1100
1010
,  // measure 39
1001
0000
0110
0000
1001
1000
0100
0010
,  // measure 40
0002
0000
0000
0000
,  // measure 41
0100
0000
0000
0000
,  // measure 42
2003
0000
0000
0000
,  // measure 43
0010
0000
0000
0000
,  // measure 44
3002
0010
2003
0100
,  // measure 45
3020
0100
2030
3002
,  // measure 46
0023
0230
2300
3002
0203
0320
2030
3200
,  // measure 47
0320
0032
2003
3020
0100
0000
0130
0000
,  // measure 48
1001
0110
2002
3003
,  // measure 49
1000
0000
0000
0100
0000
0000
0001
0000
0010
0000
0000
1000
0000
0000
0001
0000
,  // measure 50
0020
0000
0000
0000
0130
1000
0000
0000
0020
0000
0000
0000
0130
0001
0000
0000
,  // measure 51
0010
0000
0100
0000
1000
0000
0001
0000
0100
0000
0010
0000
1000
0000
0100
0010
,  // measure 52
0100
0000
1001
0000
0110
0010
0001
0200
,  // measure 53
0000
0000
0310
0000
1000
0000
0200
0000
0010
0000
0000
0000
0310
0001
0000
0000
,  // measure 54
0101
1100
1010
0011
,  // measure 55
1001
0000
0110
0000
1001
1000
0100
0010
,  // measure 56
0002
0100
0103
0010
2000
0100
3100
0010
,  // measure 57
0001
0000
0100
0000
1000
0000
0100
0000
0002
0000
0000
0000
0013
0100
0000
0000
,  // measure 58
1100
1000
0010
0100
0101
0001
0010
0100
,  // measure 59
2000
0000
0002
0000
0000
0000
0000
0000
3000
0000
0000
0000
0103
0000
0100
0010
,  // measure 60
0200
0001
0310
0001
2000
0010
3100
0010
,  // measure 61
1000
0000
0100
0000
0001
0000
0010
0000
2000
0000
0000
0000
3001
0100
0000
0000
,  // measure 62
1100
1010
0011
0101
,  // measure 63
1001
0000
0110
0000
0010
1000
0100
0001
,  // measure 64
1001
0000
0000
0000
;

//---------------dance-double - ----------------
#NOTEDATA:;
#CHARTNAME:;
#STEPSTYPE:dance-double;
#DESCRIPTION:;
#CHARTSTYLE:;
#DIFFICULTY:Easy;
#METER:5;
#RADARVALUES:0.154762,0.218182,0.106061,0.159091,0.000000,143.000000,129.000000,14.000000,21.000000,0.000000,0.000000,0.000000,0.000000,0.000000,0.154762,0.218182,0.106061,0.159091,0.000000,143.000000,129.000000,14.000000,21.000000,0.000000,0.000000,0.000000,0.000000,0.000000;
#CREDIT:MILEN;
#DISPLAYBPM:120.000000;
#NOTES:
00000000
00000000
00000000
00000000
,
00000000
00000000
00000000
00000000
,
00000000
00000000
00000000
00000000
,
00000000
00000000
00000000
00000000
,
00000000
00000000
00000000
00000000
,
00000000
00000000
00000000
00000000
,
00000000
00000000
00000000
00000000
,
00000000
00000000
00000000
00000000
,
00001000
00000000
00010000
00000000
,
00001000
00000000
00010000
00000000
,
00001000
00000000
00010000
00000000
,
00001000
00000000
00010000
00000000
,
00001000
01000000
00001000
00000000
,
00010000
00000100
00010000
00000000
,
00001000
00000000
00010000
00000000
,
00001000
00100000
00010000
01000000
,
00200000
00000000
00300000
10000000
,
00010000
10000000
10010000
00000000
,
00020000
00030000
02000000
03000000
,
00002000
00000000
00000000
00003000
,
00000000
00010000
00000100
00001000
,
00001000
00000100
00000010
00000001
,
00000001
00000000
00000100
00000000
,
00001000
00010000
00001000
00000000
,
00022000
00000000
00033000
00100000
,
01000000
00000000
10000000
00000000
,
00100000
00000000
00010000
00000000
,
00001000
00010000
00001000
00010000
,
00022000
00000000
00033000
00000000
,
00010000
00000000
00000100
00000000
,
00000010
00000000
00000001
00000000
,
00000100
00001000
00010000
00001000
,
00011000
00000000
01000000
00000000
,
00010000
00000000
01000000
00000000
,
00011000
00000000
00000100
00000000
,
00001000
00000000
00000100
00000000
,
00011000
00000000
01000000
00000000
,
00011000
00000000
00000100
00000000
,
00010000
00001000
00000010
00000001
,
00000100
00001000
00020000
00030000
,
00000200
00000000
00000000
00000000
,
00000300
00000000
00000000
00000000
,
00000020
00000000
00000000
00000000
,
00000030
00000000
00000000
00000000
,
00000002
00000003
00002000
00003000
,
00000020
00000030
00020000
00030000
,
00001000
01000000
00010000
10000000
,
01000000
00010000
00001000
00000000
,
00022000
00000000
00033000
00000100
,
00000010
00000000
00000001
00000000
,
00000100
00000000
00001000
00000000
,
00010000
00001000
00010000
00001000
,
00022000
00000000
00033000
00000000
,
00001000
00000000
00100000
00000000
,
01000000
00000000
10000000
00000000
,
00100000
00010000
00001000
00010000
,
00011000
00000000
00000010
00000000
,
00001000
00000000
00000010
00000000
,
00011000
00000000
00100000
00000000
,
00010000
00000000
00100000
00000000
,
00011000
00000000
00000010
00000000
,
00011000
00000000
00100000
00000000
,
00001000
00010000
01000000
10000000
,
00100000
00010000
00022000
00000000
,
00033000
00000000
00000000
00000000
;

//---------------dance-double - ----------------
#NOTEDATA:;
#CHARTNAME:;
#STEPSTYPE:dance-double;
#DESCRIPTION:;
#CHARTSTYLE:;
#DIFFICULTY:Medium;
#METER:8;
#RADARVALUES:0.246753,0.339394,0.121212,0.477273,0.000000,228.000000,212.000000,16.000000,63.000000,0.000000,0.000000,0.000000,0.000000,0.000000,0.246753,0.339394,0.121212,0.477273,0.000000,228.000000,212.000000,16.000000,63.000000,0.000000,0.000000,0.000000,0.000000,0.000000;
#CREDIT:MILEN;
#DISPLAYBPM:120.000000;
#NOTES:
00000000
00000000
00000000
00000000
,
00000000
00000000
00000000
00000000
,
00000000
00000000
00000000
00000000
,
00000000
00000000
00000000
00000000
,
00000000
00000000
00000000
00000000
,
00000000
00000000
00000000
00000000
,
00000000
00000000
00000000
00000000
,
00000000
00000000
00000000
00000000
,
00001000
00010000
00001000
00001000
,
00010000
00001000
00010000
00010000
,
00001000
00100000
00010000
01000000
,
00001000
00010000
00000200
00000310
,
00000010
00000001
00000100
00011000
,
00100000
10000000
01000000
00011000
,
00000010
00000001
00000100
00001000
,
00010000
00100000
20000000
30000000
,
01000000
00200000
00000000
00000000
00000000
01300000
00010000
00001000
,
00000000
00010000
00001000
00000020
00000000
00000000
00000031
00000000
,
00000002
00000003
00000200
00000000
00000320
00000000
00020030
00000000
,
00032000
00000000
00103000
01000000
,
10010000
00000000
10000000
00100000
01000000
00000000
00001000
00000000
,
00011000
00000000
00000001
00000100
00000010
00000000
00010000
00000000
,
00011000
00100000
01000000
10000000
,
00100000
00010000
00011000
00000000
,
00022000
00000000
00000000
00000000
00033000
00000000
00010000
01000000
,
10000000
01000000
00010000
00001000
,
00100000
02000000
03020000
00032000
,
00003010
00000001
00000100
00001000
,
00022000
00000000
00000000
00000000
00033000
00000000
00001000
00000100
,
00000000
00000100
00000001
00000010
00002000
00000000
00013000
00000000
,
00011000
00000100
00011000
01000000
,
00010000
00000000
10000000
00000000
00100000
00010000
00001000
00000000
,
00020000
00030010
00002000
00103000
,
00001000
00010000
00100000
10000000
,
02000000
03020000
00032000
00003020
,
00000031
00000100
00001000
00010000
,
00001000
00100000
00001000
00000000
00010000
00000100
00010000
00000000
,
00001000
00010000
01000000
11000000
,
20000000
30200000
02300000
03020000
,
00230000
00302000
00003020
00000032
,
00002003
00000000
00000000
00000000
,
00003100
00000000
00000000
00000000
,
00020000
00000000
00000000
00000000
,
00031000
00000000
00000000
00000000
,
00200000
00000000
00310000
00000000
,
20000000
00000000
30100000
00000000
,
00020000
00032000
00003020
00000032
,
00000203
00002300
00013000
00000000
,
00022000
00000000
00000000
00000000
00033000
00000000
00001000
00000100
,
00000001
00000100
00001000
00010000
,
00000010
00000200
00002300
00023000
,
00130000
10000000
01000000
00010000
,
00022000
00000000
00000000
00000000
00033000
00000000
00010000
01000000
,
00000000
01000000
10000000
00100000
00020000
00000000
00031000
00000000
,
00011000
01000000
00011000
00000100
,
00001000
00000000
00000001
00000000
00000010
00001000
00010000
00000000
,
00002000
00103000
00020000
00030010
,
00010000
00001000
00000010
00000001
,
00000200
00002300
00023000
00230000
,
10300000
01000000
00010000
00001000
,
00010000
00000010
00010000
00000000
00001000
01000000
00001000
00000000
,
00010000
00001000
00000100
00000101
,
00000002
00000023
00000230
00002300
,
00023000
02030000
03200000
20300000
,
30010000
00000000
00000000
00000000
;

//---------------dance-double - ----------------
#NOTEDATA:;
#CHARTNAME:;
#STEPSTYPE:dance-double;
#DESCRIPTION:;
#CHARTSTYLE:;
#DIFFICULTY:Hard;
#METER:11;
#RADARVALUES:0.367965,0.460606,0.242424,0.537879,0.113636,340.000000,308.000000,32.000000,71.000000,0.000000,0.000000,0.000000,0.000000,0.000000,0.367965,0.460606,0.242424,0.537879,0.113636,340.000000,308.000000,32.000000,71.000000,0.000000,0.000000,0.000000,0.000000,0.000000;
#CREDIT:MILEN;
#DISPLAYBPM:120.000000;
#NOTES:
00000000
00000000
00000000
00000000
,
00000000
00000000
00000000
00000000
,
00000000
00000000
00000000
00000000
,
00000000
00000000
00000000
00000000
,
00000000
00000000
00000000
00000000
,
00000000
00000000
00000000
00000000
,
00000000
00000000
00000000
00000000
,
00000000
00000000
00000000
00000000
,
00001000
00100000
01000000
00010000
,
00001000
00000010
00000100
00010000
,
00001000
00000000
00000000
00000000
00011000
00000000
00001000
00010000
00100000
00000000
10000000
00000000
01000000
00000000
00100000
00000000
,
01100000
00011000
00000110
00001001
,
00000001
00000100
00001000
00010000
00200000
00000000
10300000
00000000
,
10000000
01000000
00010000
00001000
00000020
00000000
00000031
00000000
,
00000101
00010010
00101000
11000000
,
10000000
00100000
01000000
00010000
10000000
00100000
01000000
00010000
,
00100000
02000000
00000000
00000000
00000000
03010000
00001000
00000020
,
00000000
00001030
00010000
00200000
00000000
00000000
00310000
00001000
,
00000200
00000000
00000000
00000302
00000000
00000000
00000023
00000000
00002030
00000000
00000000
00023000
00000000
00000000
02030000
00000000
,
13000000
00000000
00000000
00000000
10100000
00000000
00000000
00000000
00100000
00000000
00100000
01000000
00010000
00000000
00100000
01000000
,
00010000
00000000
00000000
00000000
00001000
00020000
00000000
00000000
00030020
00000000
00000000
00000000
00000230
00000000
00000000
00000000
,
00000301
00000000
00000000
00000000
00000001
00000020
00000000
00000000
00002030
00000000
00000000
00000000
00023000
00000000
00000000
00000000
,
00230000
02300000
03020000
00032000
,
00003010
00000010
00000010
00000000
,
00001001
00000000
00000000
00000000
00000110
00000000
00000000
00000000
00001001
00000000
00000002
00000000
00000000
00000203
00000000
00000000
,
00002300
00000000
00000000
00023000
00000000
00000000
00230000
00000000
20300000
00000000
00000000
32000000
00000000
00000000
00100000
00000000
,
03100000
00000000
00000000
00000000
00100000
00001000
00100000
00000000
00010000
00000000
00000000
00000000
00100000
00001000
00100000
00000000
,
00010000
00000000
01000000
00000000
10000000
00000000
01000000
00000000
00100000
00000000
00010000
00000000
00001000
00000000
00000010
00000001
,
00000020
00000000
00000230
00000000
00002300
00000000
00003010
00000010
,
00000100
00000000
00000001
00000000
00001000
00000000
00000100
00000000
00000010
00000000
00000001
00000000
00000100
00001000
00000000
00000000
,
00010000
00010010
00001000
00101000
,
00100000
00000000
00000000
00000000
00010000
00000000
00000000
00000000
01000000
10000000
01000000
00000000
00010000
00000000
00100000
00000000
,
02000000
00000000
13000000
00100000
02000000
00000000
03100000
00010000
,
00001000
00000000
00100000
00000000
00010000
00000000
00001000
00000000
00000200
00000000
00000000
00000000
00000310
00000001
00000000
00000000
,
00000011
00000000
00001100
00000000
00000011
00000000
00000001
00000200
,
00000000
00000000
00002300
00000000
00000000
00000000
00023000
00000000
00000000
00000000
00130000
00000000
00100000
00000000
10000000
01000000
,
00200000
00000000
00302000
00000000
00023000
00000000
00030010
00001000
,
00000100
00000000
00000010
00000000
00000001
00000000
00000100
00000000
00000020
00000000
00000000
00000000
00010030
00001000
00000000
00000000
,
00010000
00010100
00001000
01001000
,
01000000
00000000
00000000
00000000
00010000
00000000
00000000
00000000
00100000
00000000
01000000
00010000
00001000
00000000
00010000
00000000
,
00002000
00000000
00000000
00000000
,
00000010
00000000
00000000
00000000
,
00023000
00000000
00000000
00000000
,
00100000
00000000
00000000
00000000
,
00032000
00000100
00023000
01000000
,
00032000
00203000
02300000
23000000
,
30100000
00010000
00001000
00000010
00000001
00000100
00001000
00010000
,
00100000
10000000
01000000
00010000
00011000
00000000
00000000
00000000
,
10010000
00000000
00000000
00000000
01100000
00000000
00000000
00000000
10010000
00000000
20000000
00000000
00000000
32000000
00000000
00000000
,
03020000
00000000
00000000
00032000
00000000
00000000
00003020
00000000
00000032
00000000
00000000
00000203
00000000
00000000
00000010
00000000
,
00000310
00000000
00000000
00000000
00000010
00010000
00000010
00000000
00001000
00000000
00000000
00000000
00000010
00010000
00000010
00000000
,
00001000
00000000
00000100
00000000
00000001
00000000
00000100
00000000
00000010
00000000
00001000
00000000
00010000
00000000
00100000
10000000
,
00200000
00000000
02300000
00000000
03020000
00000000
00130000
00100000
,
01000000
00000000
10000000
00000000
00010000
00000000
01000000
00000000
00100000
00000000
10000000
00000000
01000000
00010000
00000000
00000000
,
00001000
01001000
00010000
00010100
,
00000100
00000000
00000000
00000000
00001000
00000000
00000000
00000000
00000100
00000001
00000100
00000000
00001000
00000000
00000010
00000000
,
00000200
00000000
00000301
00000010
00000200
00000000
00000310
00001000
,
00010000
00000000
00000010
00000000
00001000
00000000
00010000
00000000
02000000
00000000
00000000
00000000
03100000
10000000
00000000
00000000
,
10100000
00000000
01010000
00000000
10100000
00000000
10000000
02000000
,
00000000
00000000
03020000
00000000
00000000
00000000
00032000
00000000
00000000
00000000
00003010
00000000
00000010
00000000
00000001
00000100
,
00000020
00000000
00020030
00000000
00032000
00000000
00103000
00010000
,
01000000
00000000
00100000
00000000
10000000
00000000
01000000
00000000
00200000
00000000
00000000
00000000
00301000
00010000
00000000
00000000
,
00001000
01001000
00010000
00010100
,
00000200
00000000
00000320
00000000
00000031
00000100
00001000
00010000
,
00011000
00000000
00000000
00000000
;
