#VERSION:0.83;
#TITLE:Lunaris;
#SUBTITLE:;
#ARTIST:AX10MA.DECADE;
#TITLETRANSLIT:;
#SUBTITLETRANSLIT:;
#ARTISTTRANSLIT:;
#GENRE:XROSS;
#ORIGIN:;
#CREDIT:MUINELIM;
#BANNER:Lunaris.png;
#BACKGROUND:Lunaris-bg.png;
#PREVIEWVID:;
#JACKET:Lunaris-jacket.png;
#CDIMAGE:;
#DISCIMAGE:;
#LYRICSPATH:;
#CDTITLE:;
#MUSIC:Lunaris.ogg;
#OFFSET:0.000000;
#SAMPLESTART:23.351000;
#SAMPLELENGTH:11.000000;
#SELECTABLE:YES;
#DISPLAYBPM:185.000000;
#BPMS:0.000=185.000;
#STOPS:;
#DELAYS:;
#WARPS:;
#TIMESIGNATURES:0.000=4=4;
#TICKCOUNTS:0.000=4;
#COMBOS:0.000=1;
#SPEEDS:0.000=1.000=0.000=0;
#SCROLLS:0.000=1.000;
#FAKES:;
#LABELS:0.000=Song Start;
#BGCHANGES:0.000=Lunaris.avi=1.000=0=0=1=Centered====,
99999=-nosongbg-=1.000=0=0=0 // don't automatically add -songbackground-
;
#KEYSOUNDS:;
#ATTACKS:
;

//---------------dance-single - ----------------
#NOTEDATA:;
#CHARTNAME:;
#STEPSTYPE:dance-single;
#DESCRIPTION:;
#CHARTSTYLE:;
#DIFFICULTY:Hard;
#METER:14;
#RADARVALUES:0.674751,0.860388,0.430761,0.309846,0.253166,625.000000,568.000000,57.000000,41.000000,0.000000,0.000000,0.000000,0.000000,0.000000,0.674751,0.860388,0.430761,0.309846,0.253166,625.000000,568.000000,57.000000,41.000000,0.000000,0.000000,0.000000,0.000000,0.000000;
#CREDIT:MILEN;
#DISPLAYBPM:185.000000;
#NOTES:
0000
0000
0000
0000
,
0000
0000
0000
0000
,
0000
0000
0000
0000
,
0000
0000
0000
0000
,
0000
0000
0000
0000
,
0000
0000
0000
0000
,
0000
0000
0000
0000
,
0000
0000
0000
0000
,
1000
0100
0010
0001
,
1000
0001
0100
0000
1000
0001
0100
0000
,
0001
0010
0100
1000
,
0001
1000
0010
0000
0001
1000
0010
0000
,
0100
0001
1000
0010
,
0100
0001
0010
0000
0100
0001
0010
0000
,
0100
1000
0001
0010
,
0100
1000
0010
0000
0100
1000
0010
0000
,
0100
0001
0010
1000
,
0100
0010
0100
0000
0000
0000
0010
0100
0010
0000
0000
0000
1000
0001
1000
0001
,
1000
0010
0100
0001
1000
0010
0100
0002
,
0000
1003
0100
0010
0001
1000
1100
0000
,
0001
0100
0010
1000
0001
0100
0010
2000
,
0000
3001
0010
0100
1000
0001
0100
0010
,
1000
0100
0010
0001
1000
0100
0010
0002
,
0000
1003
0010
0100
0001
1000
1010
0000
,
0001
0010
0100
1000
0001
0010
0100
1000
,
0001
0100
0110
0020
0000
1000
1000
1030
,
1000
0100
0010
0001
0100
0010
1000
0001
,
0010
0100
0001
0100
1000
0010
1010
0000
,
0001
0100
0010
1000
0100
0010
0001
1000
,
0010
0100
1000
0100
0001
0010
0011
0000
,
1000
0000
1000
0000
0010
0000
0100
0000
0001
0000
1000
0000
0100
0000
0010
0001
,
0010
0000
0001
0000
0100
0000
0010
0000
1000
0000
0001
0000
0010
0000
0100
1000
,
0100
0000
1000
0000
0010
0000
1010
0000
0001
0000
0001
0000
0101
0000
1000
0010
,
1000
0000
0001
0000
0100
0001
0000
0100
0001
0000
1000
0000
0010
0100
0010
0100
,
0020
0000
1030
0100
0001
0100
1000
0100
,
0020
0000
0031
0100
1000
0100
0001
0100
,
0020
0000
1030
0100
0001
0100
1000
0100
,
0020
0000
0031
0100
0110
0000
1001
0000
,
0200
0000
0301
0010
1000
0010
0001
0010
,
0200
0000
1300
0010
0001
0010
1000
0010
,
0200
0000
0301
0010
1000
0010
0001
0010
,
0200
0000
1300
0010
0110
0100
0001
0010
,
0100
0000
1000
0000
0010
0000
0100
0001
0000
0100
0010
0000
1000
0000
0000
0000
,
0001
0000
0010
0000
0100
0000
1000
0010
0000
1000
0100
0000
0010
0000
0000
0000
,
0100
0000
1000
0000
0010
0000
0100
0001
0000
1000
0001
0000
0010
0000
0000
0000
,
0100
1000
0010
0100
0101
0000
1010
0000
,
1001
0001
0010
0100
0010
0001
0010
0100
,
1001
1000
0010
0100
0010
1000
0010
0100
,
0001
0001
0010
0010
1000
1000
0100
0100
,
0001
0010
0001
0000
1000
0010
1000
0000
0001
0100
0001
0000
1000
0100
1000
0000
,
1020
0000
0000
0001
0000
0100
0000
0000
,
1030
0010
0110
0000
0001
0100
0110
0000
,
0201
0000
0000
1000
0000
0010
0000
0000
,
0301
1000
1001
0000
1000
0001
1001
0000
,
0120
0000
0000
0001
0000
1000
0000
0000
,
0130
0001
0010
0100
1100
0000
0011
0000
,
2002
0000
0000
3003
,
1000
0000
0100
0000
0010
0000
0001
0000
0100
0000
0010
0000
1000
0000
0000
0010
0000
0000
0010
0000
0000
0010
0000
0000
,
0110
0000
1002
0000
0000
0013
0201
0000
,
0000
0310
1010
0001
0000
1000
1100
0000
,
0110
0000
2001
0000
0000
3100
1020
0000
,
0000
0130
0101
1000
0000
0001
0011
0000
,
0110
0000
2100
0000
0000
3010
0102
0000
,
0000
0013
1100
1000
0000
0001
0101
0000
,
1010
0000
0210
0000
0000
0301
1001
1000
,
0010
0000
0000
0000
0100
0000
0000
0000
0001
0000
0000
0000
1000
0000
0000
0000
0100
0000
0000
0000
0010
0000
0000
0000
0001
0000
0000
0000
0000
0000
0100
0000
0000
0010
0000
0000
0000
0000
0000
0010
0000
0000
0000
0000
0000
0000
0000
0000
,
0220
0000
0000
0000
,
0000
0000
0000
0000
,
0330
0000
0000
0000
,
0000
0000
0000
0000
,
2000
0100
0001
3010
,
0002
0100
1000
0013
,
0200
1000
0010
0301
,
0020
0001
0100
1030
,
1000
0000
0000
0100
0000
0000
0010
0000
0000
0001
0000
0000
0100
0000
0010
0100
,
0010
0000
0000
1000
0000
0000
0001
0000
0000
0010
0000
0000
0100
0000
1000
0001
,
1000
0000
0001
0100
0000
0010
0100
0000
0010
1000
0000
1000
0100
0000
1000
0001
,
1000
0000
0000
0010
0000
0000
0000
0000
0000
0100
0000
0000
0010
0000
0000
0000
0000
0000
0001
0000
0000
0010
0000
0000
0000
0000
0000
0100
0000
0000
0010
0000
0000
0000
0000
0000
1000
0000
0000
0000
0010
0000
0000
0000
0100
0000
0000
0000
,
0001
0001
0010
0100
0001
0100
1000
0001
,
1001
1000
0100
0010
1000
0010
0001
1000
,
1001
0001
0100
1000
0010
0001
0100
1000
,
0220
0000
0000
0330
,
2002
0000
0000
0000
,
0000
0000
0000
3003
,
1001
0000
0000
0001
0100
0000
0010
0000
0100
0000
0000
1000
0100
0000
0010
0000
,
0100
0000
0000
0001
0100
0000
0010
0000
1010
0000
0000
0000
0101
0000
0000
0000
,
1001
0000
0000
1000
0010
0000
0100
0000
0010
0000
0000
0001
0010
0000
0100
0000
,
0010
0000
0000
1000
0010
0000
0100
0000
0001
0010
0001
0000
1000
0010
1000
0000
,
0001
0000
0000
0100
0001
0000
0100
0000
0010
0000
0000
0100
1000
0000
0100
0000
,
0010
0000
0000
0100
0001
0000
0100
0000
0020
0000
2030
0000
3002
0000
0203
0000
,
0310
0010
1000
0100
0001
1000
0010
0001
,
0100
0000
1000
0000
0001
0000
0010
0000
1000
0100
1000
0000
0001
0100
0001
0000
,
1000
0100
0010
1000
0010
0001
1000
0100
,
0001
0100
0010
0001
0011
0000
1100
0000
,
0120
0001
0100
1030
,
0210
1000
0010
0301
,
1001
1000
0010
0100
1001
0001
0100
0010
,
1000
0000
0000
0001
0000
0000
0100
0000
0000
0000
0000
0000
0001
0000
0000
1000
0000
0000
0010
0000
0000
0000
0000
0000
0100
0000
0000
0000
0001
0000
0000
0000
0010
0000
0000
0000
1000
0000
0000
0000
0001
0000
0000
0000
0100
0000
0000
0000
,
2000
0000
0000
0000
,
3000
0000
0000
0000
;

//---------------dance-double - ----------------
#NOTEDATA:;
#CHARTNAME:;
#STEPSTYPE:dance-double;
#DESCRIPTION:;
#CHARTSTYLE:;
#DIFFICULTY:Hard;
#METER:15;
#RADARVALUES:0.665034,0.860388,0.377860,0.355189,0.222938,616.000000,566.000000,50.000000,47.000000,0.000000,0.000000,0.000000,0.000000,0.000000,0.665034,0.860388,0.377860,0.355189,0.222938,616.000000,566.000000,50.000000,47.000000,0.000000,0.000000,0.000000,0.000000,0.000000;
#CREDIT:MILEN;
#DISPLAYBPM:185.000000;
#NOTES:
// measure 0
00000000
00000000
00000000
00000000
,  // measure 1
00000000
00000000
00000000
00000000
,  // measure 2
00000000
00000000
00000000
00000000
,  // measure 3
00000000
00000000
00000000
00000000
,  // measure 4
00000000
00000000
00000000
00000000
,  // measure 5
00000000
00000000
00000000
00000000
,  // measure 6
00000000
00000000
00000000
00000000
,  // measure 7
00000000
00000000
00000000
00000000
,  // measure 8
00001000
00010000
00100000
10000000
,  // measure 9
01000000
00100000
00010000
00000000
01000000
00010000
00001000
00000000
,  // measure 10
00010000
00001000
00000100
00000001
,  // measure 11
00000010
00000100
00001000
00000000
00000010
00001000
00010000
00000000
,  // measure 12
00001000
00010000
01000000
10000000
,  // measure 13
00100000
01000000
00010000
00000000
00100000
00010000
00001000
00000000
,  // measure 14
00010000
00001000
00000010
00000001
,  // measure 15
00000100
00000010
00001000
00000000
00000100
00001000
00010000
00000000
,  // measure 16
01000000
10000000
00100000
00010000
,  // measure 17
00001000
00010000
00001000
00000000
01000000
00000000
00001000
00010000
00001000
00000000
00100000
00000000
00001000
00010000
00001000
00010000
,  // measure 18
00000010
00001000
00000100
00000010
00000001
00001000
00000100
00000020
,  // measure 19
00000000
00000031
00000100
00001000
00010000
00001000
00011000
00000000
,  // measure 20
01000000
00010000
00100000
01000000
10000000
00010000
00100000
02000000
,  // measure 21
00000000
13000000
00100000
00010000
00001000
00010000
00001000
00000100
,  // measure 22
00000001
00000010
00000100
00010000
00001000
00100000
01000000
20000000
,  // measure 23
00000000
30100000
00010000
00001000
00010000
00100000
01100000
00000000
,  // measure 24
10000000
00100000
01000000
00001000
00010000
00000010
00000100
00000001
,  // measure 25
00000010
00000100
00001000
00000020
00000000
00010030
00001000
00010000
,  // measure 26
00011000
00001000
00100000
00010000
01000000
00100000
10000000
00010000
,  // measure 27
00100000
01000000
00010000
01000000
10000000
00100000
00010000
00000000
,  // measure 28
00011000
00010000
00000010
00001000
00000100
00000010
00000001
00001000
,  // measure 29
00000010
00000100
00001000
00000100
00000001
00000010
00001000
00000000
,  // measure 30
00011000
00000000
00001000
00000000
00100000
00000000
00010000
00000000
00100000
00000000
01000000
00000000
10000000
00000000
00100000
01000000
,  // measure 31
00100000
00000000
00010000
00000000
00000010
00000000
00001000
00000000
00000010
00000000
00000100
00000000
00000001
00000000
00000010
00000100
,  // measure 32
00000010
00000000
00001000
00000000
00010000
00000000
00010010
00000000
00000000
00000000
00001000
00000000
00101000
00000000
00100000
00010000
,  // measure 33
00100000
00000000
00010000
00000000
10000000
00100000
00000000
10000000
01000000
00000000
00100000
00000000
00001000
00010000
00001000
00010000
,  // measure 34
00002000
00000000
00003010
00000001
00000100
00000010
00010000
00001000
,  // measure 35
00100000
00000000
01000000
10000000
00100000
01000000
00001000
00010000
,  // measure 36
00000100
00000000
00000010
00000001
00000100
00000010
00010000
00001000
,  // measure 37
00100000
00000000
01000000
00010000
00001000
00000000
00011000
00000000
,  // measure 38
00020000
00000000
00130000
10000000
01000000
00010000
00001000
00000010
,  // measure 39
00000100
00000000
00000010
00000001
00000100
00001000
00010000
01000000
,  // measure 40
00100000
00000000
01000000
10000000
00100000
00010000
00001000
00000010
,  // measure 41
00000100
00000000
00000010
00000001
00000100
00001000
00010000
01000000
,  // measure 42
10000000
00000000
00100000
00000000
01000000
00000000
00001000
00010000
00001000
00000000
00100000
00000000
00010000
00000000
00000000
00000000
,  // measure 43
01000000
00000000
00001000
00000000
00010000
00000000
00000100
00001000
00000100
00000000
00000010
00000000
00000001
00000000
00000000
00000000
,  // measure 44
00000100
00000000
00000010
00000000
00010000
00000000
00001000
00010000
00001000
00000000
01000000
00000000
00010000
00000000
00000000
00000000
,  // measure 45
00100000
01000000
10000000
00010000
01000000
00000000
01100000
00000000
,  // measure 46
10010000
10000000
01000000
00010000
00001000
00000100
00000001
00001000
,  // measure 47
00001001
00000001
00000010
00001000
00010000
01000000
10000000
00010000
,  // measure 48
01000000
01000000
00001000
00001000
00010000
00010000
00000100
00000100
,  // measure 49
00001000
00000010
00001000
00000000
00000001
00000100
00000001
00000000
00000010
00000000
00001000
00000000
00010000
00000000
00100000
00000000
,  // measure 50
20100000
00000000
00000000
32000000
00000000
03020000
00000000
00000000
,  // measure 51
00031000
00010000
00010010
00000000
00010000
00001000
00101000
00000000
,  // measure 52
00021000
00000000
00000000
00030200
00000000
00000320
00000000
00000000
,  // measure 53
00000031
00000100
00000110
00000000
00001000
00000010
00000110
00000000
,  // measure 54
00000102
00000000
00000000
00000023
00000000
00002030
00000000
00000000
,  // measure 55
00013000
01000000
10000000
00100000
01100000
00000000
01010000
00000000
,  // measure 56
00022000
00000000
00000000
00033000
,  // measure 57
00001000
00000000
01000000
00000000
00001000
00000000
00010000
00000000
00000100
00000000
00010000
00000000
00001000
00000000
00000000
00010000
00000000
00000000
00010000
00000000
00000000
00010000
00000000
00000000
,  // measure 58
00011000
00000000
01010000
00000000
00000000
10000000
10100000
00000000
,  // measure 59
00000000
00010000
00110000
00001000
00000000
00010000
00010010
00000000
,  // measure 60
00001100
00000000
00000011
00000000
00000000
00001000
00001100
00000000
,  // measure 61
00000000
00000010
00010010
00001000
00000000
00100000
00101000
00000000
,  // measure 62
00011000
00000000
01010000
00000000
00000000
10000000
11000000
00000000
,  // measure 63
00000000
00100000
01010000
00001000
00000000
00010000
00010010
00000000
,  // measure 64
00001100
00000000
00000011
00000000
00000000
00000100
00001010
00010000
,  // measure 65
00001000
00000000
00100000
00000000
00001000
00000000
00010000
00000000
00000010
00000000
00010000
00000000
00001000
00000000
00000000
00100000
00000000
00000000
00010000
00000000
00000000
10000000
00000000
00000000
,  // measure 66
20020000
00000000
00000000
00000000
,  // measure 67
00000000
00000000
00000000
00000000
,  // measure 68
30030000
00000000
00000000
00000000
,  // measure 69
00000000
00000000
00000000
00000000
,  // measure 70
02000000
03200000
00320000
00032000
,  // measure 71
00003200
00000302
00000023
00002030
,  // measure 72
00023000
00230000
20300000
32000000
,  // measure 73
03020000
00032000
00003200
00000320
,  // measure 74
00001030
00000000
00000000
00000001
00000000
00000000
00000100
00000000
00000000
00001000
00000000
00000000
00010000
00000000
00100000
01000000
,  // measure 75
00100000
00000000
00000000
10000000
00000000
00000000
01000000
00000000
00000000
00100000
00000000
00000000
00001000
00000000
00010000
00001000
,  // measure 76
00010000
00000000
00000100
00001000
00000000
00001000
00000100
00000000
00000010
00000001
00000000
00000100
00000001
00000000
00001000
00000010
,  // measure 77
00001000
00000000
00000000
00000010
00000000
00000000
00000000
00000000
00000000
00010000
00000000
00000000
00001000
00000000
00000000
00000000
00000000
00000000
00100000
00000000
00000000
00010000
00000000
00000000
00000000
00000000
00000000
01000000
00000000
00000000
00001000
00000000
00000000
00000000
00000000
00000000
00010000
00000000
00000000
00000000
00001000
00000000
00000000
00000000
00010000
00000000
00000000
00000000
,  // measure 78
00001000
00010000
00100000
10000000
00010000
00100000
01000000
00010000
,  // measure 79
00011000
00001000
00000100
00000001
00001000
00000100
00000010
00001000
,  // measure 80
00011000
00010000
01000000
10000000
00100000
00010000
00001000
00000100
,  // measure 81
00000220
00000000
00000000
00000330
,  // measure 82
00002002
00000000
00000000
00000000
,  // measure 83
00000000
00000000
00000000
00003003
,  // measure 84
00001001
00000000
00000000
00000001
00000100
00000000
00000100
00000000
00001000
00000000
00000000
00000001
00000010
00000000
00000010
00000000
,  // measure 85
00001000
00000000
00000000
00000001
00000100
00000000
00000100
00000000
00001000
00000000
00000000
00000000
00011000
00000000
00000000
00000000
,  // measure 86
00110000
00000000
00000000
10000000
01000000
00000000
01000000
00000000
00010000
00000000
00000000
10000000
00100000
00000000
00100000
00000000
,  // measure 87
00010000
00000000
00000000
10000000
01000000
00000000
01000000
00000000
00010000
00001000
00010000
00000000
00001000
00000000
00010000
00000000
,  // measure 88
00000100
00000000
00000000
00000010
00000001
00000000
00000100
00000000
00001000
00000000
00000000
00001000
00010000
00000000
01000000
00000000
,  // measure 89
10000000
00000000
00000000
10000000
00100000
00000000
00010000
00000000
00001000
00000000
00001000
00000000
00010000
00000000
00010000
00000000
,  // measure 90
00000100
00000010
00000001
00001000
00000100
00000010
00001000
00010000
,  // measure 91
01000000
00000000
00100000
00000000
00010000
00000000
10000000
00000000
00100000
10000000
00100000
00000000
01000000
00010000
01000000
00000000
,  // measure 92
00100000
10000000
01000000
00100000
10000000
00100000
00001000
00010000
,  // measure 93
00000100
00000001
00000100
00000010
00000001
00000000
00000101
00000000
,  // measure 94
00002000
00003020
00020030
00032000
,  // measure 95
00203000
00320000
02030000
03001000
,  // measure 96
00011000
00100000
00010000
01000000
00011000
00000100
00001000
00000010
,  // measure 97
00000100
00000000
00000000
00000001
00000000
00000000
00000100
00000000
00000000
00000000
00000000
00000000
00000010
00000000
00000000
00001000
00000000
00000000
00000010
00000000
00000000
00000000
00000000
00000000
00010000
00000000
00000000
00000000
00001000
00000000
00000000
00000000
00010000
00000000
00000000
00000000
00001000
00000000
00000000
00000000
00100000
00000000
00000000
00000000
01000000
00000000
00000000
00000000
,  // measure 98
20000000
00000000
00000000
00000000
,  // measure 99
30000000
00000000
00000000
00000000
;

//---------------dance-single - ----------------
#NOTEDATA:;
#CHARTNAME:;
#STEPSTYPE:dance-single;
#DESCRIPTION:;
#CHARTSTYLE:;
#DIFFICULTY:Beginner;
#METER:4;
#RADARVALUES:0.170577,0.261857,0.037786,0.060458,0.000000,158.000000,153.000000,5.000000,8.000000,0.000000,0.000000,0.000000,0.000000,0.000000,0.170577,0.261857,0.037786,0.060458,0.000000,158.000000,153.000000,5.000000,8.000000,0.000000,0.000000,0.000000,0.000000,0.000000;
#CREDIT:MILEN;
#DISPLAYBPM:185.000000;
#NOTES:
0000
0000
0000
0000
,
0000
0000
0000
0000
,
0000
0000
0000
0000
,
0000
0000
0000
0000
,
0000
0000
0000
0000
,
0000
0000
0000
0000
,
0000
0000
0000
0000
,
0000
0000
0000
0000
,
1000
0000
0000
0000
,
1000
0000
0000
0000
,
0001
0000
0000
0000
,
0001
0000
0000
0000
,
0100
0000
0000
0000
,
0100
0000
0000
0000
,
0010
0000
0000
0000
,
0010
0000
0000
0000
,
1001
0000
0000
0000
,
0100
0100
0100
0100
,
0010
0000
1000
0000
,
0010
0000
1000
0000
,
0010
0000
1000
0000
,
0010
0000
1000
0000
,
0001
0000
0100
0000
,
0001
0000
0100
0000
,
0001
0000
0100
0000
,
0001
0000
0100
0000
,
0001
0000
0010
0000
,
0001
0000
0010
0000
,
0001
0000
0010
0000
,
0001
0000
0010
0000
,
0100
0000
1000
0000
,
0100
0000
1000
0000
,
0100
0000
1000
0000
,
0200
0000
0000
0300
,
0100
0000
1000
0000
,
0001
0000
1000
0000
,
0100
0000
1000
0000
,
0001
0000
1000
1000
,
0010
0000
1000
0000
,
0001
0000
1000
0000
,
0010
0000
1000
0000
,
0001
0000
1001
0000
,
0010
0000
0001
0000
,
1000
0000
0001
0000
,
0010
0000
0001
0000
,
1000
0000
0001
0001
,
0100
0000
0001
0000
,
1000
0000
0001
0000
,
0100
0000
0001
0000
,
1000
0000
1001
0000
,
0020
0000
0000
0000
,
0030
0000
0000
0000
,
2000
0000
0000
0000
,
3000
0000
0000
0000
,
0002
0000
0000
0000
,
0003
0000
0000
0000
,
0200
0000
0000
0000
,
0300
0000
0000
0000
,
0010
0000
1000
0000
,
0100
0000
0100
0000
,
0010
0000
0001
0000
,
0100
0000
0100
0000
,
0010
0000
1000
0000
,
0001
0000
0100
0000
,
0010
0000
0010
0000
,
0010
0010
0020
0030
,
0100
0000
0000
0000
,
0000
0000
0000
0000
,
0000
0000
0000
0000
,
0000
0000
0000
0000
,
0001
0000
0000
0000
,
1000
0000
0000
0000
,
0001
0000
0000
0000
,
1000
0000
0000
0000
,
0001
0000
0001
0000
,
0001
0000
0001
0000
,
1000
0000
1000
0000
,
1000
0000
1000
0000
,
0010
0000
0100
0000
,
0010
0000
0100
0000
,
0010
0010
0010
0000
,
0200
0000
0000
0300
,
0110
0000
0000
0000
,
0000
0000
0000
0000
,
1000
0000
0100
0000
,
0010
0000
0001
0001
,
1000
0000
0100
0000
,
0010
0000
0001
0000
,
1000
0000
0100
0000
,
0010
0000
1001
0000
,
0001
0000
0100
0000
,
1000
0000
0010
0000
,
0001
0000
0100
0000
,
1000
0000
0010
0010
,
0001
0000
1000
0000
,
0010
0000
0100
0000
,
0001
0000
0010
0000
,
1000
0000
0100
0100
,
0020
0000
0000
0000
,
0030
0000
0000
0000
;

//---------------dance-single - ----------------
#NOTEDATA:;
#CHARTNAME:;
#STEPSTYPE:dance-single;
#DESCRIPTION:;
#CHARTSTYLE:;
#DIFFICULTY:Easy;
#METER:8;
#RADARVALUES:0.318482,0.448898,0.120915,0.083129,0.000000,295.000000,279.000000,16.000000,11.000000,0.000000,0.000000,0.000000,0.000000,0.000000,0.318482,0.448898,0.120915,0.083129,0.000000,295.000000,279.000000,16.000000,11.000000,0.000000,0.000000,0.000000,0.000000,0.000000;
#CREDIT:MILEN;
#DISPLAYBPM:185.000000;
#NOTES:
0000
0000
0000
0000
,
0000
0000
0000
0000
,
0000
0000
0000
0000
,
0000
0000
0000
0000
,
0000
0000
0000
0000
,
0000
0000
0000
0000
,
0000
0000
0000
0000
,
0000
0000
0000
0000
,
1000
0000
0001
0000
,
1000
0100
1000
0000
,
0001
0000
1000
0000
,
0001
0010
0001
0000
,
1000
0000
0001
0000
,
1000
0010
1000
0000
,
0001
0000
1000
0000
,
0001
0100
0001
0000
,
1000
0000
0001
0000
,
0100
0010
0100
0110
,
1000
0010
0100
0000
,
0001
0100
0010
0000
,
1000
0100
0010
0000
,
0001
0010
0100
0000
,
1000
0001
0010
0000
,
0001
1000
0010
0000
,
1000
0001
0100
0000
,
0001
1000
0100
0000
,
1000
1000
0001
0001
,
1000
0100
0010
0001
,
1000
1000
0001
0001
,
1000
0010
0100
0001
,
1001
0010
0100
0010
,
1001
0100
0010
0100
,
0001
1000
0010
0100
,
0220
0000
0000
0330
,
0010
1000
0100
1000
,
0010
1000
0100
0000
,
0010
0001
0100
0001
,
0010
0001
0100
0100
,
1000
0001
1000
0010
,
1000
0001
1000
0000
,
0001
0100
0001
1000
,
0001
0100
0001
1001
,
1000
0100
0010
0100
,
1000
0100
0010
0000
,
0001
0010
0100
0010
,
0001
0010
0100
0100
,
1000
0010
0001
0000
,
0001
0100
1000
0000
,
1000
0010
0001
0100
,
1000
0001
1000
0010
,
0110
0000
0000
1000
0000
1000
0000
0000
,
0001
0000
1000
0000
,
0110
0000
0000
0001
0000
0001
0000
0000
,
1000
0001
1000
1001
,
0110
0000
0000
0001
0000
1000
0000
0000
,
0001
0000
1000
0001
,
0110
0100
0001
0100
,
0010
0000
1000
0000
0010
0000
0100
0100
,
0100
0001
0010
0000
,
0010
0001
0100
0000
,
0100
1000
0010
0000
,
0010
1000
0100
0000
,
0100
0001
1000
0000
,
0010
1000
0001
0000
,
0100
0001
1000
0010
,
0100
0010
0010
0010
,
0110
0000
0000
0000
,
0000
0000
0000
0000
,
0000
0000
0000
0000
,
0000
0000
0000
0000
,
1000
0000
0010
0000
,
1000
0000
0010
0000
,
0001
0000
0100
0000
,
0001
0000
0100
0000
,
2000
0000
3000
1000
,
0002
0000
0003
0001
,
0100
0010
0200
0300
,
0010
0100
0020
0030
,
1000
0001
0100
0100
,
0001
1000
0010
0010
,
1000
0001
0100
0010
,
2002
0000
0000
3003
,
1001
0000
0000
0000
,
0000
0000
0000
0000
,
1000
0100
0010
0000
,
1000
0100
0001
0000
,
0001
0010
0100
0000
,
0001
0010
1000
0000
,
0010
0100
0001
0100
,
0010
1000
0220
0330
,
0001
0100
1000
0100
,
0001
0100
1000
0100
,
0001
0010
1000
0010
,
0001
0010
1000
0010
,
1001
0100
0010
0100
,
1001
0010
0100
0010
,
1000
1000
0001
0001
,
0100
0010
0100
0000
0010
0100
0010
0100
,
0020
0000
0000
0000
,
0030
0000
0000
0000
;

//---------------dance-single - ----------------
#NOTEDATA:;
#CHARTNAME:;
#STEPSTYPE:dance-single;
#DESCRIPTION:;
#CHARTSTYLE:;
#DIFFICULTY:Medium;
#METER:12;
#RADARVALUES:0.503094,0.673347,0.234273,0.090686,0.056679,466.000000,435.000000,31.000000,12.000000,0.000000,0.000000,0.000000,0.000000,0.000000,0.503094,0.673347,0.234273,0.090686,0.056679,466.000000,435.000000,31.000000,12.000000,0.000000,0.000000,0.000000,0.000000,0.000000;
#CREDIT:MILEN;
#DISPLAYBPM:185.000000;
#NOTES:
0000
0000
0000
0000
,
0000
0000
0000
0000
,
0000
0000
0000
0000
,
0000
0000
0000
0000
,
0000
0000
0000
0000
,
0000
0000
0000
0000
,
0000
0000
0000
0000
,
0000
0000
0000
0000
,
1000
0010
0100
0001
,
1000
1000
0001
0001
,
1000
0100
0010
0001
,
1000
1000
0001
0001
,
0100
0010
1000
0001
,
0010
0010
0100
0100
,
0010
0100
1000
0001
,
0100
0100
0010
0010
,
0100
0010
1000
0001
,
1001
1001
0110
1001
,
1000
0000
0001
0000
0010
0001
0010
0000
,
0001
0100
0001
0100
0000
0010
1000
0000
,
0001
0000
1000
0000
0100
1000
0100
0000
,
1000
0010
1000
0010
0000
0100
0001
0000
,
0100
0000
0010
0000
0100
0001
0100
0000
,
0001
0010
0001
0010
0000
0100
1000
0000
,
0010
0000
0100
0000
0010
1000
0010
0000
,
1000
0100
1000
0100
0000
0010
0001
0100
,
0010
1000
0010
0000
0100
0001
0100
0000
,
0001
0010
0001
0000
1000
0100
1000
0000
,
0010
0100
0010
0000
1000
0001
1000
0000
,
0010
0100
0001
0000
0100
0010
1000
0000
,
1001
0010
0100
0010
,
1001
0100
0010
0100
,
0001
0010
0001
0000
1000
0100
1000
0000
,
0001
0100
0010
1000
0010
0100
0002
0000
,
1003
0000
1000
0100
0010
0000
0100
0000
,
1000
0000
0001
0010
0100
0000
0010
0000
,
0001
0000
1000
0010
0100
0000
0001
0100
,
0010
1000
1010
0101
,
0100
0000
0001
0100
0010
0000
0100
0000
,
0001
0000
1000
0010
0100
0000
0010
0000
,
1000
0000
0001
0010
0100
0000
1000
0100
,
0010
0000
0001
1000
0010
0100
0010
1000
,
0001
0000
1000
0010
0100
0000
1000
0000
,
0100
0000
0001
0100
0010
0000
0001
0000
,
0010
0000
1000
0100
0010
0000
0001
0010
,
0100
1000
1010
0101
,
1001
0100
0010
1000
,
1001
0010
0100
0001
,
1000
0100
1000
0000
0001
0010
0001
0000
,
1000
0100
0010
0001
0010
0100
1000
0000
,
1020
0000
0000
0100
0000
0100
0030
0000
,
0110
0000
0100
0000
0001
0010
0100
0000
,
2100
0000
0000
0001
0000
0001
3000
0000
,
1001
0000
0001
0000
0100
0010
1000
0000
,
1200
0000
0000
0010
0000
0010
0300
0000
,
0110
0000
0010
0000
0001
1000
0010
0000
,
1000
0100
0010
0001
,
1000
0010
0100
0001
0100
0010
1000
1000
,
1001
0000
0001
0010
0000
0001
0100
0000
,
0010
0000
1000
0000
0100
0010
0001
0000
,
1000
0000
0010
1000
0000
0100
1000
0000
,
0010
0000
0100
0000
0001
1000
0100
0000
,
0010
0000
0001
0100
0000
0010
1000
0000
,
0001
0000
0010
0000
0100
1000
0010
0000
,
0100
0000
0001
1000
0000
0100
0010
0000
,
0001
0100
0010
1000
0001
0010
0100
0000
,
0220
0000
0000
0000
,
0000
0000
0000
0000
,
0330
0000
0000
0000
,
0000
0000
0000
0000
,
1000
0010
1000
0010
,
0001
0100
0001
0100
,
1000
0010
0001
0100
,
1000
0010
0100
0110
,
0001
0000
0000
0100
0000
0000
0001
0000
0000
0100
0000
0000
0001
0000
0000
0000
,
1000
0000
0000
0100
0000
0000
1000
0000
0000
0100
0000
0000
1000
0000
0000
0000
,
0010
0000
0000
0100
0000
0000
0010
0000
0000
0100
0000
0000
0010
0000
0010
0000
,
1000
0000
0000
0001
0000
0000
1000
0000
0000
0001
0000
0000
1000
0000
0010
0000
,
0110
0001
1000
0001
,
0110
1000
0001
1000
,
0010
0100
0001
0010
0100
1000
0010
0000
,
0220
0000
0000
0330
,
2002
0000
0000
0000
,
0000
0000
0000
3003
,
0001
0000
0000
0001
0000
0000
0001
0000
1000
0000
0010
0000
0100
0000
0000
0000
,
0001
0000
1000
0100
0010
0000
0011
0000
,
1000
0000
0000
1000
0000
0000
1000
0000
0010
0000
0100
0000
0001
0000
0000
0000
,
1000
0000
0001
0010
0100
0000
1100
0000
,
0010
0000
0000
0010
0000
0000
0010
0000
0100
0000
0001
0000
1000
0000
0000
0000
,
1001
0000
0001
0100
0010
1000
0100
0010
,
0001
0000
0000
0100
0000
0000
0010
0000
1000
0000
0010
0000
0100
0000
0000
0000
,
0001
0000
0000
0010
0000
0000
0100
0000
1000
0000
0001
0000
1000
0000
0000
0000
,
0010
0000
0000
0100
0000
0000
0001
0000
1000
0000
0100
0000
1000
0000
0000
0000
,
0100
0000
0000
0010
0000
0000
0001
0000
0101
0000
0000
0000
1010
0000
0000
0000
,
1000
0010
0100
0000
1000
0100
0001
0000
,
1000
0010
0001
0000
0010
0100
0001
0000
,
1000
0100
0010
0001
0100
0010
1000
0001
,
0010
0100
1000
0100
0001
0100
1000
0100
,
0220
0000
0000
0000
,
0330
0000
0000
0000
;

//---------------dance-double - ----------------
#NOTEDATA:;
#CHARTNAME:;
#STEPSTYPE:dance-double;
#DESCRIPTION:;
#CHARTSTYLE:;
#DIFFICULTY:Easy;
#METER:8;
#RADARVALUES:0.314164,0.486306,0.143587,0.090686,0.000000,291.000000,272.000000,19.000000,12.000000,0.000000,0.000000,0.000000,0.000000,0.000000,0.314164,0.486306,0.143587,0.090686,0.000000,291.000000,272.000000,19.000000,12.000000,0.000000,0.000000,0.000000,0.000000,0.000000;
#CREDIT:MILEN;
#DISPLAYBPM:185.000000;
#NOTES:
00000000
00000000
00000000
00000000
,
00000000
00000000
00000000
00000000
,
00000000
00000000
00000000
00000000
,
00000000
00000000
00000000
00000000
,
00000000
00000000
00000000
00000000
,
00000000
00000000
00000000
00000000
,
00000000
00000000
00000000
00000000
,
00000000
00000000
00000000
00000000
,
00001000
00000000
00010000
00000000
,
01000000
00000000
01000000
00000000
,
00010000
00000000
00001000
00000000
,
00000100
00000000
00000100
00000000
,
00001000
00000000
00010000
00000000
,
00100000
00000000
00100000
00000000
,
00010000
00000000
00001000
00000000
,
00000010
00000000
00000010
00000000
,
00001000
00000000
00010000
00000000
,
00001000
00010000
00001000
00011000
,
00010000
00000100
00010000
00000000
,
00001000
00100000
00001000
00000000
,
00010000
00000010
00010000
00000000
,
00001000
01000000
00001000
00000000
,
00010000
00000100
00001000
00000000
,
00000010
00010000
00001000
00000000
,
01000000
00001000
00010000
00000000
,
00001000
00100000
00010000
00000000
,
10000000
10000000
01000000
01000000
,
00010000
00001000
00000010
00000110
,
00000001
00000001
00000100
00000100
,
00001000
00010000
01000000
01100000
,
10000000
00100000
00010000
00001000
,
00010000
00100000
00010000
00001000
,
00000100
00000001
00000010
00001000
,
00022000
00000000
00000000
00033000
,
00010000
00000100
00001000
00000100
,
00010000
00000100
00000010
00000000
,
00001000
01000000
00010000
01000000
,
00001000
01000000
00100000
00100000
,
00010000
00001000
00000010
00001000
,
00010000
00001000
00000010
00000000
,
00001000
00010000
00100000
00010000
,
00001000
00010000
00100000
10010000
,
10000000
01000000
00010000
01000000
,
10000000
01000000
00010000
00000000
,
00001000
00000100
00000001
00000100
,
00001000
00000100
00000001
00000001
,
00000010
00001000
00010000
00000000
,
00100000
00010000
00001000
00000000
,
00000100
00001000
00010000
01000000
,
00010000
00001000
00000010
00000100
,
00000110
00000000
00000000
00000001
00000000
00000001
00000000
00000000
,
00000100
00000000
00001000
00000000
,
00011000
00000000
00000000
00100000
00000000
00100000
00000000
00000000
,
10000000
00010000
10000000
10010000
,
01100000
00000000
00000000
10000000
00000000
10000000
00000000
00000000
,
01000000
00000000
00010000
00001000
,
00011000
00000100
00001000
00000100
,
00000010
00000000
00000001
00000000
00000010
00000000
00000000
00001000
,
00010000
00100000
10000000
00000000
,
10000000
01000000
00010000
00000000
,
00001000
00000010
00000001
00000000
,
00000001
00000100
00001000
00000000
,
00010000
00001000
00000010
00000000
,
00001000
00010000
00100000
00000000
,
00010000
00001000
00000100
00001000
,
00010000
01000000
00010000
00001000
,
00011000
00000000
00000000
00000000
,
00000000
00000000
00000000
00000000
,
00000000
00000000
00000000
00000000
,
00000000
00000000
00000000
00000000
,
00100000
00000000
00001000
00000000
,
00100000
00000000
00001000
00000000
,
00010000
00000000
00000010
00000000
,
00010000
00000000
00000010
00000000
,
00020000
00000000
00030000
00010000
,
00002000
00000000
00003000
00001000
,
00100000
00010000
02000000
03000000
,
00001000
00010000
00000200
00000300
,
00001000
00000010
00010000
00001000
,
00100000
00010000
01000000
00001000
,
00010000
00000100
00000010
00000001
,
00002002
00000000
00000000
00003003
,
00001001
00000000
00000000
00000000
,
00000000
00000000
00000000
00000000
,
00000001
00000100
00001000
00000000
,
00000100
00001000
00010000
00000000
,
00001000
00010000
01000000
00000000
,
00010000
01000000
10000000
00000000
,
00100000
00010000
00001000
00000010
,
00001000
00010000
00022000
00033000
,
00001000
00010000
01000000
10000000
,
01000000
00010000
01000000
10000000
,
00100000
00010000
00001000
00010000
,
00100000
00010000
00001000
00000010
,
00001001
00000100
00001000
00010000
,
00011000
00001000
00010000
01000000
,
10010000
00100000
00010000
00001000
,
00011000
00000000
00000010
00000000
00001000
00000001
00001000
00000000
,
00002002
00000000
00000000
00000000
,
00003003
00000000
00000000
00000000
;

//---------------dance-double - ----------------
#NOTEDATA:;
#CHARTNAME:;
#STEPSTYPE:dance-double;
#DESCRIPTION:;
#CHARTSTYLE:;
#DIFFICULTY:Medium;
#METER:12;
#RADARVALUES:0.502015,0.673347,0.226716,0.090686,0.056679,465.000000,435.000000,30.000000,12.000000,0.000000,0.000000,0.000000,0.000000,0.000000,0.502015,0.673347,0.226716,0.090686,0.056679,465.000000,435.000000,30.000000,12.000000,0.000000,0.000000,0.000000,0.000000,0.000000;
#CREDIT:MILEN;
#DISPLAYBPM:185.000000;
#NOTES:
00000000
00000000
00000000
00000000
,
00000000
00000000
00000000
00000000
,
00000000
00000000
00000000
00000000
,
00000000
00000000
00000000
00000000
,
00000000
00000000
00000000
00000000
,
00000000
00000000
00000000
00000000
,
00000000
00000000
00000000
00000000
,
00000000
00000000
00000000
00000000
,
00001000
00100000
00010000
01000000
,
00001000
00001000
00010000
00001000
,
00010000
00000100
00001000
00000010
,
00010000
00010000
00001000
00010000
,
00001000
01000000
00010000
00100000
,
00001000
00001000
00010000
00001000
,
00010000
00000010
00001000
00000100
,
00010000
00010000
00001000
00010000
,
00000100
00010000
00001000
01000000
,
00001000
00011000
00010100
01001000
,
00001000
00000000
00010000
00000000
00000100
00001000
00000100
00000000
,
00001000
00000010
00001000
00000010
00000000
00000100
00000001
00000000
,
00000010
00000000
00000100
00000000
00010000
00001000
00010000
00000000
,
00001000
00100000
00001000
00100000
00000000
00010000
01000000
00000000
,
00100000
00000000
10000000
00000000
01000000
00100000
01000000
00000000
,
00100000
00001000
00100000
00001000
00000000
00010000
00000100
00000000
,
00000010
00000000
00000001
00000000
00001000
00000010
00001000
00000000
,
00000100
00010000
00000100
00010000
00000000
00001000
00100000
00010000
,
01000000
00100000
01000000
00000000
00100000
10000000
00100000
00000000
,
01000000
00010000
01000000
00000000
00001000
00010000
00001000
00000000
,
00000100
00000001
00000100
00000000
00000010
00001000
00000010
00000000
,
00001000
00000100
00010000
00000000
00001000
00100000
00010000
00000000
,
10010000
10000000
01000000
00010000
,
00011000
00001000
00000010
00000001
,
00000100
00000010
00000100
00000000
00000010
00001000
00000010
00000000
,
00010000
00001000
00100000
00010000
00100000
00001000
00020000
00000000
,
00030100
00000000
00000100
00001000
00000001
00000000
00001000
00000000
,
00000100
00000000
00010000
00001000
00100000
00000000
00010000
00000000
,
10000000
00000000
00010000
00100000
00001000
00000000
00010000
00000010
,
00001000
00000100
00001100
00000011
,
00000001
00000000
00001000
00000010
00010000
00000000
00001000
00000000
,
00100000
00000000
00010000
10000000
00100000
00000000
10000000
00000000
,
00010000
00000000
00100000
00001000
00010000
00000000
00000010
00010000
,
00001000
00000000
00100000
00010000
01000000
00100000
01000000
00010000
,
00100000
00000000
01000000
10000000
00100000
00000000
01000000
00000000
,
00100000
00000000
00010000
00001000
00100000
00000000
00010000
00000000
,
01000000
00000000
00001000
00010000
00000010
00000000
00001000
00000100
,
00000010
00000001
00000101
00001010
,
00001001
00000001
00000100
00001000
,
00011000
00010000
00100000
10000000
,
01000000
10000000
01000000
00000000
00100000
00010000
00100000
00000000
,
00001000
00010000
00000010
00001000
00000010
00010000
00001000
00000000
,
00021000
00000000
00000000
00000100
00000000
00000100
00030000
00000000
,
00010100
00000000
00000100
00000000
00001000
00000100
00000010
00000000
,
00000012
00000000
00000000
00000100
00000000
00000100
00000003
00000000
,
00000101
00000000
00000100
00000000
00001000
00010000
00100000
00000000
,
20100000
00000000
00000000
01000000
00000000
01000000
30000000
00000000
,
11000000
00000000
01000000
00000000
00100000
00001000
00010000
00000000
,
00000100
00001000
00000001
00000100
,
00000010
00010000
00001000
00100000
00001000
00010000
00000010
00000010
,
00000110
00000000
00000100
00000001
00000000
00001000
00000010
00000000
,
00010000
00000000
00001000
00000000
00100000
01000000
10000000
00000000
,
00100000
00000000
01000000
00010000
00000000
00100000
01000000
00000000
,
10000000
00000000
00100000
00000000
00010000
00001000
00100000
00000000
,
00010000
00000000
01000000
00001000
00000000
00010000
00000100
00000000
,
00000010
00000000
00000001
00000000
00000100
00001000
00010000
00000000
,
00100000
00000000
10000000
01000000
00000000
00100000
00010000
00000000
,
01000000
00001000
00010000
00000100
00001000
00000010
00010000
00000000
,
00022000
00000000
00000000
00000000
,
00000000
00000000
00000000
00000000
,
00033000
00000000
00000000
00000000
,
00000000
00000000
00000000
00000000
,
00001000
00000100
00001000
00000100
,
00000001
00000010
00000001
00000010
,
00001000
00010000
01000000
10000000
,
00100000
00010000
00001000
00011000
,
00010000
00000000
00000000
00000010
00000000
00000000
00010000
00000000
00000000
00000010
00000000
00000000
00010000
00000000
00000000
00000000
,
00001000
00000000
00000000
00100000
00000000
00000000
00001000
00000000
00000000
00100000
00000000
00000000
00001000
00000000
00000000
00000000
,
00010000
00000000
00000000
00000100
00000000
00000000
00010000
00000000
00000000
00000100
00000000
00000000
00010000
00000000
00010000
00000000
,
00001000
00000000
00000000
01000000
00000000
00000000
00001000
00000000
00000000
01000000
00000000
00000000
00001000
00000000
00010000
00000000
,
00011000
00001000
00010000
01000000
,
10010000
10000000
00100000
00010000
,
00001000
00010000
00000100
00001000
00000100
00000010
00000001
00000000
,
00002002
00000000
00000000
00003003
,
00000220
00000000
00000000
00000000
,
00000000
00000000
00000000
00000330
,
00000010
00000000
00000000
00001000
00000000
00000000
00000100
00000000
00010000
00000000
00001000
00000000
00010000
00000000
00000000
00000000
,
01000000
00000000
10000000
00100000
01000000
00000000
01100000
00000000
,
00010000
00000000
00000000
01000000
00000000
00000000
00100000
00000000
01000000
00000000
00010000
00000000
01000000
00000000
00000000
00000000
,
00001000
00000000
00010000
00000100
00001000
00000000
00001010
00000000
,
00000001
00000000
00000000
00000001
00000000
00000000
00000001
00000000
00000100
00000000
00000010
00000000
00000100
00000000
00000000
00000000
,
00000110
00000000
00001000
00000010
00010000
00001000
00100000
00010000
,
01000000
00000000
00000000
00100000
00000000
00000000
10000000
00000000
01000000
00000000
00100000
00000000
01000000
00000000
00000000
00000000
,
00010000
00000000
00000000
00001000
00000000
00000000
00000010
00000000
00000100
00000000
00000010
00000000
00000001
00000000
00000000
00000000
,
00000100
00000000
00000000
00001000
00000000
00000000
00010000
00000000
00001000
00000000
00100000
00000000
00001000
00000000
00000000
00000000
,
00010000
00000000
00000000
00100000
00000000
00000000
10000000
00000000
11000000
00000000
00000000
00000000
00110000
00000000
00000000
00000000
,
00010000
01000000
00001000
00000000
00010000
00000100
00001000
00000000
,
00000010
00010000
00001000
00000000
00100000
00010000
01000000
00000000
,
00001000
00010000
00000100
00001000
00000010
00000100
00000001
00000010
,
00000100
00010000
00001000
00100000
01000000
10000000
00100000
00010000
,
00022000
00000000
00000000
00000000
,
00033000
00000000
00000000
00000000
;

//---------------dance-single - ----------------
#NOTEDATA:;
#CHARTNAME:;
#STEPSTYPE:dance-single;
#DESCRIPTION:;
#CHARTSTYLE:;
#DIFFICULTY:Challenge;
#METER:17;
#RADARVALUES:0.779472,1.234470,0.400532,0.672592,0.513890,722.000000,669.000000,53.000000,89.000000,0.000000,0.000000,0.000000,0.000000,0.000000,0.779472,1.234470,0.400532,0.672592,0.513890,722.000000,669.000000,53.000000,89.000000,0.000000,0.000000,0.000000,0.000000,0.000000;
#CREDIT:MILEN;
#DISPLAYBPM:185.000000;
#NOTES:
0000
0000
0000
0000
,
0000
0000
0000
0000
,
0000
0000
0000
0000
,
0000
0000
0000
0000
,
0000
0000
0000
0000
,
0000
0000
0000
0000
,
0000
0000
0000
0000
,
0000
0000
0000
0000
,
1000
0010
0100
0010
1000
0100
0010
0100
,
2000
3010
0002
0013
2000
3100
0020
0031
,
0001
0100
0010
0100
0001
0010
0100
0010
,
0002
0103
2000
3100
0002
0013
0200
1300
,
1000
0010
0100
0001
0100
0010
1000
0100
,
0020
0031
0200
0310
2000
3100
0020
0031
,
0001
0100
0010
1000
0010
0100
0001
0010
,
0200
1300
0020
0130
0002
0013
0200
1300
,
1000
0010
0001
0010
1000
0100
0010
0001
,
0100
0010
0100
0010
0100
0000
0001
0010
0001
0010
0001
0000
1000
0100
1000
0100
,
1000
0010
0001
0010
1000
0100
0010
0011
,
0001
0100
1000
0100
0001
0010
0100
1100
,
1000
0010
0001
0010
1000
0100
0010
0110
,
0100
0010
0001
1000
0020
0230
0302
2003
,
3001
0010
1000
0010
0001
0100
0010
1010
,
1000
0100
0001
0100
1000
0010
0100
0101
,
0001
0010
1000
0010
0001
0100
0010
0110
,
0100
0010
1000
0001
0020
0230
2300
3002
,
1003
0010
0001
1000
0100
0001
0011
0011
,
0001
0100
1000
0001
0010
1000
1100
1100
,
0100
0010
0001
1000
0100
0010
0110
0110
,
1000
0010
0001
0100
2000
3020
0230
0302
,
1003
0000
1000
0000
0010
0000
0010
0000
0100
0000
0100
0000
0001
0000
0010
0100
,
0010
0000
0010
0000
0001
0000
0001
0000
1000
0000
1000
0000
0100
0000
0010
0100
,
0010
0000
0001
0000
0100
0000
0110
0000
1000
0000
0010
0000
0110
0000
0100
0001
,
0010
0100
0010
0100
1000
0010
0100
0001
0010
0100
1000
0100
0010
0001
0100
0010
,
0200
0000
0000
0301
0010
0000
1000
0000
0010
0000
0001
0000
0100
0010
0100
0010
,
0200
0000
0000
0301
0010
0000
1000
0000
0001
0000
0100
0000
1000
0010
1000
0010
,
0200
0000
0000
0301
0010
0000
1000
0000
0010
0000
0001
0000
0100
0010
0100
0010
,
0002
0000
0000
0013
1000
0000
0100
0000
0220
0330
0000
0000
2002
0000
3003
0000
,
0020
0000
0000
1030
0100
0000
0001
0000
0100
0000
1000
0000
0010
0100
0010
0100
,
0020
0000
0000
1030
0100
0000
0001
0000
1000
0000
0010
0000
0001
0100
0001
0100
,
0020
0000
0000
1030
0100
0000
0001
0000
0100
0000
1000
0000
0010
0100
0010
0100
,
2000
0000
0000
0000
0000
0000
0000
0000
0000
0000
0000
0000
0000
0000
0000
0000
0000
0000
0000
0000
0000
0000
0000
0000
0000
0000
0000
0000
0000
0000
0000
0000
0000
0000
0000
0000
3100
0000
0000
0000
0000
0000
0000
0000
0000
0000
0000
0000
0001
0000
0000
0000
0000
0000
0000
0000
0000
0000
0000
0000
0000
0000
0000
0000
0000
0000
0000
0000
0000
0000
0000
0000
0010
0000
0000
0000
0000
0000
0000
0000
0000
0000
0000
0000
0000
0000
0000
0000
0000
0000
0000
0000
0000
0000
0000
0000
0200
0000
0000
0000
0000
0000
0000
0000
0000
0000
0000
0000
0000
0000
0000
0000
0000
0000
0000
0000
0000
0000
0000
0000
2300
0000
0000
0000
0000
0000
0000
0000
0000
0000
0000
0000
0000
0000
0000
0000
0000
0000
0000
0000
0000
0000
0000
0000
3002
0000
0000
0000
0000
0000
0000
0000
0000
0000
0000
0000
0000
0000
0000
0000
0000
0000
0000
0000
0000
0000
0000
0000
0003
0020
0000
0000
0000
0000
0000
0000
0000
0000
0000
0000
0000
0000
0000
0000
0000
0000
0000
0000
0000
0000
0000
0000
,
0230
0000
0000
1300
0010
0000
0001
0000
0010
0000
1000
0000
0100
0010
0100
0010
,
0200
0000
0000
1300
0010
0000
0001
0000
1000
0000
0100
0000
0001
0010
0001
0010
,
0200
0000
0000
1300
0010
0000
0001
0000
0010
0000
1000
0000
0100
0010
0100
0010
,
2000
0000
0000
3010
0001
0000
0100
0000
0220
0330
0000
0000
2002
0000
3003
0000
,
1000
1000
0010
0010
,
0001
0001
0100
0100
,
1000
1000
0010
0010
0001
0001
0100
0100
,
1000
0010
1000
0010
0100
0001
0100
0001
0010
0100
1000
0010
0100
0001
0010
0100
,
2000
0000
0000
3020
0000
0100
0000
0000
,
2030
0000
3002
0000
,
0023
0000
0000
0230
0000
0001
0000
0000
,
2300
0000
0000
0000
,
3002
0000
0000
0203
0000
0010
0000
0000
,
0302
0000
2003
3200
,
0020
0000
0000
0000
0000
0000
0000
0000
0000
0000
0000
0000
0330
0000
0010
0100
,
0010
0100
1000
0010
0100
0001
0010
0100
2000
0000
0001
0000
0001
0000
3001
0000
,
1001
0010
0100
0010
1000
0100
0010
0000
,
0011
1000
0010
2010
0000
3001
0101
0000
,
1001
0100
0010
0100
0001
0010
0100
0000
,
1100
0001
0100
0102
0000
1003
1010
0000
,
0110
0100
0001
0010
0100
1000
0010
0000
,
1010
0001
0010
0012
0000
1003
1100
0000
,
0110
0010
1000
0100
0010
0001
0100
0010
,
1000
0100
1000
0100
0010
0001
0010
0001
0100
0010
1000
0001
0010
0100
1000
0010
,
0200
0000
0000
0000
,
0000
0000
0000
0000
,
0302
0000
0000
0000
,
0000
0000
0000
0000
,
0023
0000
0000
0000
,
0000
0000
0000
0000
,
2030
0000
0000
0000
,
0000
0000
0000
0000
,
3100
0000
0000
0101
0000
0000
0010
0000
0000
1010
0000
0000
0100
0000
0010
0100
,
0010
0000
0000
0011
0000
0000
0100
0000
0000
1100
0000
0000
0010
0000
0100
0010
,
0100
0000
0001
0010
0000
0010
1000
0000
1000
0100
0000
0100
0001
0000
0010
0100
,
0010
0000
0000
0001
0000
0000
0000
0000
0000
0001
0000
0000
0100
0000
0000
0000
0000
0000
0100
0000
0000
1000
0000
0000
0000
0000
0000
1000
0000
0000
0010
0000
0000
0100
0000
0000
0010
0000
0000
0000
0100
0000
0000
0000
0010
0000
0000
0000
,
1000
1000
0100
0100
0001
0001
0010
0110
,
0001
0001
0010
0010
1000
1000
0100
0110
,
0001
0100
0001
0100
0010
1000
0010
1000
0100
0010
0100
0010
0001
1000
0001
1000
,
0010
0100
0001
1000
0010
0100
0001
1000
0100
0010
0001
1000
0100
0010
0001
0200
,
0020
0000
0000
0000
,
0000
0000
0000
0330
,
1001
0000
0000
0001
0100
0000
0100
1000
0100
0000
0000
0100
0001
0000
0010
0100
,
0010
0000
0000
0001
0100
0000
0010
0000
2020
3030
0000
0000
0202
0000
0303
0000
,
1001
0000
0000
1000
0010
0000
0010
0001
0010
0000
0000
0010
1000
0000
0100
0010
,
0100
0000
0000
1000
0010
0000
0001
0000
1000
0000
0100
0000
0001
0000
0010
0000
,
0110
0000
0000
0100
1000
0000
1000
0010
1000
0000
0000
0010
0001
0000
0001
0100
,
0001
0000
0000
0100
1000
0000
0001
0000
0020
0000
0230
0000
2300
0000
3002
0000
,
0013
0000
0000
0010
0100
0000
0100
0001
0100
0000
0000
0100
1000
0000
0010
0001
,
0010
0000
0000
1000
0100
0000
0001
0000
1000
0000
0010
0000
0001
0000
1000
0000
,
0110
0000
0000
0100
0010
0000
0010
1000
0010
0000
0000
0010
0001
0000
0100
1000
,
0100
0000
0000
0100
0001
0000
0010
0000
0022
0033
0000
0000
2200
0000
3300
0000
,
1010
0011
1100
0101
,
0011
1010
0101
1100
,
1000
1000
0010
0010
0001
0001
0100
0100
,
1000
0010
1000
0010
0100
0001
0100
0001
0010
0100
1000
0010
0100
0001
1000
0200
,
0020
0000
0000
0000
,
0330
0000
0000
0000
;

//---------------dance-double - ----------------
#NOTEDATA:;
#CHARTNAME:;
#STEPSTYPE:dance-double;
#DESCRIPTION:;
#CHARTSTYLE:;
#DIFFICULTY:Challenge;
#METER:17;
#RADARVALUES:0.775154,1.234470,0.392975,0.612134,0.460990,718.000000,666.000000,52.000000,81.000000,0.000000,0.000000,0.000000,0.000000,0.000000,0.775154,1.234470,0.392975,0.612134,0.460990,718.000000,666.000000,52.000000,81.000000,0.000000,0.000000,0.000000,0.000000,0.000000;
#CREDIT:MILEN;
#DISPLAYBPM:185.000000;
#NOTES:
// measure 0
00000000
00000000
00000000
00000000
,  // measure 1
00000000
00000000
00000000
00000000
,  // measure 2
00000000
00000000
00000000
00000000
,  // measure 3
00000000
00000000
00000000
00000000
,  // measure 4
00000000
00000000
00000000
00000000
,  // measure 5
00000000
00000000
00000000
00000000
,  // measure 6
00000000
00000000
00000000
00000000
,  // measure 7
00000000
00000000
00000000
00000000
,  // measure 8
00001000
00100000
00010000
00100000
00001000
00010000
00100000
00010000
,  // measure 9
00002000
00203000
02300000
03010000
,  // measure 10
00010000
00000100
00001000
00000100
00010000
00001000
00000100
00001000
,  // measure 11
00020000
00030200
00000320
00001030
,  // measure 12
00001000
00010000
01000000
00100000
01000000
00010000
00001000
00100000
,  // measure 13
02000000
03020000
00032000
00013000
,  // measure 14
00010000
00001000
00000010
00000100
00000010
00001000
00010000
00000100
,  // measure 15
00000020
00002030
00023000
00031000
,  // measure 16
00001000
00010000
01000000
10000000
00100000
00010000
00001000
00000100
,  // measure 17
00000001
00000010
00000001
00000010
00000100
00000000
00001000
00000010
00001000
00000010
00000100
00000000
00001000
00010000
00001000
00010000
,  // measure 18
01000000
10000000
00100000
00010000
00100000
10000000
01000000
01100000
,  // measure 19
00000000
00100000
00010000
01000000
10000000
01000000
00010000
00100000
,  // measure 20
01000000
00010000
00001000
00000010
00000100
00001000
00000010
00000001
,  // measure 21
00001000
00000100
00000001
00000010
00002000
00023000
00030200
00000310
,  // measure 22
00000010
00000001
00000100
00001000
00000100
00000001
00000010
00000110
,  // measure 23
00000000
00000100
00001000
00000010
00000001
00000010
00001000
00000100
,  // measure 24
00000010
00001000
00010000
01000000
00100000
00010000
01000000
10000000
,  // measure 25
00010000
00100000
10000000
01000000
00020000
00001000
00001000
00031000
,  // measure 26
00011000
00010000
00001000
00000100
00000010
00001000
00000100
00000101
,  // measure 27
00000000
00000001
00000100
00001000
00000010
00010000
00100000
00001000
,  // measure 28
00000100
00010000
01000000
00100000
00010000
01000000
10000000
00010000
,  // measure 29
00100000
10000000
01000000
00100000
00002000
00023000
00230000
01300000
,  // measure 30
00100000
00000000
00100000
00000000
00010000
00000000
00010000
00000000
00001000
00000000
00001000
00000000
00000100
00000000
00000010
00000100
,  // measure 31
00000001
00000000
00000001
00000000
00000010
00000000
00000010
00000000
00001000
00000000
00001000
00000000
00010000
00000000
01000000
10000000
,  // measure 32
00100000
00000000
01000000
00000000
00001000
00000000
00011000
00000000
00000010
00000000
00010000
00000000
00011000
00000000
00100000
00010000
,  // measure 33
01000000
00100000
01000000
00000000
00100000
10000000
01000000
00100000
01000000
00000000
10000000
00100000
01000000
00100000
00010000
00001000
,  // measure 34
00000200
00000000
00000000
00000301
00000010
00000000
00000001
00000000
00000100
00000000
00001000
00000000
00010000
00001000
00010000
00000000
,  // measure 35
00200000
00000000
00000000
10300000
01000000
00000000
10000000
00000000
00100000
00000000
00010000
00000000
00001000
00010000
00001000
00000000
,  // measure 36
00000200
00000000
00000000
00000301
00000010
00000000
00000001
00000000
00000100
00000000
00001000
00000000
00010000
00001000
00010000
00000000
,  // measure 37
00200000
00000000
00000000
10300000
01000000
00000000
00010000
00000000
00022000
00033000
00000000
00000000
00022000
00000000
00033000
00000000
,  // measure 38
00200000
00000000
00000000
00310000
01000000
00000000
10000000
00000000
00010000
00000000
00100000
00000000
00010000
00001000
00010000
00000000
,  // measure 39
00000200
00000000
00000000
00001300
00000010
00000000
00000001
00000000
00001000
00000000
00000100
00000000
00001000
00010000
00001000
00000000
,  // measure 40
02000000
00000000
00000000
03010000
00100000
00000000
10000000
00000000
00010000
00000000
01000000
00000000
00010000
00001000
00010000
00000000
,  // measure 41
00000020
00000000
00000000
00001030
00000100
00000000
00000001
00000000
00000200
00000000
00000320
00000000
00002030
00000000
00023000
00000000
,  // measure 42
00230000
00000000
00000000
10300000
01000000
00000000
00100000
00000000
00010000
00000000
00001000
00000000
00000010
00000100
00000010
00000000
,  // measure 43
00000200
00000000
00000000
00000301
00000010
00000000
00000100
00000000
00001000
00000000
00010000
00000000
01000000
00100000
01000000
00000000
,  // measure 44
00200000
00000000
00000000
10300000
01000000
00000000
00100000
00000000
00010000
00000000
00001000
00000000
00000010
00000100
00000010
00000000
,  // measure 45
00000200
00000000
00000000
00000301
00000010
00000000
00001000
00000000
00022000
00033000
00000000
00000000
00022000
00000000
00033000
00000000
,  // measure 46
00000100
00000100
00001000
00001000
,  // measure 47
00010000
00010000
00100000
00100000
,  // measure 48
10000000
10000000
01000000
01000000
00010000
00010000
00001000
00001000
,  // measure 49
00000010
00000001
00000010
00000001
00001000
00000100
00001000
00000100
00000010
00000001
00001000
00000100
00000010
00000001
00000100
00001000
,  // measure 50
00020000
00000000
00000000
00230000
00000000
00320000
00000000
00000000
,  // measure 51
00032000
00000000
00003020
00000000
,  // measure 52
00002030
00000000
00000000
00023000
00000000
02030000
00000000
00000000
,  // measure 53
03020000
00000000
00000000
00000000
,  // measure 54
00032000
00000000
00000000
00003200
00000000
00002300
00000000
00000000
,  // measure 55
00023000
00000000
00230000
20300000
,  // measure 56
00020000
00000000
00000000
00000000
00000000
00000000
00000000
00000000
00000000
00000000
00000000
00000000
30030000
00000000
10000000
01000000
,  // measure 57
00100000
00010000
01000000
00100000
00010000
00001000
00000100
00000010
00002000
00000000
00000001
00000000
00000001
00000000
00003001
00000000
,  // measure 58
00001001
00000010
00000100
00001000
00010000
00100000
01000000
00000000
,  // measure 59
01100000
10000000
00010000
02100000
00000000
03010000
10010000
00000000
,  // measure 60
10010000
00100000
01000000
00010000
00001000
00000010
00000100
00000000
,  // measure 61
00000110
00000001
00001000
00000210
00000000
00001300
00001001
00000000
,  // measure 62
00000110
00000010
00001000
00010000
01000000
00100000
01100000
00000000
,  // measure 63
10010000
01000000
00100000
02100000
00000000
13000000
10010000
00000000
,  // measure 64
01100000
00100000
00010000
00001000
00000100
00000010
00000100
00000001
,  // measure 65
00001000
00000010
00010000
00001000
01000000
00010000
00100000
00000000
00010000
01000000
00001000
00010000
00000010
00001000
00000100
00000000
,  // measure 66
00022000
00000000
00000000
00000000
,  // measure 67
00000000
00000000
00000000
00000000
,  // measure 68
00000000
00000000
00000000
00000000
,  // measure 69
00000000
00000000
00000000
00033000
,  // measure 70
00001000
00010000
01000000
10000000
00100000
00010000
00001000
00010000
,  // measure 71
00001000
00000100
00000001
00000010
00001000
00010000
00001000
00010000
,  // measure 72
01000000
10000000
00100000
01000000
00010000
00100000
00001000
00010000
,  // measure 73
00000100
00001000
00000010
00000100
00000001
00000010
00000100
00001000
,  // measure 74
00001001
00000000
00000000
00000101
00000000
00000000
00000110
00000000
00000000
00001010
00000000
00000000
00011000
00000000
00010000
00001000
,  // measure 75
00010000
00000000
00000000
00010100
00000000
00000000
01001000
00000000
00000000
00010010
00000000
00000000
00101000
00000000
00100000
00010000
,  // measure 76
00100000
00000000
00010000
01000000
00000000
00100000
10000000
00000000
01000000
00100000
00000000
00001000
00010000
00000000
00000100
00001000
,  // measure 77
00000100
00000000
00000000
00000010
00000000
00000000
00000000
00000000
00000000
00000001
00000000
00000000
00000100
00000000
00000000
00000000
00000000
00000000
00000010
00000000
00000000
00001000
00000000
00000000
00000000
00000000
00000000
00000100
00000000
00000000
00010000
00000000
00000000
00001000
00000000
00000000
00010000
00000000
00000000
00000000
00001000
00000000
00000000
00000000
00010000
00000000
00000000
00000000
,  // measure 78
01000000
01000000
10000000
10000000
00100000
00100000
00010000
00011000
,  // measure 79
00000100
00000100
00000001
00000001
00000010
00000010
00001000
00011000
,  // measure 80
00100000
00010000
00100000
00010000
01000000
00100000
01000000
00100000
10000000
01000000
10000000
01000000
00010000
00001000
00010000
00001000
,  // measure 81
00000010
00000001
00000100
00000010
00001000
00000100
00010000
00001000
00100000
00010000
01000000
00100000
10000000
01000000
00100000
00002000
,  // measure 82
00020000
00000000
00000000
00000000
,  // measure 83
00000000
00000000
00000000
00033000
,  // measure 84
00011000
00000000
00000000
00010000
01000000
00000000
00010000
00001000
00010000
00000000
00000000
00001000
00000100
00000000
00001000
00010000
,  // measure 85
00001000
00000000
00000000
00010000
01000000
00000000
10000000
00000000
20020000
30030000
00000000
00000000
20020000
00000000
30030000
00000000
,  // measure 86
10010000
00000000
00000000
00010000
01000000
00000000
00001000
00010000
00001000
00000000
00000000
00001000
00000010
00000000
00010000
00001000
,  // measure 87
00010000
00000000
00000000
00010000
00100000
00000000
00010000
00000000
00001000
00000000
00000100
00000000
00001000
00000000
00010000
00000000
,  // measure 88
00011000
00000000
00000000
00001000
00000100
00000000
00001000
00010000
00001000
00000000
00000000
00010000
00100000
00000000
00010000
00001000
,  // measure 89
00010000
00000000
00000000
00001000
00000100
00000000
00000001
00000000
00000020
00000000
00002030
00000000
00023000
00000000
02030000
00000000
,  // measure 90
13000000
00000000
00000000
10000000
00100000
00000000
00100000
00010000
00100000
00000000
00000000
00010000
00001000
00000000
00001000
00010000
,  // measure 91
00001000
00000000
00000000
00000100
00000001
00000000
00000010
00000000
00000100
00000000
00001000
00000000
00000100
00000000
00000010
00000000
,  // measure 92
00001001
00000000
00000000
00000001
00000010
00000000
00000010
00001000
00000010
00000000
00000000
00001000
00010000
00000000
00010000
00001000
,  // measure 93
00010000
00000000
00000000
01000000
10000000
00000000
00100000
00000000
02200000
03300000
00000000
00000000
02200000
00000000
03300000
00000000
,  // measure 94
10100000
01010000
00101000
00010100
,  // measure 95
00000011
00001100
00010010
01001000
,  // measure 96
10000000
10000000
00100000
00100000
00010000
00010000
00001000
00001000
,  // measure 97
00000100
00000001
00000100
00000001
00000010
00000100
00000010
00000100
00001000
00000010
00000100
00001000
00010000
00100000
01000000
00020000
,  // measure 98
20000000
00000000
00000000
00000000
,  // measure 99
30030000
00000000
00000000
00000000
;
