#VERSION:0.83;
#TITLE:Love is a Danger Zone pt. 2;
#SUBTITLE:;
#ARTIST:BanYa;
#TITLETRANSLIT:;
#SUBTITLETRANSLIT:;
#ARTISTTRANSLIT:;
#GENRE:VARIETY;
#ORIGIN:;
#CREDIT:MUINELIM;
#BANNER:Love is a Danger Zone 2.png;
#BACKGROUND:Love is a Danger Zone 2-bg.PNG;
#PREVIEWVID:;
#JACKET:Love is a Danger Zone 2-jacket.png;
#CDIMAGE:;
#DISCIMAGE:;
#LYRICSPATH:;
#CDTITLE:;
#MUSIC:Love is a Danger Zone 2.MP3;
#OFFSET:-0.769000;
#SAMPLESTART:12.597041;
#SAMPLELENGTH:14.940001;
#SELECTABLE:YES;
#BPMS:0.000=162.000,
32.000=324.000;
#STOPS:;
#DELAYS:;
#WARPS:;
#TIMESIGNATURES:0.000=4=4;
#TICKCOUNTS:0.000=4;
#COMBOS:0.000=1;
#SPEEDS:0.000=1.000=0.000=0;
#SCROLLS:0.000=1.000;
#FAKES:;
#LABELS:0.000=Song Start;
#BGCHANGES:0.000=Love is a Danger Zone 2.mpg=1.000=1=0=0=StretchNoLoop==CrossFade==,
99999=-nosongbg-=1.000=0=0=0 // don't automatically add -songbackground-
;
#KEYSOUNDS:;
#ATTACKS:
;

//---------------dance-single - ----------------
#NOTEDATA:;
#CHARTNAME:;
#STEPSTYPE:dance-single;
#DESCRIPTION:;
#CHARTSTYLE:;
#DIFFICULTY:Hard;
#METER:15;
#RADARVALUES:0.817980,1.452020,0.225119,0.508966,0.044045,585.000000,562.000000,23.000000,52.000000,0.000000,0.000000,0.000000,0.000000,0.000000,0.817980,1.452020,0.225119,0.508966,0.044045,585.000000,562.000000,23.000000,52.000000,0.000000,0.000000,0.000000,0.000000,0.000000;
#CREDIT:MILEN;
#NOTES:
0000
0000
0000
0000
,
0000
0000
0000
0000
,
0000
0000
0000
0000
,
0000
0000
0000
0000
,
1100
0000
0100
1000
0100
0000
1000
0100
1000
0000
0001
0000
0100
0000
0000
0000
,
0101
0000
0100
0001
0100
0000
0001
0100
0001
0000
1000
0000
0010
0000
0000
0000
,
0110
0000
0100
0010
1000
0000
0010
0100
0001
0000
1000
0000
0001
0000
0000
0000
,
1001
0000
1000
0100
0010
0000
0001
0000
0100
0000
0100
0000
0010
1000
0010
1000
,
0001
0000
0010
0100
0010
0000
0001
0000
,
0100
1000
0001
0010
,
0100
0001
0021
0030
,
0001
0100
0120
0030
,
0100
0000
0001
0000
0011
0000
0001
0100
,
0010
0000
0100
0010
1000
0010
0100
0000
,
0001
0010
0100
0010
,
0220
0330
2002
3003
,
1000
0000
0010
0100
0010
0000
1000
0000
,
0100
0001
1000
0010
,
0100
1000
1020
0030
,
1000
0100
0120
0030
,
0100
0000
1000
0000
1010
0000
1000
0100
,
0010
0000
0100
0010
0001
0010
0100
0000
,
1000
0010
0000
0000
0010
0100
0000
0000
,
0100
0001
0000
0000
0001
1000
0000
0000
,
2002
0000
0000
0000
,
0000
0000
0000
0000
,
0000
0000
0000
0000
,
0000
0000
0000
3003
,
0001
0000
1000
0000
0010
0100
0010
0100
,
0001
0000
0010
0001
0100
0000
0020
0000
,
1030
0000
0010
0000
0100
0001
0010
0100
,
0010
0000
0001
1000
0200
0000
0300
0000
,
1000
0000
0001
0000
0010
0100
0010
0100
,
1000
0000
0010
1000
0100
0000
0020
0000
,
0031
0000
0010
0000
0100
1000
0010
0100
,
0010
0000
1000
0001
0200
0000
0300
0000
,
0010
0000
1000
0000
0001
0100
0010
0100
,
0001
0100
0010
0100
0002
0000
1003
0000
,
0200
0000
0310
0000
0010
0001
0010
0100
,
1000
0000
0010
0100
0002
0000
0003
0000
,
0100
0000
0010
0000
1000
0100
0010
0100
,
1000
0100
0010
0100
2000
0000
3001
0000
,
0020
0000
0130
0000
0010
0001
0100
0010
,
1000
0000
0100
0010
2002
0000
3003
0000
,
1000
0010
0200
0000
,
1300
0100
0002
0000
,
0013
0000
0001
0100
0010
0000
0010
1000
,
0100
0000
0100
0010
0200
0000
0000
0000
,
1300
0020
0000
0031
,
0010
2000
0000
3100
,
0010
0001
1000
0010
,
0100
0001
0100
0000
0010
1000
0010
0000
,
1000
0002
0000
0013
,
0100
2000
0000
3010
,
0001
0000
0010
0100
0001
0000
0001
1000
,
0100
0000
0100
0010
0200
0000
0000
0000
,
1300
0020
0000
0031
,
0100
2000
0000
3001
,
0110
0000
0010
1000
0100
0010
0001
0000
,
0100
0001
0100
0001
0010
0100
1000
0000
,
0010
0100
0001
0000
0000
0000
0001
0010
,
0000
0010
0100
0000
0100
1000
0100
1000
,
0010
0100
0001
0000
1000
0000
0100
0010
,
0000
0010
0100
0000
0110
0000
1001
0000
,
1000
0010
0100
0000
0000
0000
0100
0001
,
0000
0001
1000
0000
1000
0010
1000
0010
,
0100
0001
0010
0000
0001
0000
0100
1000
,
0000
1000
0100
0000
0010
0000
1001
0000
,
0220
0000
0000
0000
,
0000
0000
0000
0000
,
0000
0000
0000
0000
,
0000
0000
0000
0330
,
2000
0000
0000
0000
,
3200
0000
0000
0000
,
0302
0000
0023
0000
,
1030
0001
1000
0001
0010
0100
0010
0100
,
1000
0010
0001
1000
,
0100
0001
0010
0100
,
1000
0010
1000
0001
0010
0001
1000
0010
,
1000
0001
0010
0001
1000
0010
1000
0100
,
0020
0031
0100
1000
,
0001
0010
1000
0100
,
0010
0001
0010
0100
1000
0100
0010
0001
,
0100
0001
1000
0010
1000
0100
0010
0001
,
0200
0000
0000
0000
,
0310
0000
0010
1000
0100
0000
0001
0000
,
0100
0000
1000
0010
0100
0010
1000
0000
,
0001
0010
0100
0010
0002
0000
0003
0000
,
1000
0100
0010
0001
,
1000
0100
0010
0001
,
0100
1000
0010
0001
,
0100
1000
0010
0001
,
0100
0000
0010
1000
0100
0000
0001
0000
,
0100
0010
0001
0100
,
1000
0000
0100
0010
0200
0000
0300
0000
,
1000
0000
0100
0010
0200
0000
0300
0000
,
0002
0000
1003
0000
0110
0000
0010
1000
,
0100
0000
0010
0100
1000
0100
0010
0000
,
1000
0010
0001
0100
,
0220
0330
2002
3003
,
0010
0000
0100
0001
0010
0000
1000
0000
,
0010
0100
1000
0010
,
0001
0000
0010
0100
0020
0000
0030
0000
,
0001
0000
0010
0100
0020
0000
0030
0000
,
2000
0000
3001
0000
0110
0000
0100
0001
,
0010
0000
0100
0010
0001
0010
0100
0000
,
1000
0010
0000
0000
0010
0100
0000
0000
,
0100
0001
0000
0000
0001
1000
0000
0000
,
1000
0100
0010
0000
0100
0000
0010
0000
,
0001
0010
0100
0000
0010
0000
0100
0000
,
1000
0010
0100
0000
0001
0100
0010
0000
,
1000
0100
0010
0001
0010
0100
1000
0000
,
0001
0100
0001
0100
0010
1000
0010
1000
,
0001
0010
0100
1000
0010
0100
0001
0010
,
0100
1000
0000
0000
1000
0010
0000
0000
,
0010
0001
0000
0000
0001
0100
0000
0000
,
1000
0010
0100
0000
1000
0000
0100
0000
,
0001
0100
0010
0000
0001
0000
0010
0000
,
1000
0100
0010
0000
0001
0010
0100
0000
,
1000
0010
0100
0001
0100
0010
1000
0000
,
0001
0010
0100
0010
0100
1000
0010
0100
,
0001
1000
0100
0010
0100
0010
0001
0100
,
0010
1000
0000
0000
1000
0100
0000
0000
,
0100
0001
0000
0000
0001
0010
0100
1000
,
0020
0200
0000
0000
,
0000
0000
0000
0000
,
0000
0000
0000
0000
,
0000
0000
0000
0000
,
0000
0000
0000
0000
,
0330
0000
0000
0000
;

//---------------dance-double - ----------------
#NOTEDATA:;
#CHARTNAME:;
#STEPSTYPE:dance-double;
#DESCRIPTION:;
#CHARTSTYLE:;
#DIFFICULTY:Hard;
#METER:16;
#RADARVALUES:0.791414,1.452020,0.166393,0.381724,0.044045,566.000000,549.000000,17.000000,39.000000,0.000000,0.000000,0.000000,0.000000,0.000000,0.791414,1.452020,0.166393,0.381724,0.044045,566.000000,549.000000,17.000000,39.000000,0.000000,0.000000,0.000000,0.000000,0.000000;
#CREDIT:MILEN;
#NOTES:
00000000
00000000
00000000
00000000
,
00000000
00000000
00000000
00000000
,
00000000
00000000
00000000
00000000
,
00000000
00000000
00000000
00000000
,
00011000
00000000
00010000
00001000
00010000
00000000
00001000
00010000
00001000
00000000
00000010
00000000
00000001
00000000
00000000
00000000
,
00001001
00000000
00001000
00000001
00001000
00000000
00000001
00001000
00000001
00000000
00000100
00000000
00001000
00000000
00000000
00000000
,
00011000
00000000
00001000
00010000
00001000
00000000
00010000
00001000
00010000
00000000
00100000
00000000
10000000
00000000
00000000
00000000
,
10010000
00000000
00010000
10000000
00010000
00000000
10000000
00000000
01000000
00000000
01000000
00000000
00010000
00001000
00010000
00001000
,
00010000
00000000
00000100
00000010
00000100
00000000
00010000
00000000
,
00001000
00100000
01000000
10000000
,
00100000
00010000
00002000
00003000
,
00000010
00001000
00020000
00030000
,
00100000
00000000
00010000
00000000
00011000
00000000
00001000
00100000
,
00010000
00000000
00100000
00001000
00010000
00001000
00100000
00000000
,
01000000
10000000
00100000
00010000
,
00020020
00030030
00202000
00303000
,
00001000
00000000
01000000
00100000
01000000
00000000
00001000
00000000
,
00010000
00000010
00000100
00000001
,
00000010
00001000
00020000
00030000
,
00100000
00010000
00002000
00003000
,
00000010
00000000
00001000
00000000
00011000
00000000
00010000
00000010
,
00001000
00000000
00000010
00010000
00001000
00010000
00000010
00000000
,
00000010
00000100
00000000
00000000
00001000
00010000
00000000
00000000
,
00100000
01000000
00000000
00000000
00010000
10000000
00000000
00000000
,
20020000
00000000
00000000
00000000
,
00000000
00000000
00000000
00000000
,
00000000
00000000
00000000
00000000
,
00000000
00000000
00000000
30030000
,
10000000
00000000
00100000
00000000
00010000
00001000
00010000
00000000
,
00100000
00000000
10000000
01000000
10000000
00000000
02000000
00000000
,
03010000
00000000
00001000
00000000
00000010
00000001
00000010
00000000
,
00000001
00000000
00000100
00001000
00000200
00000000
00000300
00000000
,
00000001
00000000
00000010
00000000
00001000
00010000
00001000
00000000
,
00000010
00000000
00000001
00000100
00000001
00000000
00000200
00000000
,
00001300
00000000
00010000
00000000
00100000
10000000
00100000
00000000
,
10000000
00000000
01000000
00010000
02000000
00000000
03000000
00000000
,
00010000
00000000
00001000
00000000
00000010
00000001
00000100
00000001
,
00000010
00000000
00000010
00000001
00000200
00000000
00001300
00000000
,
00020000
00000000
01030000
00000000
01000000
10000000
00100000
10000000
,
01000000
00000000
10000000
01000000
00020000
00000000
00030000
00000000
,
00001000
00000000
00010000
00000000
00100000
10000000
01000000
10000000
,
00100000
00000000
00100000
10000000
02000000
00000000
03010000
00000000
,
00002000
00000000
00003100
00000000
00000100
00000001
00000010
00000001
,
00000100
00000000
00000001
00000100
00002000
00000000
00003000
00000000
,
00010000
01000000
10000000
01000000
,
00010000
01000000
10000000
01000000
,
00010000
00001000
00010000
01000000
,
00010000
00001000
00010000
01000000
,
00010000
00001000
00000100
00001000
,
00010000
00001000
00000100
00001000
,
00010000
00001000
00000100
00000001
,
00000010
00000100
00000010
00000000
00000001
00001000
00000001
00000000
,
00001001
00000001
00000100
00001000
,
00010000
00100000
10000000
01000000
,
00010000
00001000
00000010
00000001
,
00000100
00001000
00010000
00100000
,
10000000
01000000
00010000
00001000
,
00000010
00000001
00000100
00001000
,
00011000
00000000
00010000
00100000
01000000
00100000
00010000
00000000
,
00001000
00000100
00000010
00000100
00001000
00000100
00000001
00000000
,
00000010
00000100
00000010
00000000
00000000
00000000
00000001
00000100
,
00000000
00000100
00001000
00000000
00001000
00010000
01000000
00010000
,
00001000
00010000
01000000
00000000
10000000
00000000
01000000
00100000
,
00000000
00100000
00001000
00000000
00010000
00000000
00100000
00000000
,
10000000
01000000
10000000
00000000
00000000
00000000
01000000
00010000
,
00000000
00010000
00001000
00000000
00001000
00000010
00001000
00010000
,
00001000
00000010
00001000
00000000
00010000
00000000
00000100
00000010
,
00000000
00000010
00000001
00000000
00000100
00000000
00001000
00000000
,
00022000
00000000
00000000
00000000
,
00000000
00000000
00000000
00000000
,
00000000
00000000
00000000
00000000
,
00000000
00000000
00000000
00033000
,
02000000
00000000
00000000
00000000
,
03200000
00000000
00000000
00000000
,
00320000
00000000
00032000
00000000
,
00003010
00000001
00000010
00000001
00001000
00000100
00001000
00000100
,
00000010
00001000
00010000
00100000
,
00010000
00001000
00000010
00001000
,
00010000
00100000
00000000
00100000
10000000
00000000
10000000
01000000
,
00000000
01000000
00100000
00000000
00100000
00001000
00010000
00001000
,
00000020
00000031
00000100
00001000
,
00010000
00100000
10000000
01000000
,
00100000
00010000
00000000
00010000
01000000
00000000
01000000
00001000
,
00000000
00001000
00010000
00000000
00010000
00000100
00001000
00000100
,
00000020
00000000
00000000
00000000
,
00000031
00000000
00000001
00000100
00001000
00000000
00010000
00000000
,
00001000
00000000
00000100
00001000
00010000
00001000
00000100
00000000
,
00001000
00000100
00000001
00000100
00002000
00000000
00003000
00000000
,
00011000
00000000
00010000
00100000
10000000
00000000
10000000
01000000
,
00010000
00000000
00010000
00001000
00010000
00000000
00001000
00000000
,
00000010
00000000
00000100
00000010
00000001
00000000
00000001
00000100
,
00001000
00000000
00010000
00100000
10000000
00000000
01000000
00000000
,
00010000
00000000
00001000
00000100
00001000
00000000
00010000
00000000
,
00100000
10000000
01000000
00100000
,
00001000
00010000
02000000
03000000
,
00010000
00001000
00000200
00000300
,
00000001
00000000
00001000
00000000
00001001
00000000
00000001
00000100
,
00000010
00000000
00000100
00000001
00000010
00000001
00000100
00000000
,
00000010
00001000
00000100
00010000
,
00020020
00030030
00202000
00303000
,
00001000
00000000
00010000
01000000
00010000
00000000
00001000
00000000
,
00000010
00000001
00000100
00001000
,
00010000
00001000
00000200
00000300
,
00001000
00010000
02000000
03000000
,
10000000
00000000
00010000
00000000
10010000
00000000
10000000
01000000
,
00100000
00000000
01000000
10000000
00100000
10000000
01000000
00000000
,
01000000
00010000
00000000
00000000
00001000
00000010
00000000
00000000
,
00000001
00000100
00000000
00000000
00001000
00010000
00000000
00000000
,
00100000
10000000
00100000
00000000
00010000
00000000
00001000
00000000
,
00000100
00000001
00000100
00000000
00001000
00000000
00010000
00000000
,
00100000
10000000
01000000
00000000
10000000
00100000
01000000
00000000
,
00100000
10000000
01000000
00010000
01000000
10000000
00100000
00000000
,
00010000
00001000
00100000
00000000
00001000
00010000
00000100
00000000
,
00001000
00000100
00000010
00000100
00000010
00000001
00000100
00000000
,
00001000
00010000
00000000
00000000
00100000
10000000
00000000
00000000
,
01000000
00010000
00000000
00000000
00001000
00000100
00000000
00000000
,
00000001
00000010
00001000
00000000
00010000
00000000
01000000
00000000
,
10000000
00100000
00010000
00000000
00001000
00000000
00000010
00000000
,
00000001
00000100
00001000
00000000
00000100
00001000
00010000
00000000
,
01000000
00010000
00001000
00010000
01000000
10000000
00010000
00000000
,
10000000
00100000
00010000
00000000
00100000
00010000
00001000
00000000
,
00010000
00001000
00000010
00001000
00010000
00001000
00000010
00000001
,
00000100
00001000
00000000
00000000
00010000
01000000
00000000
00000000
,
10000000
00100000
00000000
00000000
00010000
00001000
00010000
00001000
,
00020000
00000020
00000000
00000000
,
00000000
00000000
00000000
00000000
,
00000000
00000000
00000000
00000000
,
00000000
00000000
00000000
00000000
,
00000000
00000000
00000000
00000000
,
00030030
00000000
00000000
00000000
;

//---------------dance-single - ----------------
#NOTEDATA:;
#CHARTNAME:;
#STEPSTYPE:dance-single;
#DESCRIPTION:;
#CHARTSTYLE:;
#DIFFICULTY:Medium;
#METER:13;
#RADARVALUES:0.703323,1.136364,0.264271,0.381724,0.004894,503.000000,476.000000,27.000000,39.000000,0.000000,0.000000,0.000000,0.000000,0.000000,0.703323,1.136364,0.264271,0.381724,0.004894,503.000000,476.000000,27.000000,39.000000,0.000000,0.000000,0.000000,0.000000,0.000000;
#CREDIT:MILEN;
#NOTES:
0000
0000
0000
0000
,
0000
0000
0000
0000
,
0000
0000
0000
0000
,
0000
0000
0000
0000
,
1000
0010
1000
0001
0000
0010
0011
0000
,
0001
0010
0001
1000
0000
0010
1010
0000
,
1000
0100
0010
0100
0000
0001
1001
0000
,
1000
0000
0010
0000
0100
0000
0001
0000
1000
0000
0010
0000
0100
0010
0100
0000
,
0110
0010
1000
0100
,
0010
0001
0200
0000
,
0301
2000
3100
0000
,
0001
2000
3010
0000
,
0001
2000
3100
1000
,
0100
0010
0001
0100
,
0010
1000
0001
0100
,
0220
0330
2002
3003
,
0110
0010
0001
0100
,
0010
1000
0200
0000
,
1300
0002
0103
0000
,
1000
0002
0013
0000
,
1000
0002
0103
0001
,
0100
0010
1000
0100
,
0010
0001
0000
0000
0001
0100
0000
0000
,
0100
1000
0000
0000
1000
0010
0000
0000
,
0220
0000
0000
0000
,
0000
0000
0000
0000
,
0000
0000
0000
0000
,
0000
0000
0000
0330
,
0100
0000
0100
0000
0001
0000
0010
0001
,
0010
0001
0100
0010
,
1000
0000
0001
0000
0010
0100
0010
0000
,
0100
1000
1010
0000
,
0010
0000
0010
0000
1000
0000
0100
1000
,
0100
1000
0010
0100
,
0001
0000
1000
0000
0100
0010
0100
0000
,
0010
0001
0101
0000
,
1000
0000
1000
0000
0010
0100
0010
0000
,
1000
0100
0010
0001
,
1000
0000
0010
0000
0100
0001
0100
0001
,
1000
0010
0110
0000
,
0001
0000
0001
0000
0100
0010
0100
0000
,
0001
0010
0100
1000
,
0001
0000
0100
0000
0010
1000
0010
1000
,
0001
0100
0110
0000
,
0010
1000
0100
0001
,
0100
1000
0100
0001
,
0100
1000
0010
0001
,
0010
1000
0200
0000
,
0310
0001
0100
1000
,
0001
0010
1000
0100
,
0010
0001
0100
0100
,
0010
1000
0010
0000
0100
0001
0100
0000
,
0001
0010
1000
0010
,
0001
0010
1000
0010
,
0001
0100
1000
0100
,
0001
0010
0200
0000
,
1300
0010
0001
1000
,
0100
0001
0010
0100
,
1000
0000
0010
0100
0010
0000
0001
0000
,
0010
0100
0010
0000
1000
0000
1001
0000
,
0001
0100
0001
0000
0000
0000
1000
0100
,
0000
0100
1000
0000
0010
0000
0100
0000
,
0001
0010
0001
0000
0100
0000
0010
1000
,
0000
1000
0010
0000
0100
0000
0001
0000
,
0010
0100
0010
0000
0000
0000
0001
0100
,
0000
0100
0001
0000
1000
0100
0010
0000
,
0100
0000
0001
0000
0100
0000
1000
0010
,
0000
0010
1000
0000
0001
0000
0100
0000
,
0220
0000
0000
0000
,
0000
0000
0000
0000
,
0000
0000
0000
0000
,
0000
0000
0000
0330
,
2000
0000
0000
0000
,
3200
0000
0000
0000
,
0320
0000
0032
0000
,
1003
0000
0001
0000
1000
0010
0100
0001
,
1000
1000
0010
0010
,
0001
0001
0100
0100
,
1000
0010
0000
0010
0100
0000
0100
0001
,
0000
0001
0010
0000
0100
0000
0010
0000
,
0110
0000
0100
0000
1000
0010
1000
0000
,
0100
0000
0010
0000
0001
0100
0001
0000
,
1000
0010
0000
0010
0001
0000
0001
0010
,
0000
0010
0100
0000
0001
0000
1000
0000
,
2002
0000
0000
3003
,
0001
0000
0100
0010
1000
0000
0001
0000
,
0100
0000
0010
1000
0001
1000
0010
0000
,
0100
0001
1000
0001
0200
0000
0000
0000
,
0310
0010
1000
1000
,
0001
0001
0100
0100
,
1000
1000
0001
0001
,
0010
0010
0100
0100
,
0110
1000
0100
0001
,
0100
1000
0020
0000
,
0031
0010
0210
0000
,
1300
0100
0120
0000
,
0031
0010
1000
0100
,
0001
0100
0010
0001
,
0100
1000
0100
0010
,
2020
3030
0202
0303
,
0110
0001
0100
1000
,
0100
0001
0020
0000
,
1030
0010
0210
0000
,
0301
0100
0120
0000
,
1030
0010
0001
0100
,
1000
0100
0010
1000
,
0001
0010
0000
0000
0010
1000
0000
0000
,
1000
0100
0000
0000
0100
0001
0000
0000
,
0011
0010
0001
0010
,
1100
0100
1000
0100
,
0010
0100
0010
0000
0001
1000
0001
0000
,
0100
0010
1000
0001
0200
0000
0300
0000
,
0001
0010
1000
0001
,
0100
1000
0010
0100
,
0001
0010
0000
0000
0010
1000
0000
0000
,
1000
0100
0000
0000
0100
0001
0000
0000
,
0001
0010
0001
0000
0100
0000
0010
0000
,
1000
0100
1000
0000
0010
0000
0100
0000
,
0001
1000
0001
0000
0100
0010
1000
0000
,
0010
0100
0001
0100
0020
0000
0030
0000
,
1000
0100
0010
0000
0001
0010
0100
0000
,
1000
0010
0100
0001
1000
0000
1001
0000
,
0001
0100
0000
0000
0100
1000
0000
0000
,
1000
0010
0000
0000
0010
0001
0010
0100
,
2000
0002
0000
0000
,
0000
0000
0000
0000
,
0000
0000
0000
0000
,
0000
0000
0000
0000
,
0000
0000
0000
0000
,
3003
0000
0000
0000
;

//---------------dance-double - ----------------
#NOTEDATA:;
#CHARTNAME:;
#STEPSTYPE:dance-double;
#DESCRIPTION:;
#CHARTSTYLE:;
#DIFFICULTY:Medium;
#METER:13;
#RADARVALUES:0.676757,1.073232,0.264271,0.479602,0.004894,484.000000,457.000000,27.000000,49.000000,0.000000,0.000000,0.000000,0.000000,0.000000,0.676757,1.073232,0.264271,0.479602,0.004894,484.000000,457.000000,27.000000,49.000000,0.000000,0.000000,0.000000,0.000000,0.000000;
#CREDIT:MILEN;
#NOTES:
00000000
00000000
00000000
00000000
,
00000000
00000000
00000000
00000000
,
00000000
00000000
00000000
00000000
,
00000000
00000000
00000000
00000000
,
00001000
00010000
00001000
01000000
00000000
00001000
00011000
00000000
,
00010000
00001000
00010000
00000010
00000000
00010000
00011000
00000000
,
00001000
00010000
01000000
00100000
00000000
00001000
00011000
00000000
,
00010000
00000000
00001000
00000000
00000010
00000000
00000100
00000000
00010000
00000000
00000000
00000000
00001000
00010000
00001000
00000000
,
00011000
00010000
00000100
00001000
,
00000001
00000100
00000020
00000000
,
00010030
00001000
00000010
00000000
,
00001000
00010000
00100000
00000000
,
00010000
00002000
00003010
00000010
,
00000001
00000100
00001000
00010000
,
00100000
00010000
00001000
00010000
,
00020020
00030030
00202000
00303000
,
00011000
00001000
01000000
00010000
,
10000000
01000000
00200000
00000000
,
00301000
00010000
00100000
00000000
,
00010000
00001000
00000010
00000000
,
00001000
00020000
00130000
00100000
,
10000000
01000000
00010000
00001000
,
00010000
00000100
00000000
00000000
00000100
00000010
00000000
00000000
,
00000010
00000001
00000000
00000000
00000001
00000100
00000000
00000000
,
00022000
00000000
00000000
00000000
,
00000000
00000000
00000000
00000000
,
00000000
00000000
00000000
00000000
,
00000000
00000000
00000000
00033000
,
00001000
00000000
00001000
00000000
00010000
00000000
00100000
01000000
,
00100000
00010000
00001000
00100000
,
01000000
00000000
10000000
00000000
00100000
01000000
00100000
00000000
,
00010000
00001000
00022000
00033000
,
00010000
00000000
00010000
00000000
00001000
00000000
00000100
00000010
,
00000100
00001000
00010000
00000100
,
00000010
00000000
00000001
00000000
00000100
00000010
00000100
00000000
,
00001000
00010000
00022000
00033000
,
00001000
00000000
00010000
00000000
00100000
10000000
00100000
00000000
,
10000000
01000000
00010000
01000000
,
10000000
00000000
00100000
00000000
01000000
00010000
01000000
00000000
,
00001000
00010000
00022000
00033000
,
00010000
00000000
00001000
00000000
00000010
00000001
00000010
00000000
,
00000001
00000100
00001000
00000100
,
00000001
00000000
00000010
00000000
00000100
00001000
00000100
00000000
,
00010000
00001000
00022000
00033000
,
00010000
00000200
00000300
00000100
,
00000010
00000002
00000003
00000001
,
00000100
00002000
00003000
00001000
,
00010000
00200000
00300000
00100000
,
10000000
02000000
03000000
01000000
,
00010000
00002000
00003000
00001000
,
00100000
01000000
00010000
00001000
,
00000010
00000100
00000010
00000000
00000001
00001000
00000001
00000000
,
00000100
00002000
00003000
00001000
,
00010000
02000000
03000000
01000000
,
10000000
00020000
00030000
00010000
,
00100000
02000000
03000000
01000000
,
00010000
00002000
00003000
00001000
,
00000010
00000002
00000003
00000001
,
00000100
00000000
00001000
00010000
00001000
00000000
00000100
00000000
,
00001000
00010000
00001000
00000000
01000000
00000000
01100000
00000000
,
00100000
10000000
01000000
00000000
00000000
00000000
10000000
00100000
,
00000000
00100000
00010000
00000000
00001000
00000000
00100000
00000000
,
01000000
00000000
00010000
00000000
00001000
00000000
00000010
00000001
,
00000000
00000001
00000100
00000000
00001000
00000000
00010000
00000000
,
00000100
00001000
00000010
00000000
00000000
00000000
00000100
00000001
,
00000000
00000001
00000010
00000000
00001000
00000000
00010000
00000000
,
01000000
00000000
10000000
00000000
00100000
00000000
01000000
00010000
,
00000000
00010000
00100000
00000000
00001000
00000000
00010000
00000000
,
00022000
00000000
00000000
00000000
,
00000000
00000000
00000000
00000000
,
00000000
00000000
00000000
00000000
,
00000000
00000000
00000000
00033000
,
00000020
00000000
00000000
00000000
,
00020030
00000000
00000000
00000000
,
00032000
00000000
00203000
00000000
,
01300000
00000000
01000000
00000000
10000000
00100000
10000000
00100000
,
00010000
00010000
00001000
00001000
,
00000010
00000010
00000001
00000001
,
00001000
00000010
00000000
00010000
00001000
00000000
00100000
00010000
,
00000000
01000000
00100000
00000000
10000000
00000000
00010000
00000000
,
10010000
10000000
01000000
00100000
,
00001000
00010000
00000100
00000010
,
00000001
00000100
00000000
00000010
00010000
00000000
00001000
00100000
,
00000000
01000000
10000000
00000000
00100000
00000000
01000000
00000000
,
02200000
00000000
00000000
03300000
,
00100000
00000000
10000000
01000000
10000000
00000000
01000000
00000000
,
00010000
00000000
00001000
00010000
00001000
00010000
00000010
00000000
,
00010000
00001000
00010000
00001000
00200000
00000000
00000000
00000000
,
00310000
00010000
01000000
01000000
,
00001000
00001000
00000100
00000100
,
00010000
00010000
00100000
00100000
,
00001000
00001000
00000010
00000010
,
00000110
00000001
00000100
00001000
,
00010000
00100000
20000000
00000000
,
31000000
00100000
00101000
00001000
,
00100000
01000000
01100000
10000000
,
00100000
00010000
00001000
00010000
,
00001000
00000100
00000001
00000010
,
00000100
00010000
00001000
00100000
,
02200000
03300000
20020000
30030000
,
01100000
10000000
01000000
00010000
,
00001000
00000010
00000002
00000000
,
00000103
00000010
00010010
00010000
,
00000010
00000100
00000110
00000001
,
00000010
00001000
00010000
00001000
,
00010000
01000000
10000000
00100000
,
00010000
00001000
00000000
00000000
00001000
00000100
00000000
00000000
,
00000100
00000001
00000000
00000000
00000001
00000010
00000000
00000000
,
00000011
00000001
00000100
00001000
,
00010000
00100000
10000000
01000000
,
00100000
01000000
00100000
00000000
00001000
00000000
00010000
00000000
,
00000100
00000010
00000100
00000010
00000200
00000000
00000300
00000000
,
00001000
00000010
00000001
00001000
,
00000100
00000001
00000010
00000100
,
00001000
00000010
00000000
00000000
00000010
00010000
00000000
00000000
,
00010000
00001000
00000000
00000000
00001000
00100000
00000000
00000000
,
11000000
10000000
00100000
00010000
,
00001000
00000100
00000001
00001000
,
00000010
00000100
00000010
00000000
00010000
00000000
00001000
00000000
,
01000000
00100000
01000000
00100000
02000000
00000000
03000000
00000000
,
00100000
10000000
01000000
00000000
01000000
00010000
00001000
00000000
,
00010000
00001000
00000010
00000000
00000100
00000000
00000110
00000000
,
00000001
00000100
00000000
00000000
00001000
00010000
00000000
00000000
,
00100000
10000000
00000000
00000000
01000000
00010000
00001000
00000000
,
00020000
00002000
00000000
00000000
,
00000000
00000000
00000000
00000000
,
00000000
00000000
00000000
00000000
,
00000000
00000000
00000000
00000000
,
00000000
00000000
00000000
00000000
,
00033000
00000000
00000000
00000000
;

//---------------dance-single - ----------------
#NOTEDATA:;
#CHARTNAME:;
#STEPSTYPE:dance-single;
#DESCRIPTION:;
#CHARTSTYLE:;
#DIFFICULTY:Easy;
#METER:10;
#RADARVALUES:0.507567,0.757576,0.352361,0.107666,0.000000,363.000000,327.000000,36.000000,11.000000,0.000000,0.000000,0.000000,0.000000,0.000000,0.507567,0.757576,0.352361,0.107666,0.000000,363.000000,327.000000,36.000000,11.000000,0.000000,0.000000,0.000000,0.000000,0.000000;
#CREDIT:MILEN;
#NOTES:
// measure 0
0000
0000
0000
0000
,  // measure 1
0000
0000
0000
0000
,  // measure 2
0000
0000
0000
0000
,  // measure 3
0000
0000
0000
0000
,  // measure 4
1000
0001
1000
1100
,  // measure 5
0001
1000
0001
0101
,  // measure 6
1000
0001
1000
1001
,  // measure 7
0010
0000
0010
0000
0100
0000
0010
0100
,  // measure 8
0010
0000
1000
0000
,  // measure 9
0010
1000
0100
0000
,  // measure 10
1000
0000
0001
0000
,  // measure 11
1000
0001
0100
0000
,  // measure 12
0001
0000
0010
0000
,  // measure 13
0001
0010
0100
0000
,  // measure 14
1000
0001
1000
0001
,  // measure 15
1001
0000
0110
0000
,  // measure 16
0100
0000
0001
0000
,  // measure 17
0100
0001
0010
0000
,  // measure 18
0001
0000
1000
0000
,  // measure 19
0001
1000
0010
0000
,  // measure 20
1000
0000
0100
0000
,  // measure 21
1000
0100
0010
0000
,  // measure 22
0011
0000
1001
0000
,  // measure 23
1100
0000
1001
0000
,  // measure 24
0220
0000
0000
0000
,  // measure 25
0000
0000
0000
0000
,  // measure 26
0000
0000
0000
0000
,  // measure 27
0000
0000
0000
0330
,  // measure 28
0010
1000
0010
1000
,  // measure 29
0100
1000
0100
0000
,  // measure 30
0010
0001
0010
0001
,  // measure 31
0100
0001
0100
0000
,  // measure 32
0001
1000
0001
1000
,  // measure 33
0010
0100
0010
0000
,  // measure 34
1000
0001
1000
0001
,  // measure 35
0100
0010
0100
0000
,  // measure 36
0001
0010
0001
0010
,  // measure 37
0100
1000
0100
1000
,  // measure 38
0010
0100
0010
0100
,  // measure 39
0001
1000
1001
0000
,  // measure 40
1000
0010
1000
0010
,  // measure 41
0100
0001
0100
0001
,  // measure 42
0010
0100
0010
0100
,  // measure 43
1000
0001
2002
3003
,  // measure 44
1000
0000
0010
0000
,  // measure 45
0001
0000
0100
0000
,  // measure 46
1000
0000
0010
0000
,  // measure 47
0001
0000
0100
0000
,  // measure 48
1000
0000
0010
0000
,  // measure 49
0001
0000
0100
0000
,  // measure 50
1000
0000
0010
0000
,  // measure 51
0001
1000
0001
1000
,  // measure 52
1001
0000
0001
0000
,  // measure 53
0100
0000
1000
0000
,  // measure 54
1001
0000
1000
0000
,  // measure 55
0010
0000
0001
0000
,  // measure 56
1001
0000
0001
0000
,  // measure 57
0100
0000
1000
0000
,  // measure 58
1001
0010
0100
0000
,  // measure 59
0100
0010
0100
0010
,  // measure 60
1000
1000
0000
0001
,  // measure 61
0010
0000
0100
0000
,  // measure 62
1000
0000
0010
0100
,  // measure 63
0001
0100
0110
0000
,  // measure 64
0010
0010
0000
1000
,  // measure 65
0100
0000
0010
0000
,  // measure 66
0001
0000
0100
0010
,  // measure 67
1000
0010
0110
0000
,  // measure 68
2002
0000
0000
0000
,  // measure 69
0000
0000
0000
0000
,  // measure 70
0000
0000
0000
0000
,  // measure 71
0000
0000
3003
0000
,  // measure 72
2000
0000
3000
0000
,  // measure 73
0020
0000
0030
0000
,  // measure 74
0001
0000
0100
0000
,  // measure 75
1000
0001
1000
0001
,  // measure 76
1000
1000
0010
0000
,  // measure 77
0001
0001
0100
0000
,  // measure 78
1000
0001
1000
0001
,  // measure 79
0010
0100
0010
0100
,  // measure 80
0010
0000
0001
0100
,  // measure 81
1000
0000
1000
0010
,  // measure 82
0001
0000
1000
0001
,  // measure 83
0100
0010
1000
0001
,  // measure 84
0200
0000
0000
0000
,  // measure 85
0310
0100
0010
0100
,  // measure 86
0010
0000
1000
0000
,  // measure 87
0100
0000
0001
0000
,  // measure 88
0010
1000
0010
1000
,  // measure 89
0001
0100
0001
0100
,  // measure 90
0010
1000
0001
0100
,  // measure 91
0010
1000
0001
0100
,  // measure 92
0110
0000
0010
0000
,  // measure 93
1000
0100
0010
0000
,  // measure 94
0001
0000
0100
0000
,  // measure 95
0001
0100
0010
0000
,  // measure 96
1000
0000
0001
0000
,  // measure 97
1000
0001
0100
0000
,  // measure 98
0001
1000
0010
0100
,  // measure 99
0110
0000
1001
0000
,  // measure 100
0110
0000
0100
0000
,  // measure 101
0001
0010
0100
0000
,  // measure 102
1000
0000
0010
0000
,  // measure 103
1000
0010
0100
0000
,  // measure 104
0001
0000
1000
0000
,  // measure 105
0001
1000
0010
0000
,  // measure 106
1010
0000
1001
0000
,  // measure 107
0101
0000
1001
0000
,  // measure 108
1000
0010
1000
0000
,  // measure 109
0001
0010
0001
0000
,  // measure 110
1000
0010
1000
0001
,  // measure 111
0010
0001
1000
0010
,  // measure 112
1000
0100
0010
0001
,  // measure 113
1000
0100
0010
0000
,  // measure 114
0011
0000
1100
0000
,  // measure 115
1010
0000
0101
0000
,  // measure 116
0001
0010
0001
0000
,  // measure 117
1000
0010
1000
0000
,  // measure 118
0001
0010
0001
1000
,  // measure 119
0010
1000
0001
0010
,  // measure 120
0001
0100
0010
1000
,  // measure 121
0001
0100
0010
0000
,  // measure 122
1010
0000
1100
0000
,  // measure 123
0101
0000
0011
0000
,  // measure 124
2002
0000
0000
0000
,  // measure 125
0000
0000
0000
0000
,  // measure 126
0000
0000
0000
0000
,  // measure 127
0000
0000
0000
0000
,  // measure 128
0000
0000
0000
0000
,  // measure 129
3003
0000
0000
0000
;

//---------------dance-double - ----------------
#NOTEDATA:;
#CHARTNAME:;
#STEPSTYPE:dance-double;
#DESCRIPTION:;
#CHARTSTYLE:;
#DIFFICULTY:Easy;
#METER:10;
#RADARVALUES:0.437654,0.694444,0.244695,0.176180,0.000000,313.000000,288.000000,25.000000,18.000000,0.000000,0.000000,0.000000,0.000000,0.000000,0.437654,0.694444,0.244695,0.176180,0.000000,313.000000,288.000000,25.000000,18.000000,0.000000,0.000000,0.000000,0.000000,0.000000;
#CREDIT:MILEN;
#NOTES:
00000000
00000000
00000000
00000000
,
00000000
00000000
00000000
00000000
,
00000000
00000000
00000000
00000000
,
00000000
00000000
00000000
00000000
,
00001000
00010000
00001000
00000010
,
00001000
00010000
00001000
01000000
,
00001000
00010000
00001000
00011000
,
00010000
00000000
00001000
00000000
00010000
00000000
00001000
00010000
,
00001000
00000000
00100000
00000000
,
01000000
00000000
00010000
00000000
,
00001000
00000000
00000010
00000000
,
00000100
00000000
00010000
00000000
,
00001000
00000000
00100000
00000000
,
01000000
00000000
00010000
00000000
,
00001000
00010000
00001000
00010000
,
00010010
00000000
01001000
00000000
,
00001000
00000000
01000000
00000000
,
00100000
00000000
00010000
00000000
,
00001000
00000000
00000100
00000000
,
00000010
00000000
00010000
00000000
,
00001000
00000000
01000000
00000000
,
00100000
00000000
00010000
00000000
,
00011000
00000000
00011000
00000000
,
00011000
00000000
00011000
00000000
,
00022000
00000000
00000000
00000000
,
00000000
00000000
00000000
00000000
,
00000000
00000000
00000000
00000000
,
00000000
00000000
00000000
00033000
,
00001000
00100000
00010000
00000000
,
00100000
00001000
00010000
00000000
,
00001000
00100000
00010000
01000000
,
00010000
00100000
00001000
00000000
,
00010000
00000010
00001000
00000000
,
00000010
00010000
00001000
00000000
,
00010000
00000010
00001000
00000100
,
00001000
00000010
00010000
00000000
,
00001000
00010000
00100000
00000000
,
00010000
00001000
00000100
00000000
,
00001000
00010000
00100000
01000000
,
00100000
00010000
00001000
00000000
,
00010000
00001000
00000010
00000000
,
00001000
00010000
01000000
00000000
,
00010000
00001000
00000010
00000100
,
00000010
00001000
00020000
00000000
,
00130000
00000000
00100000
00000000
,
10000000
00000000
10000000
00000000
,
01000000
00000000
01000000
00000000
,
00010000
00000000
00010000
00000000
,
00001000
00000000
00001000
00000000
,
00000010
00000000
00000010
00000000
,
00000001
00000000
00000001
00000000
,
00000100
00001000
00010000
00001000
,
00011000
00000000
00010000
00000000
,
00100000
00000000
10000000
00000000
,
01000000
00000000
00010000
00000000
,
00001000
00000000
00000010
00000000
,
00000001
00000000
00000100
00000000
,
00001000
00000000
00010000
00000000
,
00100000
10000000
00100000
00000000
,
01000000
00010000
01000000
00010000
,
00100000
00100000
00000000
00010000
,
01000000
00000000
01000000
00000000
,
01000000
00000000
00001000
00010000
,
00001000
00010000
00001000
00000000
,
00000010
00000010
00000000
00000001
,
00000100
00000000
00000100
00000000
,
00000100
00000000
00000100
00001000
,
00010000
00001000
00010000
00000000
,
00022000
00000000
00000000
00000000
,
00000000
00000000
00000000
00000000
,
00000000
00000000
00000000
00000000
,
00000000
00000000
00033000
00000000
,
00000020
00000000
00000030
00000000
,
00020000
00000000
00030000
00000000
,
00001000
00000000
00100000
00000000
,
00010000
00100000
01000000
10000000
,
00100000
00000000
00010000
00000000
,
00001000
00000000
00000100
00000000
,
00000001
00000010
00000001
00000010
,
00000100
00001000
00000100
00001000
,
00000100
00000000
00010000
00000000
,
00001000
00000000
00100000
00000000
,
01000000
00000000
10000000
00100000
,
00010000
00001000
00010000
00001000
,
00000020
00000000
00000000
00000000
,
00000031
00001000
00000001
00001000
,
00000001
00000000
00000100
00000000
,
00001000
00000000
00010000
00000000
,
00200000
00000000
20300000
00000000
,
32000000
00000000
03020000
00000000
,
00032000
00000000
00003020
00000000
,
00000032
00000000
00002000
00003003
,
00001001
00000000
00000001
00000000
,
00000100
00000000
00001000
00000000
,
00010000
00000000
00001000
00000000
,
00000100
00000000
00001000
00000000
,
00010000
00000000
00100000
00000000
,
10000000
00000000
01000000
00000000
,
00100000
00100000
00010000
00000000
,
10010000
00000000
01100000
00000000
,
10010000
00000000
10000000
00000000
,
01000000
00000000
00010000
00000000
,
00001000
00000000
00010000
00000000
,
01000000
00000000
00010000
00000000
,
00001000
00000000
00000010
00000000
,
00000001
00000000
00000100
00000000
,
00001000
00000000
00011000
00000000
,
00010000
00000000
00011000
00000000
,
00001000
00000010
00001000
00000000
,
00010000
00100000
00010000
00000000
,
00001000
00000010
00001000
00000010
,
00001000
00000010
00000001
00000000
,
00000001
00000000
00000100
00000000
,
00001000
00000000
00010000
00000000
,
00011000
00000000
00011000
00000000
,
00011000
00000000
00011000
00000000
,
00010000
00100000
00010000
00000000
,
00001000
00000010
00001000
00000000
,
00010000
00100000
00010000
00100000
,
00010000
00100000
10000000
00000000
,
10000000
00000000
01000000
00000000
,
00010000
00000000
00001000
00000000
,
00011000
00000000
01001000
00000000
,
00011000
00000000
00010010
00000000
,
00022000
00000000
00000000
00000000
,
00000000
00000000
00000000
00000000
,
00000000
00000000
00000000
00000000
,
00000000
00000000
00000000
00000000
,
00000000
00000000
00000000
00000000
,
00033000
00000000
00000000
00000000
;

//---------------dance-single - ----------------
#NOTEDATA:;
#CHARTNAME:;
#STEPSTYPE:dance-single;
#DESCRIPTION:;
#CHARTSTYLE:;
#DIFFICULTY:Beginner;
#METER:5;
#RADARVALUES:0.226518,0.378788,0.009788,0.048939,0.000000,162.000000,161.000000,1.000000,5.000000,0.000000,0.000000,0.000000,0.000000,0.000000,0.226518,0.378788,0.009788,0.048939,0.000000,162.000000,161.000000,1.000000,5.000000,0.000000,0.000000,0.000000,0.000000,0.000000;
#CREDIT:MILEN;
#NOTES:
// measure 0
0000
0000
0000
0000
,  // measure 1
0000
0000
0000
0000
,  // measure 2
0000
0000
0000
0000
,  // measure 3
0000
0000
0000
0000
,  // measure 4
1000
0000
1000
0000
,  // measure 5
0001
0000
0001
0000
,  // measure 6
0100
0000
0100
0000
,  // measure 7
0010
0010
0010
0000
,  // measure 8
0010
0000
0000
0000
,  // measure 9
1000
0000
0000
0000
,  // measure 10
0001
0000
0000
0000
,  // measure 11
0100
0000
0000
0000
,  // measure 12
0010
0000
0010
0000
,  // measure 13
0000
0000
0000
0000
,  // measure 14
1000
0000
0100
0000
,  // measure 15
0010
0000
0010
0000
,  // measure 16
0001
0000
0000
0000
,  // measure 17
1000
0000
0000
0000
,  // measure 18
0010
0000
0000
0000
,  // measure 19
0100
0000
0000
0000
,  // measure 20
0001
0000
0001
0000
,  // measure 21
0000
0000
0000
0000
,  // measure 22
1000
0000
1000
0000
,  // measure 23
1000
0000
1000
0000
,  // measure 24
2000
0000
0000
0000
,  // measure 25
0000
0000
0000
0000
,  // measure 26
0000
0000
0000
0000
,  // measure 27
0000
0000
3000
0000
,  // measure 28
1000
0000
0000
0000
,  // measure 29
0100
0000
0000
0000
,  // measure 30
0010
0000
0010
0000
,  // measure 31
0010
0000
0010
0000
,  // measure 32
0001
0000
0000
0000
,  // measure 33
0100
0000
0000
0000
,  // measure 34
0010
0000
0010
0000
,  // measure 35
0010
0000
1000
0000
,  // measure 36
0001
0000
0000
0000
,  // measure 37
0100
0000
0000
0000
,  // measure 38
0010
0000
0010
0000
,  // measure 39
0010
0000
0010
0000
,  // measure 40
1000
0000
0000
0000
,  // measure 41
0100
0000
0000
0000
,  // measure 42
0010
0000
0010
0000
,  // measure 43
0001
0000
1000
0000
,  // measure 44
0100
0000
0000
0000
,  // measure 45
0001
0000
0000
0000
,  // measure 46
0010
0000
0000
0000
,  // measure 47
1000
0000
0000
0000
,  // measure 48
0100
0000
0000
0000
,  // measure 49
0001
0000
0000
0000
,  // measure 50
0010
0000
0000
0000
,  // measure 51
1000
0000
1000
0000
,  // measure 52
0001
0000
0000
0000
,  // measure 53
0100
0000
0000
0000
,  // measure 54
1000
0000
0000
0000
,  // measure 55
0010
0000
0000
0000
,  // measure 56
0001
0000
0000
0000
,  // measure 57
0100
0000
0000
0000
,  // measure 58
1000
0000
1000
0000
,  // measure 59
0010
0000
0010
0000
,  // measure 60
0001
0000
0000
0000
,  // measure 61
1000
0000
1000
0000
,  // measure 62
0001
0000
0001
0000
,  // measure 63
1000
0000
0001
0000
,  // measure 64
0100
0000
0000
0000
,  // measure 65
0010
0000
0010
0000
,  // measure 66
0100
0000
0100
0000
,  // measure 67
0010
0000
0100
0000
,  // measure 68
0020
0000
0000
0000
,  // measure 69
0000
0000
0000
0000
,  // measure 70
0000
0000
0000
0000
,  // measure 71
0000
0000
0030
0000
,  // measure 72
0010
0000
0000
0000
,  // measure 73
0010
0000
0000
0000
,  // measure 74
0010
0000
0010
0000
,  // measure 75
1000
0000
0001
0000
,  // measure 76
0100
0000
0100
0000
,  // measure 77
0010
0000
0010
0000
,  // measure 78
0100
0000
0010
0000
,  // measure 79
0100
0000
0010
0000
,  // measure 80
0100
0000
0001
0000
,  // measure 81
1000
0000
0001
0000
,  // measure 82
0001
0000
1000
0000
,  // measure 83
1000
0000
0001
0000
,  // measure 84
1000
0000
0000
0000
,  // measure 85
0001
0000
1000
0000
,  // measure 86
0020
0000
0000
0000
,  // measure 87
0000
0000
0030
0000
,  // measure 88
0100
0000
0000
0000
,  // measure 89
0100
0000
0000
0000
,  // measure 90
0100
0000
0100
0000
,  // measure 91
0100
0000
0100
0000
,  // measure 92
0010
0000
0000
0000
,  // measure 93
1000
0000
0000
0000
,  // measure 94
0001
0000
0000
0000
,  // measure 95
0100
0000
0000
0000
,  // measure 96
0010
0000
0010
0000
,  // measure 97
0000
0000
0000
0000
,  // measure 98
1000
0000
0100
0000
,  // measure 99
0010
0000
0010
0000
,  // measure 100
0001
0000
0000
0000
,  // measure 101
1000
0000
0000
0000
,  // measure 102
0010
0000
0000
0000
,  // measure 103
0100
0000
0000
0000
,  // measure 104
0001
0000
0001
0000
,  // measure 105
0000
0000
0000
0000
,  // measure 106
1000
0000
1000
0000
,  // measure 107
1000
0000
1000
0000
,  // measure 108
1000
0000
0000
0000
,  // measure 109
0010
0000
0000
0000
,  // measure 110
0001
0000
0000
0000
,  // measure 111
0100
0000
0000
0000
,  // measure 112
1000
0000
1000
0000
,  // measure 113
0000
0000
0000
0000
,  // measure 114
0001
0000
0010
0000
,  // measure 115
0100
0000
1000
0000
,  // measure 116
0001
0000
0000
0000
,  // measure 117
0010
0000
0000
0000
,  // measure 118
1000
0000
0000
0000
,  // measure 119
0100
0000
0000
0000
,  // measure 120
0001
0000
0001
0000
,  // measure 121
0000
0000
0000
0000
,  // measure 122
1000
0000
0100
0000
,  // measure 123
0010
0000
0001
0000
,  // measure 124
2002
0000
0000
0000
,  // measure 125
0000
0000
0000
0000
,  // measure 126
0000
0000
0000
0000
,  // measure 127
0000
0000
0000
0000
,  // measure 128
0000
0000
0000
0000
,  // measure 129
3003
0000
0000
0000
;
