#TITLE:Loner;
#SUBTITLE:;
#ARTIST:T.T.MA;
#TITLETRANSLIT:;
#SUBTITLETRANSLIT:;
#ARTISTTRANSLIT:;
#GENRE:K-POP;
#CREDIT:MUINELIM;
#BANNER:Loner.png;
#BACKGROUND:Loner-bg.png;
#LYRICSPATH:;
#CDTITLE:;
#MUSIC:Loner.mp3;
#OFFSET:-0.040000;
#SAMPLESTART:48.210087;
#SAMPLELENGTH:12.000000;
#SELECTABLE:YES;
#BPMS:0.000000=155
;
#STOPS:
;
#BGCHANGES:;
#KEYSOUNDS:;
#ATTACKS:;

//---------------dance-single - ----------------
#NOTES:
     dance-single:
     :
     Beginner:
     3:
     0.154738,0.215144,0.000000,0.021663,0.000000,100.000000,100.000000,0.000000,2.000000,0.000000,0.000000,0.154738,0.215144,0.000000,0.021663,0.000000,100.000000,100.000000,0.000000,2.000000,0.000000,0.000000:
0000
0000
0000
0000
,
0000
0000
0000
0000
,
0000
0000
0000
0000
,
0000
0000
0000
0000
,
0000
0000
0000
0000
,
0000
0000
0000
0000
,
0000
1000
0000
1000
,
0000
1000
0000
1000
,
0000
0001
0000
0001
,
0000
0001
0000
0001
,
0000
1000
0000
1000
,
0000
0001
0000
0001
,
0000
1000
0000
0001
,
0000
0100
0000
0010
,
0000
0200
0000
0000
,
0300
0100
0000
0100
,
0000
0001
0000
1000
,
0000
0000
0000
0010
,
0000
1000
0000
0001
,
0000
0010
0000
0010
,
0000
0001
0000
1000
,
0000
0000
0000
0100
,
0000
1000
0000
0001
,
0000
0100
0100
0000
,
0000
0010
0010
0000
,
0000
1000
0000
0001
,
0000
1000
0000
0001
,
0000
0010
0010
0000
,
0000
0100
0100
0000
,
0000
1000
0000
0010
,
0000
0001
0000
0100
,
0000
1000
0000
1000
,
0000
1000
0000
1000
,
1000
0000
0000
0001
,
0000
1000
0000
0001
,
0000
0001
0000
0001
,
0000
0001
0000
0001
,
0001
0000
0000
1000
,
0000
0001
0000
1000
,
0000
1000
0000
0010
,
0000
0001
0000
1000
,
0000
0001
0000
1000
,
1000
0000
0000
0010
,
0000
1000
0000
0001
,
0000
1000
0000
0001
,
0000
1000
0000
0001
,
0001
0000
0000
0100
,
0000
0001
0000
1000
,
0000
0100
0000
0001
,
0000
0010
0000
0010
,
0000
0100
0000
0100
,
0000
0010
0000
0100
,
0000
0001
0000
1000
,
0000
0100
0000
0010
,
0000
0001
0000
0100
,
0000
0010
0010
0010
,
0010
0020
0000
0030
;

//---------------dance-single - ----------------
#NOTES:
     dance-single:
     :
     Easy:
     4:
     0.193422,0.307348,0.119148,0.043327,0.000000,125.000000,114.000000,11.000000,4.000000,0.000000,0.000000,0.193422,0.307348,0.119148,0.043327,0.000000,125.000000,114.000000,11.000000,4.000000,0.000000,0.000000:
0000
0000
0000
0000
,
0000
0000
0000
0000
,
0000
0000
0000
0000
,
0000
0000
0000
0000
,
0000
0000
0000
0000
,
0000
0000
0000
0000
,
0000
1000
0000
1000
,
0000
0001
0000
0001
,
0000
1000
0000
0001
,
0000
0100
0000
0010
,
0000
0001
0000
0001
,
0000
1000
0000
1000
,
0000
0001
0000
1000
,
0000
0100
0000
0010
,
0000
2000
3000
0002
,
0003
0100
0000
0100
,
0000
0001
0000
1001
,
0000
0000
0010
0010
,
0000
1000
0000
0001
,
0000
0010
0000
0010
,
0000
0001
0000
1001
,
0000
0000
0100
0100
,
0000
1000
0000
0001
,
0000
0100
0010
0100
,
0000
0010
0100
0010
,
0000
1000
0000
0100
,
0000
0001
0000
0010
,
0000
1000
0001
1000
,
0000
0001
1000
0001
,
0000
0100
0000
1000
,
0000
0010
0000
0001
,
0000
0100
0000
0010
,
0000
0100
0000
0110
,
0110
0000
1000
0001
,
0000
0100
0000
1000
,
0000
0010
0000
0100
,
0000
0010
0000
0110
,
0110
0000
0000
1000
,
0000
0010
0000
0001
,
0000
0100
0000
1000
,
0000
0010
0000
0100
,
0000
0001
0000
1001
,
1001
0000
0010
1000
,
0000
0010
0000
0001
,
0000
0100
0000
0010
,
0000
1000
0000
1001
,
1001
0000
0100
0001
,
0000
0010
0000
1000
,
0000
0001
0000
0100
,
0000
1000
0000
1000
,
0000
0001
0000
0001
,
0000
0100
0000
0010
,
0000
1000
0000
0001
,
0000
0100
0100
0100
,
0100
0010
0010
0010
,
0010
1000
1000
0001
,
0001
2002
0000
3003
;

//---------------dance-single - ----------------
#NOTES:
     dance-single:
     :
     Medium:
     8:
     0.369824,0.430287,0.173306,0.021663,0.000000,239.000000,223.000000,16.000000,2.000000,0.000000,0.000000,0.369824,0.430287,0.173306,0.021663,0.000000,239.000000,223.000000,16.000000,2.000000,0.000000,0.000000:
0000
0000
0000
0000
,
0000
0000
0000
0000
,
0000
0000
0000
0000
,
0000
0000
0000
0000
,
0000
0000
0000
0000
,
0000
0000
0000
0000
,
0000
0100
0001
1000
,
0100
1000
0001
0100
,
0001
0000
1000
1000
1000
0000
0001
0001
,
0001
1000
0010
0100
,
0001
0010
0001
1000
,
0010
1000
0001
0010
,
0001
0000
1000
0010
1000
0000
0001
0100
,
0001
1000
0010
0100
,
0001
1001
0100
1001
,
0010
0000
0100
0001
0100
0000
0010
0000
,
0010
0000
0100
0001
0100
0000
0010
0000
,
1000
0001
0100
1000
,
0010
0001
1001
0110
,
1001
0000
0100
0000
0100
0000
0010
1000
,
0010
0000
0100
0000
0100
0000
0010
1000
,
0010
0100
0001
1000
,
0010
0001
0100
1000
,
0010
0100
0001
0000
0100
0000
0010
0000
,
0100
0010
1000
0000
0010
0000
0100
0000
,
0000
0001
0001
1000
,
1000
0000
0001
1000
0010
0100
0001
0000
,
0000
0000
1000
0000
1000
0000
0010
0001
,
0100
0000
0001
0000
0001
0000
0100
1000
,
0010
0001
0001
0100
,
0100
1100
0011
0101
,
1010
0000
1000
0000
0001
0000
0010
0010
,
0010
0000
0001
0000
1000
0000
0100
0100
,
0100
0000
1000
0010
,
0001
0100
1000
1001
,
0000
0000
0001
0000
1000
0000
0100
0100
,
0100
0000
1000
0000
0001
0000
0010
0010
,
0010
0000
0001
0100
,
1000
0010
0001
1000
,
0010
0000
0100
0001
0100
0001
1000
0010
,
1000
0000
0001
0000
0100
0000
0010
0010
,
0010
0000
1000
0000
0010
0000
0100
0100
,
0100
0000
0001
0100
,
0010
0001
0010
1000
,
1001
0000
0001
0000
0010
0000
0100
0100
,
0100
0000
1000
0000
0100
0000
0010
0010
,
0010
0000
0001
0010
,
0100
0001
0100
1000
,
0001
0101
1010
1100
,
0011
0000
0001
0000
0001
0000
0100
1000
,
0010
0000
0001
0000
0001
0000
0100
1000
,
0010
0001
1000
0100
,
0010
0000
0001
0100
0001
0000
1000
0100
,
1000
0010
0001
0100
,
1000
0010
0001
0100
,
1000
0010
0001
0100
,
1000
2002
0000
3003
;

//---------------dance-single - ----------------
#NOTES:
     dance-single:
     :
     Hard:
     9:
     0.441003,0.553227,0.238296,0.043327,0.000000,285.000000,263.000000,22.000000,4.000000,0.000000,0.000000,0.441003,0.553227,0.238296,0.043327,0.000000,285.000000,263.000000,22.000000,4.000000,0.000000,0.000000:
0000
0000
0000
0000
,
0000
0000
0000
0000
,
0000
0000
0000
0000
,
0000
0000
0000
0000
,
0000
0000
0000
0000
,
0000
0000
0000
0000
,
0000
0000
1001
0000
1000
0000
0010
0001
,
0100
0000
1000
0000
1000
0000
0010
0001
,
0100
0000
1000
0000
0001
0000
0100
0010
,
1000
0000
0001
0000
1000
0000
0010
0100
,
0010
0000
1001
0000
0001
0000
0010
1000
,
0100
0000
0001
0000
0001
0000
0010
1000
,
0100
0000
0001
0000
1000
0000
0100
0010
,
0001
0000
1000
0000
0001
0000
0010
0100
,
0010
1001
0110
1001
,
0110
0000
0010
0000
1000
0000
0100
0001
,
0100
0000
0010
0000
0001
0000
0100
1000
,
0100
0010
1000
0100
,
0001
0000
0010
0000
1000
0000
0001
0100
,
0010
1000
0001
0000
0010
0000
0100
0001
,
0100
0000
1000
0000
0010
0000
0100
1000
,
0100
0001
0010
1000
,
0100
0110
1001
0110
,
0010
1000
0010
0100
0001
1000
0000
0000
,
0010
1000
0010
0100
0001
1000
0000
0000
,
1100
0100
0010
0000
0001
0000
0100
0000
,
1000
0000
0010
0100
0010
0001
0100
0000
,
0001
1000
0001
0010
0100
1000
0000
0000
,
0001
1000
0001
0010
0100
1000
0000
0000
,
0010
0100
0001
0000
1000
0010
0100
0000
,
0010
1000
1100
0000
0011
0000
1010
0000
,
0101
0000
0001
0000
1000
0000
0010
0001
,
0100
0000
0001
0000
1000
0000
0010
0001
,
0100
1000
1000
0001
,
0001
0000
0100
0010
1000
0010
0100
0000
,
0110
0000
1000
0000
0001
0000
0100
1000
,
0010
0000
1000
0000
0001
0000
0100
1000
,
0010
0000
0001
0000
1000
0000
0100
0010
,
0001
0010
0100
0000
1000
0000
0010
0000
,
0100
2002
0000
0000
,
3003
0000
1000
0010
0100
0000
0010
1000
,
0100
0000
1000
0010
0100
0010
1000
0100
,
1100
0000
1000
0010
,
0001
0000
0100
1000
0010
0100
0010
0000
,
1001
0000
0001
0100
0010
0000
0100
0001
,
0010
0000
0001
0100
0010
0100
0001
0010
,
0011
0000
0001
0100
,
1000
0010
0001
1000
,
1001
0000
0001
0010
0100
1000
0001
0010
,
0100
0000
0010
0000
0010
0000
0001
0100
,
1000
0000
0010
0000
0010
0000
0001
0100
,
1000
0010
0001
1000
,
0110
0000
0100
0010
0001
0000
1000
0100
,
0010
0000
0001
0100
0001
0010
0001
0100
,
0001
0010
1000
0100
1000
0010
1000
0100
,
1000
0010
0001
1000
0010
0100
0001
1000
,
0010
0100
0220
0000
0000
0000
0330
0000
;

//---------------dance-double - ----------------
#NOTES:
     dance-double:
     :
     Hard:
     9:
     0.425529,0.522492,0.205801,0.043327,0.000000,275.000000,256.000000,19.000000,4.000000,0.000000,0.000000,0.425529,0.522492,0.205801,0.043327,0.000000,275.000000,256.000000,19.000000,4.000000,0.000000,0.000000:
// measure 0
00000000
00000000
00000000
00000000
,  // measure 1
00000000
00000000
00000000
00000000
,  // measure 2
00000000
00000000
00000000
00000000
,  // measure 3
00000000
00000000
00000000
00000000
,  // measure 4
00000000
00000000
00000000
00000000
,  // measure 5
00000000
00000000
00000000
00000000
,  // measure 6
00000000
00000000
00011000
00000000
00010000
00000000
00000100
00001000
,  // measure 7
00000100
00000000
00000010
00000000
00000100
00000000
00000010
00000001
,  // measure 8
00000010
00000000
00001000
00000000
00010000
00000000
01000000
10000000
,  // measure 9
01000000
00100000
01000000
00100000
,  // measure 10
00010000
00000000
00011000
00000000
00001000
00000000
01000000
00010000
,  // measure 11
01000000
00000000
00100000
00000000
01000000
00000000
00100000
10000000
,  // measure 12
00100000
00000000
00010000
00000000
00001000
00000000
00000100
00000001
,  // measure 13
00000100
00000010
00000100
00000010
,  // measure 14
00010000
00011000
01001000
00010010
,  // measure 15
00011000
00000000
00001000
00000000
00010000
00000000
00100000
10000000
,  // measure 16
01000000
00000000
00010000
00000000
00001000
00000000
00000010
00000001
,  // measure 17
00000100
00001000
00010000
00001000
,  // measure 18
00000010
00000000
00001000
00000000
00010000
00000000
00100000
10000000
,  // measure 19
00100000
10000000
00010000
00000000
01000000
00000000
00001000
00010000
,  // measure 20
00000100
00000000
00001000
00000000
00000010
00000000
00010000
00001000
,  // measure 21
00100000
00010000
01000000
00001000
,  // measure 22
00010000
00011000
00010100
00101000
,  // measure 23
00100000
00010000
01000000
00001000
00100000
00010000
00000000
00000000
,  // measure 24
00100000
00001000
01000000
00010000
00100000
00001000
00000000
00000000
,  // measure 25
00011000
00010000
00000100
00000010
,  // measure 26
00000001
00000000
00000100
00001000
00010000
00000000
00011000
00000000
,  // measure 27
00000100
00001000
00000010
00010000
00000100
00001000
00000000
00000000
,  // measure 28
00000100
00010000
00000010
00001000
00000100
00010000
00000000
00000000
,  // measure 29
00001000
00010000
00100000
00000000
00010000
00001000
00000010
00000000
,  // measure 30
00001000
00010000
00001000
00000000
00011000
00000000
01001000
00000000
,  // measure 31
00010010
00000000
00010000
00000000
00001000
00000000
00000010
00000001
,  // measure 32
00000100
00000000
00001000
00000000
00010000
00000000
01000000
10000000
,  // measure 33
00100000
00000000
01000000
00010000
01000000
00000000
00100000
10000000
,  // measure 34
00100000
00000000
00010000
00001000
00010000
00001000
00010000
00000000
,  // measure 35
00011000
00000000
00001000
00000000
00010000
00000000
01000000
10000000
,  // measure 36
00100000
00000000
00010000
00000000
00001000
00000000
00000010
00000001
,  // measure 37
00000100
00001000
00010000
00000100
,  // measure 38
00010000
00001000
01000000
00001000
,  // measure 39
00010000
00022000
00000000
00000000
,  // measure 40
00033000
00000000
00001000
00010000
00100000
00000000
00010000
00100000
,  // measure 41
01000000
00000000
00100000
10000000
01000000
00100000
01000000
00010000
,  // measure 42
00001000
00000000
00100000
01000000
,  // measure 43
00010000
00001000
00000010
00000100
,  // measure 44
00011000
00000000
00010000
00001000
00000100
00000000
00001000
00000100
,  // measure 45
00000010
00000000
00000100
00000001
00000010
00000100
00000010
00001000
,  // measure 46
00010000
00000000
00000100
00000010
,  // measure 47
00001000
00010000
01000000
00100000
,  // measure 48
00011000
00000000
00001000
00010000
00000010
00010000
00001000
01000000
,  // measure 49
00001000
00010000
00000100
00000000
00000010
00000000
00000001
00000100
,  // measure 50
00001000
00000000
01000000
00000000
00100000
00000000
10000000
01000000
,  // measure 51
00010000
00000100
00000010
00001000
,  // measure 52
00010000
00000000
01000000
00100000
00001000
00000000
00010000
00000100
,  // measure 53
00000010
00000000
00000001
00000100
00001000
00000100
00001000
00010000
,  // measure 54
00100000
00000000
10000000
01000000
00010000
01000000
00010000
00001000
,  // measure 55
00000010
00000000
00000001
00000100
00000010
00010000
00001000
01000000
,  // measure 56
00100000
10000000
20020000
00000000
00000000
00000000
30030000
00000000
;

//---------------dance-double - ----------------
#NOTES:
     dance-double:
     :
     Easy:
     6:
     0.287813,0.365568,0.173306,0.000000,0.000000,186.000000,170.000000,16.000000,0.000000,0.000000,0.000000,0.287813,0.365568,0.173306,0.000000,0.000000,186.000000,170.000000,16.000000,0.000000,0.000000,0.000000:
00000000
00000000
00000000
00000000
,
00000000
00000000
00000000
00000000
,
00000000
00000000
00000000
00000000
,
00000000
00000000
00000000
00000000
,
00000000
00000000
00000000
00000000
,
00000000
00000000
00000000
00000000
,
00000000
00001000
00010000
00000100
,
00000100
00010000
00001000
00100000
,
00100000
00001000
00010000
00000010
,
00001000
00000001
00000100
00001000
,
00011000
00010000
00001000
01000000
,
01000000
00001000
00010000
00000010
,
00000010
00010000
00001000
00100000
,
00010000
10000000
01000000
00010000
,
00011000
00000100
00000100
00000100
,
00000010
00000001
00000100
00001000
,
00000000
00000001
00000100
00001000
,
00000000
00011000
00010000
00100000
,
00010000
00001000
00010000
00100000
,
00000000
10000000
01000000
00010000
,
00000000
10000000
01000000
00010000
,
00000000
00011000
00001000
00000100
,
00001000
00010000
00001000
00000100
,
00000001
00000010
00001000
00010000
,
00000000
00000010
00001000
00010000
,
00000000
00001000
00010000
00100000
,
01000000
00100000
00010000
00100000
,
00000000
01000000
00010000
00001000
,
00000000
01000000
00010000
00001000
,
00000000
00010000
00001000
00000100
,
00000010
00000100
00001000
00000100
,
00000001
00001001
00000000
00001000
,
00000000
00011000
00000000
00001000
,
00000001
00000000
00000001
00000100
,
00001000
00010000
00100000
10000000
,
00000000
10010000
00000000
00010000
,
00000000
00011000
00000000
00010000
,
10000000
00000000
10000000
00100000
,
00010000
00001000
00000100
00000001
,
00000010
00001000
00010000
00100000
,
10000000
10010000
00000000
00010000
,
00000000
00011000
00000000
00001000
,
00000001
00000000
00000001
00000100
,
00001000
00010000
00001000
00000100
,
00000001
00001001
00000000
00001000
,
00000000
00011000
00000000
00010000
,
10000000
00000000
10000000
00100000
,
00010000
00001000
00010000
00100000
,
10000000
01000000
00010000
00001000
,
00000100
00000001
00000010
00000100
,
00000000
00000010
00001000
00010000
,
00000000
00001000
00010000
01000000
,
00000000
00100000
01000000
10000000
,
00000000
01100000
00010000
00001000
,
00010000
00011000
00001000
00010000
,
00001000
00000110
00001000
00010000
,
00001000
00011000
00000000
00000000
;

//---------------dance-double - ----------------
#NOTES:
     dance-double:
     :
     Medium:
     7:
     0.349708,0.365568,0.194970,0.000000,0.000000,226.000000,208.000000,18.000000,0.000000,0.000000,0.000000,0.349708,0.365568,0.194970,0.000000,0.000000,226.000000,208.000000,18.000000,0.000000,0.000000,0.000000:
00000000
00000000
00000000
00000000
,
00000000
00000000
00000000
00000000
,
00000000
00000000
00000000
00000000
,
00000000
00000000
00000000
00000000
,
00000000
00000000
00000000
00000000
,
00000000
00000000
00000000
00000000
,
00000000
00000000
00001000
00000000
00010000
00000000
00000100
00001000
,
00000100
00000000
00010000
00000000
00001000
00000000
00100000
00010000
,
00100000
00001000
00010000
00000010
,
00001000
00000001
00000100
00001000
,
00011000
00000000
00010000
00000000
00001000
00000000
01000000
00010000
,
01000000
00000000
00001000
00000000
00010000
00000000
00000010
00001000
,
00000010
00010000
00001000
00100000
,
00010000
10000000
01000000
00010000
,
00011000
00000100
00000100
00000100
,
00000010
00000001
00000100
00001000
,
00000100
00000001
00000100
00001000
,
00010000
00011000
00010000
00100000
,
00010000
00001000
00010000
00100000
,
00100000
10000000
01000000
00010000
,
01000000
10000000
01000000
00010000
,
00001000
00011000
00001000
00000100
,
00001000
00010000
00001000
00000100
,
00000001
00000010
00001000
00010000
,
00001000
00000010
00001000
00010000
,
00011000
00001000
00010000
00100000
,
01000000
00100000
00010000
00100000
,
10000000
01000000
00010000
00001000
,
00010000
01000000
00010000
00001000
,
00011000
00010000
00001000
00000100
,
00000010
00000100
00001000
00000100
,
00000001
00001001
00000010
00001000
,
00010000
00011000
00000010
00001000
,
00000001
00000000
00000001
00000100
,
00001000
00000000
00010000
00000000
00100000
01000000
00100000
00000000
,
00000000
10010000
01000000
00010000
,
00001000
00011000
01000000
00010000
,
10000000
00000000
10000000
00100000
,
00010000
00000000
00001000
00000000
00000100
00000010
00000100
00000000
,
00000001
00000010
00001000
00010000
,
00100000
10100000
01000000
00010000
,
00001000
00000000
00011000
00000000
00010000
00000000
00000010
00000100
,
00000001
00000000
00000001
00000100
,
00001000
00010000
00001000
00000100
,
00000001
00000011
00000100
00001000
,
00010000
00000000
00011000
00000000
00001000
00000000
00100000
01000000
,
10000000
00000000
10000000
00100000
,
00010000
00001000
00010000
00100000
,
10000000
01000000
00010000
00001000
,
00000100
00000000
00000001
00000000
00000010
00000000
00000100
00001000
,
00000100
00000000
00000010
00000000
00001000
00000000
00010000
00100000
,
00010000
00000000
00001000
00000000
00010000
00000000
01000000
10000000
,
01000000
00000000
00100000
00000000
01000000
00000000
10000000
00010000
,
10000000
01100000
00010000
00001000
,
00000100
00000110
00001000
00010000
,
00100000
10010000
00010000
00001000
,
00000100
00001001
00000000
00000000
;
