#TITLE:Light Switch;
#SUBTITLE:;
#ARTIST:Charlie Puth;
#TITLETRANSLIT:;
#SUBTITLETRANSLIT:;
#ARTISTTRANSLIT:;
#GENRE:POP CHARTS;
#CREDIT:MUINELIM;
#BANNER:Light Switch.png;
#JACKET:Light Switch-jacket.png;
#BACKGROUND:Light Switch-bg.png;
#LYRICSPATH:;
#CDTITLE:;
#MUSIC:Light Switch.ogg;
#OFFSET:0.000000;
#SAMPLESTART:42.523392;
#SAMPLELENGTH:13.995888;
#SELECTABLE:YES;
#DISPLAYBPM:158.000000:184.000000;
#BPMS:0.000000=184,121.000000=158,129.000000=184,246.000000=158,254.000000=184
;
#STOPS:32.000000=0.978,133.000000=0.326,164.000000=0.326,227.000000=0.326
;
#BGCHANGES:0.000=Light Switch.avi=1.000=1=0=0=StretchNoLoop==CrossFade==,
99999=-nosongbg-=1.000=0=0=0 // don't automatically add -songbackground-
;
#KEYSOUNDS:;
#ATTACKS:;

//---------------dance-single - ----------------
#NOTES:
     dance-single:
     :
     Beginner:
     4:
     0.172394,0.261124,0.016307,0.024461,0.000000,148.000000,146.000000,2.000000,3.000000,0.000000,0.000000,0.172394,0.261124,0.016307,0.024461,0.000000,148.000000,146.000000,2.000000,3.000000,0.000000,0.000000:
// measure 0
0000
0000
0000
0000
,  // measure 1
0000
0000
0000
0000
,  // measure 2
0000
0000
0000
0000
,  // measure 3
0000
0000
0000
0000
,  // measure 4
0000
0000
0000
0000
,  // measure 5
0000
0000
0000
0000
,  // measure 6
0000
0000
0000
0000
,  // measure 7
0000
0000
0000
0000
,  // measure 8
0000
1000
0000
1000
,  // measure 9
0000
1000
0000
0000
,  // measure 10
0000
0001
0000
0001
,  // measure 11
0000
0001
0000
0000
,  // measure 12
0000
1000
0000
0001
,  // measure 13
0000
1000
0000
0000
,  // measure 14
0000
0001
0000
1000
,  // measure 15
0000
0001
0000
1000
,  // measure 16
0000
0010
0000
0010
,  // measure 17
0000
0010
0000
0000
,  // measure 18
0000
0100
0000
0100
,  // measure 19
0000
0100
0000
0000
,  // measure 20
0000
0010
0000
0100
,  // measure 21
0000
0010
0000
0000
,  // measure 22
0000
0100
0000
0010
,  // measure 23
0000
0100
0000
0010
,  // measure 24
0000
1000
0000
0000
,  // measure 25
0000
0001
0000
0000
,  // measure 26
0000
0100
0000
0000
,  // measure 27
0000
0010
0000
0000
,  // measure 28
0000
1000
0000
0001
,  // measure 29
0000
0100
0000
0010
,  // measure 30
0000
0100
0000
0100
,  // measure 31
0000
0200
0300
0100
,  // measure 32
0100
0001
0000
1000
,  // measure 33
0000
0001
1000
0000
,  // measure 34
0001
0000
1000
0000
,  // measure 35
1001
0000
0000
0000
,  // measure 36
1000
0000
0001
0000
,  // measure 37
1000
0000
0010
0000
,  // measure 38
0100
0000
0001
0000
,  // measure 39
1000
0000
0001
0000
,  // measure 40
0100
0000
0010
0000
,  // measure 41
0100
0010
0000
0100
,  // measure 42
0000
0010
0000
0110
,  // measure 43
0000
0000
0000
0100
,  // measure 44
0000
0010
0000
0100
,  // measure 45
0000
0001
0000
1000
,  // measure 46
0000
0010
0000
0100
,  // measure 47
0000
0010
0000
0010
,  // measure 48
0000
0000
0000
1000
,  // measure 49
0000
0000
0000
0100
,  // measure 50
0000
0000
0000
0010
,  // measure 51
0000
0000
0000
0001
,  // measure 52
0000
0000
0000
1000
,  // measure 53
0000
0000
0000
0100
,  // measure 54
0000
0000
0000
0010
,  // measure 55
0000
0000
0000
0001
,  // measure 56
0000
1000
0000
0001
,  // measure 57
0000
0000
1000
0000
,  // measure 58
0001
0000
1000
0000
,  // measure 59
0000
0000
0010
0000
,  // measure 60
0100
0000
0010
0000
,  // measure 61
0000
0000
0100
0000
,  // measure 62
0010
0000
0100
0000
,  // measure 63
0010
0000
0200
0000
,  // measure 64
0000
0300
0100
0100
,  // measure 65
0100
0100
0001
0000
,  // measure 66
0010
0000
0100
0000
,  // measure 67
1000
0000
0001
0000
,  // measure 68
0010
0000
0100
0000
,  // measure 69
1000
0000
0010
0000
,  // measure 70
0100
0000
0001
0000
,  // measure 71
1000
0000
0010
0000
,  // measure 72
0100
0000
0001
0000
,  // measure 73
1000
0000
0020
0000
,  // measure 74
0030
0000
0100
0000
,  // measure 75
0001
0000
0100
0000
,  // measure 76
0001
0000
0100
0000
,  // measure 77
0001
0000
0100
0000
,  // measure 78
0000
0000
0010
0000
,  // measure 79
1000
0000
0010
0000
,  // measure 80
1000
0000
0010
0000
,  // measure 81
1000
0000
0010
0000
,  // measure 82
0000
0000
0100
0000
,  // measure 83
0001
0000
1000
0000
,  // measure 84
0010
0000
0100
0000
,  // measure 85
0001
0000
1000
0000
,  // measure 86
0100
0000
0010
0000
,  // measure 87
0001
0000
1000
0000
,  // measure 88
0100
0000
0010
0000
,  // measure 89
0001
0000
0100
0000
,  // measure 90
0100
0000
0100
0000
,  // measure 91
0100
0100
0010
0000
;

//---------------dance-single - ----------------
#NOTES:
     dance-single:
     :
     Easy:
     7:
     0.329644,0.373034,0.228305,0.065230,0.000000,283.000000,255.000000,28.000000,8.000000,0.000000,0.000000,0.329644,0.373034,0.228305,0.065230,0.000000,283.000000,255.000000,28.000000,8.000000,0.000000,0.000000:
0000
0000
0000
0000
,
0000
0000
0000
0000
,
0000
0000
0000
0000
,
0000
0000
0000
0000
,
0000
0000
0000
0000
,
0000
0000
0000
0000
,
0000
0000
0000
0000
,
0000
0000
0000
0000
,
0000
1000
0000
1000
,
0000
1000
0100
0010
,
0010
0001
0000
0001
,
0000
0001
0010
0100
,
0100
1000
0000
1000
,
0000
0001
0000
0001
,
0000
1000
0010
1000
,
0000
0001
0010
0001
,
1001
1000
0000
1000
,
0000
1000
0010
0100
,
0100
0001
0000
0001
,
0000
0001
0100
0010
,
0010
1000
0000
1000
,
0000
0001
0000
0001
,
0000
1000
0001
1000
,
0010
0100
0010
1000
,
1001
0001
0000
0100
,
0000
1000
0010
0001
,
0000
1000
0000
0100
,
0000
0001
0010
1000
,
0000
0001
0000
0100
,
0000
1000
0010
0001
,
0100
0010
0000
0010
,
0000
0020
0030
0010
,
0010
0010
1000
0100
,
0010
0001
1000
0100
,
0010
0001
0100
0010
,
0100
0000
0100
0000
,
0001
0010
0100
1000
,
1010
0000
0010
0100
,
0001
0000
1000
0000
,
0001
0000
1000
0100
,
0010
0001
0100
0010
,
1000
0001
0100
0010
,
1000
0100
0010
0100
,
0000
0100
0000
1000
,
0010
0100
0001
0011
,
0000
0010
0100
1000
,
0000
0001
0000
1000
,
0000
0001
0000
0010
,
0000
0010
0000
0110
,
0000
0110
0000
1001
,
0000
1001
0000
0110
,
0000
1001
0000
0001
,
1000
0100
0000
0110
,
0000
0110
0000
1001
,
0000
1001
0000
0110
,
0000
1001
0000
1000
,
0100
0010
0001
0100
,
1000
0100
0010
0001
,
0100
0010
0200
0000
,
0300
0000
0001
0010
,
0100
1000
0010
0000
,
0001
0010
0100
0000
,
0010
0000
0100
0000
,
0010
0000
0220
0000
,
0000
0330
0100
0010
,
1000
0100
0010
0001
,
0100
0010
0000
0001
,
0010
0100
1000
0010
,
0001
0100
1000
0010
,
0001
0100
1000
0010
,
0100
0001
1001
0000
,
0100
1000
1001
0000
,
0110
0000
1001
0000
,
0110
0000
2002
3003
,
1000
0100
1000
0001
,
1000
0100
1000
0001
,
1000
0100
1000
0001
,
0200
0300
0010
0100
,
0110
0000
0001
0010
,
0001
1000
0001
0010
,
0001
1000
0001
0010
,
0100
0010
0110
0000
,
0100
0010
0001
1000
,
0100
0010
0001
1000
,
0100
0010
0001
0100
,
0020
0030
1000
0100
,
1100
0000
0001
0010
,
0100
1000
0001
0010
,
0100
1000
0001
0100
,
0010
1010
1000
0100
,
0001
0010
1000
0100
,
0001
0010
0110
0000
;

//---------------dance-single - ----------------
#NOTES:
     dance-single:
     :
     Medium:
     10:
     0.467093,0.559551,0.342457,0.163075,0.000000,401.000000,359.000000,42.000000,20.000000,0.000000,0.000000,0.467093,0.559551,0.342457,0.163075,0.000000,401.000000,359.000000,42.000000,20.000000,0.000000,0.000000:
0000
0000
0000
0000
,
0000
0000
0000
0000
,
0000
0000
0000
0000
,
0000
0000
0000
0000
,
0000
0000
0000
0000
,
0000
0000
0000
0000
,
0000
0000
0000
0000
,
0000
0000
0000
0000
,
0000
1000
0100
1000
,
0001
1000
0100
1100
,
1100
0001
0100
0001
,
1000
0001
0100
0101
,
0101
1000
0001
1000
,
0010
0100
0020
0000
0130
0000
0000
0000
,
0010
1000
0100
0000
1000
0000
0001
0000
,
0010
0001
0100
0000
0001
0000
1000
0000
,
1001
0001
0010
0001
,
1000
0001
0010
0011
,
0011
1000
0010
1000
,
0001
1000
0010
1010
,
1010
0001
1000
0001
,
0100
0010
0200
0000
0310
0000
0000
0000
,
0100
0001
0010
0000
0001
0000
1000
0000
,
0100
1000
0010
0000
1000
0000
0001
0000
,
1001
0000
1000
0100
0000
0100
1000
0000
,
0001
1000
0100
0020
,
0030
0000
0001
0010
0000
0010
0001
0000
,
1000
0001
0010
0200
,
0300
0000
1000
0010
0000
0010
1000
0000
,
0001
0010
0100
1000
,
0010
0110
0000
0110
,
0000
2002
0003
0001
,
3001
0001
1000
0010
,
0100
0110
0001
0100
,
1000
0010
0001
0100
,
1000
0010
0001
0100
,
1000
0001
0100
0010
,
0110
1000
0100
0010
,
0011
0000
0000
0101
0000
0000
1010
0000
,
0000
1100
0000
0000
1001
0000
0001
0000
,
1000
0001
0100
0010
,
0110
1000
0010
0001
,
0100
1000
0010
0001
,
0100
1000
0010
0001
,
1000
0010
0100
0110
,
0001
0010
0100
1100
,
0000
1010
0000
0000
0101
0000
0000
0011
,
0000
1001
0001
2000
,
3001
0100
0000
0100
0001
1000
0000
0001
,
0100
0000
0001
1000
0000
0001
0100
0000
,
0001
1000
0000
0001
0100
0000
0001
1000
,
0000
0001
0200
0000
0000
0000
0310
0100
,
0010
0000
1000
0000
0100
1000
0000
0001
,
1000
0000
0100
1000
0000
0001
1000
0000
,
0100
1000
0000
0001
1000
0000
0100
1000
,
0000
0001
1000
0000
0100
0000
0010
0000
,
0001
0100
0010
0110
,
1000
0010
0002
0003
,
0200
0300
2000
3000
,
0020
0030
0001
0100
,
1000
0001
1001
0000
,
0010
0100
0101
0000
,
0011
0000
1010
0000
,
1100
0000
2002
0000
,
0000
0000
3003
0000
0001
1000
0001
1000
,
0001
1000
0001
1000
0100
0000
1000
0001
,
0200
0000
0310
0000
0110
0000
0010
1000
,
0100
0010
0001
0000
0100
0000
1000
0000
,
0010
0001
0100
1000
,
0010
0000
0001
0000
0100
0000
0010
1000
,
0010
0000
0100
0000
0101
0000
0001
0010
,
0001
0010
0001
0000
1001
0000
0000
0110
,
0000
0000
1001
0000
0000
0110
0000
0000
,
2000
3001
1001
0001
,
0100
0000
0010
1000
0000
1000
0100
0000
,
0100
0010
0000
0010
0001
0000
0001
0100
,
0000
0100
0010
0000
0010
1000
0000
2000
,
0002
0000
3003
0000
0001
0010
0100
1000
,
0010
0000
0010
0100
0000
0100
0001
0000
,
0001
1000
0000
1000
0010
0000
0010
0100
,
0000
0100
0001
0000
0001
0010
0000
0010
,
0100
0000
1000
0000
0010
0100
0001
0000
,
0100
0010
1000
0001
0000
0001
0100
0000
,
0100
0010
0000
0010
1000
0000
1000
0100
,
0000
0100
0010
0000
0010
0001
0000
0002
,
2000
0000
3003
0000
1000
0100
0010
0001
,
0100
0000
0100
0010
0000
0010
1000
0000
,
1000
0001
0000
0001
0010
0000
0010
0100
,
0000
0100
1000
0000
1000
0010
0000
0010
,
0100
0010
0100
0010
1000
0000
0100
0000
,
0010
0001
0100
1000
,
0010
0001
1001
0000
;

//---------------dance-single - ----------------
#NOTES:
     dance-single:
     :
     Hard:
     12:
     0.584740,0.671461,0.236459,0.293535,0.000000,502.000000,473.000000,29.000000,36.000000,0.000000,0.000000,0.584740,0.671461,0.236459,0.293535,0.000000,502.000000,473.000000,29.000000,36.000000,0.000000,0.000000:
0000
0000
0000
0000
,
0000
0000
0000
0000
,
0000
0000
0000
0000
,
0000
0000
0000
0000
,
0000
0000
0000
0000
,
0000
0000
0000
0000
,
0000
0000
0000
0000
,
0000
0000
0000
0000
,
0000
0000
1000
0100
1000
0000
0001
0000
,
1000
0000
0001
0100
0001
0000
1000
0000
,
0001
0000
1000
0010
1000
0000
0001
0000
,
1000
0000
0001
0010
0001
0000
1000
0000
,
0001
0000
0100
0010
0100
0000
0010
0100
,
0001
1000
0010
0100
0010
0000
1010
0000
,
1000
0100
0020
0000
0032
0000
0203
0000
,
0310
1000
0200
0000
0320
0000
0032
0000
,
1003
0000
0001
0010
0001
0000
1000
0000
,
0001
0000
1000
0010
1000
0000
0001
0000
,
1000
0000
0001
0100
0001
0000
1000
0000
,
0001
0000
1000
0100
1000
0000
0001
0000
,
1000
0000
0010
0100
0010
0000
0100
0010
,
1000
0001
0100
0010
0100
0000
0101
0000
,
0001
0010
0200
0000
2300
0000
3020
0000
,
0130
0001
0020
0000
0230
0000
2300
0000
,
3001
0000
0001
0010
0000
0001
0100
0001
,
1000
0000
0100
1000
0000
0010
0100
0010
,
1000
0000
0100
0010
0000
0001
0010
0100
,
0010
0000
0001
1000
0000
0010
1000
0100
,
1000
0000
0010
0100
0000
0001
0100
0010
,
1000
0100
0010
0000
0011
0000
0101
0000
,
1010
1100
0000
0110
,
0000
0022
0030
1000
,
1003
0000
1000
0100
0010
0001
0100
0010
,
1000
1200
0301
0100
,
1000
0010
0001
0000
0001
0100
1000
0000
,
1000
0010
0001
0000
0001
0100
1000
0000
,
0010
0100
0010
1000
0100
0000
0110
0000
,
0012
0000
1003
0001
0100
0010
0100
0001
,
0010
0000
0010
0100
0000
0100
1000
0000
,
1000
0010
0000
0010
0100
0000
0110
0000
,
0001
0010
0100
1000
0010
0100
0001
0000
,
0021
0000
1030
0000
0010
0000
0001
0100
,
1000
0000
1000
0010
0001
0000
0001
0100
,
1000
0000
1000
0010
0001
0000
0100
0010
,
0100
0001
0010
0000
0110
0000
2100
0000
,
3001
1000
0010
0100
0010
1000
0100
0000
,
0100
0010
0000
0010
0001
0000
0001
0100
,
0000
0100
0010
0000
0110
0000
0100
0001
,
0100
0010
1000
0010
0100
0001
0000
0001
,
0010
0000
0010
0100
0000
0100
1000
0000
,
1000
0010
0000
0010
0100
0000
0100
0001
,
0000
0002
2000
0000
3003
0000
1000
0100
,
0010
0001
0100
0000
0100
0010
0000
0010
,
1000
0000
1000
0001
0000
0001
0010
0000
,
0010
0100
0000
0100
1000
0000
1000
0010
,
0000
0010
0100
0000
0110
0000
0010
1000
,
0100
0010
0001
1000
0100
0000
0201
0000
,
1300
0010
0002
0203
,
2300
3020
0032
0203
,
2300
0000
3020
0000
0130
0010
0100
0001
,
1000
0010
0200
0000
0300
0000
0010
1000
,
0100
0010
0001
0100
0101
0000
0000
0000
,
0011
0000
1010
0000
,
1100
0000
2002
0000
,
0000
0000
3003
0000
0001
1000
0001
1000
,
0001
1000
0001
1000
0010
0100
0001
0010
,
0100
1000
1020
0000
0031
0000
0001
0010
,
0100
0001
0010
0100
1000
0010
1000
0010
,
0001
0010
0001
0010
0001
0100
0001
0100
,
1000
0100
1000
0100
1000
0010
0100
0001
,
0021
0000
1030
0000
1000
0010
0100
1000
,
0010
0100
0001
1000
0100
0000
0100
0010
,
0000
0010
0001
0000
0001
1000
0000
1000
,
0010
0100
0010
1000
1100
0000
0100
0000
,
0010
0000
0001
0010
0000
0010
1000
0000
,
1000
0100
0000
0100
0001
0000
0001
0010
,
0000
0010
1000
0000
1000
0100
0000
0200
,
0002
0000
0303
0000
0001
0010
0100
1000
,
0010
0000
0010
0001
0000
0001
0100
0000
,
0100
1000
0000
1000
0010
0000
0010
0001
,
0000
0001
0100
0000
0100
1000
0000
1000
,
0010
1000
0100
1000
1001
0001
0100
0010
,
1000
0100
0010
0001
0001
0010
0100
0100
,
0010
0001
0001
0010
1000
1000
0010
0001
,
0001
0010
0100
0100
0010
0001
0001
0100
,
0010
1000
0001
0010
0100
1000
0010
0100
,
0110
0000
0010
0010
0100
0001
0001
0100
,
1000
1000
0100
0010
0010
0100
0001
0001
,
0100
1000
1000
0100
0010
0010
0100
0001
,
0010
0100
1000
0001
0010
0000
1000
0000
,
0100
0001
1000
0010
,
0001
0100
1001
0000
;

//---------------dance-single - ----------------
#NOTES:
     dance-single:
     :
     Challenge:
     16:
     0.797902,1.044495,0.529994,0.611531,0.338381,685.000000,620.000000,65.000000,75.000000,0.000000,0.000000,0.797902,1.044495,0.529994,0.611531,0.338381,685.000000,620.000000,65.000000,75.000000,0.000000,0.000000:
0000
0000
0000
0000
,
0000
0000
0000
0000
,
0000
0000
0000
0000
,
0000
0000
0000
0000
,
0000
0000
0000
0000
,
0000
0000
0000
0000
,
0000
0000
0000
0000
,
0000
0000
0000
0000
,
0000
0000
1000
0001
0100
0100
0001
1000
,
0100
0100
1000
0001
0100
0100
0001
1000
,
0200
0000
1300
0001
0010
0010
0001
1000
,
0010
0010
1000
0001
0010
0010
0001
1000
,
0020
0000
0130
0001
0010
0010
0001
0100
,
0010
0010
0100
0001
0010
0010
0001
0100
,
0110
0000
0010
0000
1000
0200
0000
0000
0310
0002
0000
0000
0103
0020
0000
0000
,
1030
0000
0001
0000
0010
0200
0000
0000
1300
0020
0000
0000
0130
0002
0000
0000
,
0013
0100
0010
0000
0001
0000
0100
0000
1000
0000
1000
0000
0100
0000
0001
0000
,
0010
0010
0001
0100
1000
1000
0100
0001
,
0011
0000
1000
0010
0001
0001
0010
1000
,
0100
0100
1000
0010
0001
0001
0010
1000
,
1100
0000
0001
0010
1000
1000
0010
0001
,
0100
0100
0001
0010
1000
1000
0010
0001
,
0101
0000
0010
0000
1000
0020
0000
0000
0130
0002
0000
0000
0013
0200
0000
0000
,
1300
0000
0010
0000
0100
0002
0000
0000
1003
0200
0000
0000
0310
0002
0000
0000
,
1003
0100
1000
0000
0010
0100
0010
0000
1000
0000
0010
0100
0010
0000
0001
0000
,
0010
0100
0010
0000
1000
0000
0100
0000
0010
0000
0001
0000
0101
0000
0000
0000
,
0101
0000
0000
0000
0100
0010
0100
0000
0001
0000
0100
0010
0100
0000
1000
0000
,
0100
0010
0100
0000
0001
0000
0010
0000
0100
0000
1000
0000
1010
0000
0000
0000
,
1010
0000
0000
0000
0010
0100
0001
0000
1000
0000
0001
0010
0100
0000
1000
0000
,
0010
0100
0001
0000
0010
0200
0000
0000
1300
0020
0000
0000
0130
0002
0000
0000
,
1003
0100
0000
0000
0110
0000
0000
0000
0000
0000
0000
0000
1001
0000
0000
0000
,
0000
0000
0220
0000
0030
0010
0310
0000
,
1001
0000
0001
0100
1000
0001
0010
1000
,
0100
0000
0010
0000
0022
0003
0000
0000
1030
0000
1000
0000
0100
0000
0010
0000
,
0001
0100
0001
0100
1000
0100
1000
0100
,
1000
0010
1000
0010
0001
0010
0001
0010
,
0001
0100
0010
1000
0001
0010
0100
1000
,
1001
0000
0001
0010
0100
1000
0010
0100
,
0001
0010
0001
0000
1000
0000
0001
0010
0001
0000
1000
0000
0001
0010
0001
0000
,
1000
0000
0001
0010
0100
0000
0100
0000
1000
0010
0200
0000
0301
0100
0020
0000
,
1030
0010
0001
1000
0100
0001
0010
0100
,
2200
3000
0000
0000
0301
0000
0001
0000
0010
0000
0100
0000
1000
0000
0010
0000
,
1000
0010
0001
0010
0001
0010
0001
0100
,
0001
0100
1000
0100
1000
0100
1000
0010
,
0100
0001
1000
0100
0010
0001
1001
0000
,
1000
0000
0100
0000
0010
0000
0001
0000
0100
0000
0010
0000
1000
0100
1000
0000
,
0001
0000
1000
0100
1000
0000
0001
0000
1000
0100
1000
0000
0001
0000
1000
0100
,
0010
0000
0010
0000
0001
0100
0020
0000
1030
0010
0200
0000
0002
0000
0000
0000
,
0300
0103
0100
0010
1000
1100
0000
0001
,
0101
0000
1000
1010
0000
0001
0011
0000
,
0100
0110
0000
1000
1100
0000
0001
0101
,
0000
1000
1020
0000
0230
0000
0301
0010
,
0100
2000
0001
3000
0001
0011
0000
1000
,
1010
0000
0001
0101
0000
1000
1100
0000
,
0010
0110
0000
0001
0011
0000
1000
1010
,
0000
0000
0001
0000
0101
0000
1000
0000
0100
0000
0010
0000
0001
0100
0000
0000
,
0010
0000
1000
0100
0000
0000
0010
0000
0001
0100
0000
0000
2200
3000
0000
0000
,
0301
0001
0010
0200
0000
2300
0000
3020
,
0000
0032
0000
0203
0000
2300
0000
3020
,
0000
0032
0000
0203
0000
1300
0010
0100
,
0101
0000
1020
0000
0000
0000
0130
0100
,
0001
0010
0100
1000
2020
0000
3030
0000
,
0202
0303
0022
0033
,
2200
3300
2002
0000
,
0000
0000
3003
0000
0001
0101
1000
1100
,
0001
0011
1000
1010
0001
0010
0100
1000
,
1020
0000
0000
0000
0031
0000
0010
0000
0210
0000
0000
0000
0301
0010
0001
0000
,
0010
0100
0010
0000
0100
1000
0100
0000
1000
0010
1000
0010
0100
0001
0100
0001
,
1000
0010
0100
0001
1000
0100
0010
0001
0100
0000
0010
0000
1000
0000
0001
0000
,
0010
0100
1000
0010
0110
0100
0001
0010
,
1000
0001
0100
1000
1020
0000
0031
0010
,
1000
0000
1000
0000
0001
0000
0001
0000
0100
0001
0100
0000
1000
0000
0100
0001
,
0100
0000
1000
0000
0100
0001
0100
0000
1000
0000
0100
0010
1000
0000
1000
0000
,
0001
0010
0100
1000
0001
0010
0100
1000
0001
0000
0001
0000
0100
0000
0010
0000
,
1000
0001
0010
0110
0000
0100
1100
0000
,
1000
1010
0000
0010
0011
0000
0001
0101
,
0000
0100
1100
0000
1000
1001
0000
0100
,
0220
0000
0300
0000
1030
0100
0010
0002
,
1000
0003
1000
1010
0000
0010
0110
0000
,
0100
0101
0000
0001
0011
0000
0010
1010
,
0000
1000
1100
0000
0100
0101
0000
0001
,
1001
0000
1000
0000
0010
0000
0100
0000
0001
0010
0100
0000
0010
0000
0100
0000
,
0010
0100
1000
0000
0010
1000
0200
0000
0000
0000
0310
0001
0200
0000
0000
0000
,
0310
1000
0002
0000
0000
0000
0103
0001
2000
0000
0000
0000
3100
0010
0002
0000
,
0000
0000
1003
0100
0020
0000
0000
0000
0031
0010
0200
0000
0000
0000
1300
0010
,
0100
0000
0001
0000
1001
0000
1000
0000
0010
0100
0010
0100
0001
1000
0001
1000
,
0020
0000
0000
0000
0130
0001
0020
0000
0000
0000
0130
1000
0020
0000
0000
0000
,
1030
0001
0200
0000
0000
0000
0301
1000
0020
0000
0000
0000
1030
0100
0020
0000
,
0000
0000
0031
0010
0200
0000
0000
0000
1300
0010
0002
0000
0000
0000
1003
0100
,
0001
0010
0100
1000
0010
0001
0100
1000
,
0010
0001
0100
0001
0010
1000
0100
0001
,
0010
1000
0200
0000
0310
0000
0000
0000
;

//---------------dance-double - ----------------
#NOTES:
     dance-double:
     :
     Easy:
     8:
     0.314502,0.373034,0.244612,0.081537,0.000000,270.000000,240.000000,30.000000,10.000000,0.000000,0.000000,0.314502,0.373034,0.244612,0.081537,0.000000,270.000000,240.000000,30.000000,10.000000,0.000000,0.000000:
00000000
00000000
00000000
00000000
,
00000000
00000000
00000000
00000000
,
00000000
00000000
00000000
00000000
,
00000000
00000000
00000000
00000000
,
00000000
00000000
00000000
00000000
,
00000000
00000000
00000000
00000000
,
00000000
00000000
00000000
00000000
,
00000000
00000000
00000000
00000000
,
00000000
00001000
00000000
00001000
,
00000000
00001000
01000000
00001000
,
00000000
00010000
00000000
00010000
,
00000000
00010000
00000010
00010000
,
00000000
00001000
00000000
00001000
,
00000000
00010000
00000000
00010000
,
00000000
01000000
10000000
00100000
,
00000000
00010000
00001000
00010000
,
00011000
00010000
00000000
00010000
,
00000000
00010000
00000100
00010000
,
00000000
00001000
00000000
00001000
,
00000000
00001000
00100000
00001000
,
00000000
00010000
00000000
00010000
,
00000000
00001000
00000000
00001000
,
00000000
00000100
00000001
00000010
,
00000000
00001000
00010000
00001000
,
00011000
00001000
00000000
00100000
,
00000000
00010000
01000000
00010000
,
00000000
00100000
00000000
00001000
,
00000000
00010000
00000010
00010000
,
00000000
00001000
00000000
00100000
,
00000000
00010000
01000000
00010000
,
10000000
01000000
00000000
00010000
,
00000000
00020000
00030000
00001000
,
00001000
00001000
00010000
01000000
,
10000000
00010000
10000000
01000000
,
00010000
00000000
00001000
00000000
,
00100000
00000000
01000000
00000000
,
00010000
00001000
00000100
00000001
,
00000011
00000000
00000010
00000001
,
00000100
00000000
00001000
00000000
,
00010000
00000000
00100000
00100000
,
00010000
00001000
00000010
00000001
,
00001000
00000001
00000010
00001000
,
00000000
00010000
00000000
00000100
,
00000000
00000010
00000000
00001000
,
00010000
00100000
10000000
11000000
,
00000000
01000000
10000000
00100000
,
00000000
00010000
00000000
00001000
,
00000000
00000100
00000100
00000001
,
00000000
00001000
00000000
00001001
,
00000000
00001010
00000000
00011000
,
00000000
01010000
00000000
10010000
,
00000000
01100000
00000000
00100000
,
10000000
01000000
00000000
01010000
,
00000000
00011000
00000000
00001100
,
00000000
00011000
00000000
00110000
,
00000000
00011000
00001000
00000010
,
00000001
00000100
00001000
00010000
,
00001000
00000100
00000001
00000000
,
00000010
00000000
00002000
00000000
,
00003000
00000000
00010000
10000000
,
01000000
00100000
01100000
00000000
,
01000000
00010000
00001000
00000000
,
00010000
00000000
00001000
00000000
,
00010000
00000000
00022000
00000000
,
00000000
00033000
00001000
00010000
,
01000000
10000000
00100000
01000000
,
00010000
00110000
00000000
00100000
,
00001000
00000010
00000001
00000100
,
00001000
00000000
00010000
00100000
,
10000000
00000000
01000000
00010000
,
00001000
00010000
00011000
00000000
,
00010000
00001000
00001010
00000000
,
00011000
00000000
00110000
00000000
,
00011000
00000000
00002200
00003300
,
00000100
00000001
00000010
00000001
,
00000100
00000001
00000010
00000001
,
00000010
00000001
00000100
00001000
,
00020000
00030000
00001000
00010000
,
01010000
00000000
01000000
10000000
,
00100000
10000000
01000000
10000000
,
00100000
10000000
01000000
10000000
,
00100000
00010000
00022000
00033000
,
00001000
00100000
01000000
10000000
,
00100000
01000000
00001000
00100000
,
01000000
10000000
00100000
01000000
,
00020000
00030000
00100000
00001000
,
00011000
00000000
00010000
00000100
,
00000010
00000001
00000100
00000010
,
00010000
00000100
00000010
00000001
,
00000100
00001100
00010000
00000000
,
00100000
00000000
10000000
00000000
,
01000000
00000000
00011000
00000000
;

//---------------dance-double - ----------------
#NOTES:
     dance-double:
     :
     Medium:
     10:
     0.458939,0.559551,0.317996,0.154921,0.000000,394.000000,355.000000,39.000000,19.000000,0.000000,0.000000,0.458939,0.559551,0.317996,0.154921,0.000000,394.000000,355.000000,39.000000,19.000000,0.000000,0.000000:
00000000
00000000
00000000
00000000
,
00000000
00000000
00000000
00000000
,
00000000
00000000
00000000
00000000
,
00000000
00000000
00000000
00000000
,
00000000
00000000
00000000
00000000
,
00000000
00000000
00000000
00000000
,
00000000
00000000
00000000
00000000
,
00000000
00000000
00000000
00000000
,
00000000
00001000
00100000
00010000
,
01000000
00001000
00100000
00010000
,
01010000
01000000
00100000
10000000
,
00100000
01000000
00010000
00100000
,
00101000
00001000
00010000
00000100
,
00000010
00000001
00000020
00000000
00000130
00000000
00000000
00000000
,
00000100
00001000
00000010
00000000
00010000
00000000
00001000
00000000
,
00100000
00010000
01000000
00000000
00001000
00000000
00010000
00000000
,
00011000
00010000
00000100
00001000
,
00000010
00010000
00000100
00001000
,
00001010
00000010
00000100
00000001
,
00000100
00000010
00001000
00000100
,
00010100
00010000
00001000
00100000
,
01000000
10000000
02000000
00000000
03100000
00000000
00000000
00000000
,
00100000
00010000
01000000
00000000
00001000
00000000
00010000
00000000
,
00000100
00001000
00000010
00000000
00010000
00000000
00001000
00000000
,
00011000
00000000
00001000
00100000
00000000
00001000
00010000
00000000
,
01000000
10000000
00100000
00020000
,
00030000
00000000
00010000
00000010
00000000
00010000
00001000
00000000
,
00000100
00000001
00000010
00002000
,
00003000
00000000
00001000
01000000
00000000
00001000
00010000
00000000
,
00100000
10000000
01000000
00010000
,
00001000
00101000
00000000
00010010
,
00000000
00022000
00030000
00010000
,
00013000
00010000
01000000
10000000
,
00100000
01100000
10000000
01000000
,
00010000
00001000
00000010
00000001
,
00000100
00001000
00010000
01000000
,
10000000
00100000
00010000
00001000
,
00011000
00000100
00001000
00000001
,
00000101
00000000
00000000
00001100
00000000
00000000
00011000
00000000
,
00000000
00110000
00000000
00000000
10100000
00000000
00010000
00000000
,
00001000
00000010
00000001
00000100
,
00000110
00000001
00000010
00001000
,
00010000
01000000
10000000
00100000
,
00010000
00001000
00000010
00000001
,
00000100
00001000
00010000
00011000
,
00100000
00010000
10000000
10100000
,
00000000
00110000
00000000
00000000
00011000
00000000
00000000
00001010
,
00000000
00000011
00001000
00010000
,
00100000
00000000
10000000
00000000
01000000
00100000
00000000
01000000
,
00010000
00000000
01000000
00100000
00000000
01000000
00010000
00000000
,
01000000
00100000
00000000
01000000
10000000
00000000
01000000
00010000
,
00000000
00001000
00020000
00000000
00000000
00000000
00031000
00000000
,
00000100
00000000
00000001
00000000
00000010
00000100
00000000
00000010
,
00001000
00000000
00000010
00000100
00000000
00000010
00001000
00000000
,
00000010
00000100
00000000
00000010
00000001
00000000
00000100
00001000
,
00000000
00010000
00001000
00000000
00100000
00000000
00010000
00000000
,
01000000
00100000
10000000
11000000
,
00010000
00100000
02000000
03000000
,
00020000
00030000
00002000
00003000
,
00000020
00000030
00000001
00000100
,
00001000
00010000
00011000
00000000
,
00001000
00010000
01010000
00000000
,
00011000
00000000
00001100
00000000
,
00011000
00000000
00220000
00000000
,
00000000
00000000
00330000
00000000
00100000
10000000
00100000
10000000
,
00100000
10000000
00100000
10000000
01000000
00000000
00100000
00001000
,
00020000
00000000
00030100
00000000
00001100
00000000
00001000
00000001
,
00000100
00001000
00010000
00000000
01000000
00000000
10000000
00000000
,
00100000
00010000
00001000
00000100
,
00000001
00000000
00000010
00000000
00001000
00000000
00010000
00001000
,
00010000
00000000
01000000
00000000
11000000
00000000
10000000
01000000
,
00010000
00001000
00010000
00000000
00011000
00000000
00000000
00101000
,
00000000
00000000
00011000
00000000
00000000
00010100
00000000
00000000
,
00000200
00001300
00001001
00000001
,
00000100
00000000
00001000
00010000
00000000
00001000
01000000
00000000
,
00001000
00010000
00000000
00001000
00000100
00000000
00001000
00010000
,
00000000
00001000
01000000
00000000
00001000
00010000
00000000
00200000
,
02000000
00000000
03300000
00000000
00100000
10000000
01000000
00100000
,
00010000
00000000
00100000
00001000
00000000
00100000
01000000
00000000
,
00100000
00001000
00000000
00100000
01000000
00000000
00100000
00001000
,
00000000
00100000
01000000
00000000
00100000
00010000
00000000
00100000
,
01000000
00000000
10000000
00000000
00100000
00010000
00001000
00000000
,
00010000
00001000
00000010
00000001
00000000
00000001
00000100
00000000
,
00000100
00001000
00000000
00001000
00010000
00000000
00010000
00100000
,
00000000
00100000
10000000
00000000
10000000
01000000
00000000
02000000
,
00200000
00000000
03300000
00000000
00100000
00001000
00010000
00001000
,
00000010
00000000
00000010
00000001
00000000
00000001
00000100
00000000
,
00000100
00001000
00000000
00001000
00010000
00000000
00010000
00100000
,
00000000
00100000
10000000
00000000
10000000
01000000
00000000
01000000
,
00100000
00110000
10000000
01000000
,
00010000
00001000
00000010
00000001
,
00000100
00001000
00011000
00000000
;

//---------------dance-double - ----------------
#NOTES:
     dance-double:
     :
     Hard:
     12:
     0.552125,0.634158,0.269074,0.285381,0.000000,474.000000,441.000000,33.000000,35.000000,0.000000,0.000000,0.552125,0.634158,0.269074,0.285381,0.000000,474.000000,441.000000,33.000000,35.000000,0.000000,0.000000:
00000000
00000000
00000000
00000000
,
00000000
00000000
00000000
00000000
,
00000000
00000000
00000000
00000000
,
00000000
00000000
00000000
00000000
,
00000000
00000000
00000000
00000000
,
00000000
00000000
00000000
00000000
,
00000000
00000000
00000000
00000000
,
00000000
00000000
00000000
00000000
,
00000000
00000000
00001000
00010000
00001000
00000000
00010000
00000000
,
00100000
00000000
10000000
00010000
10000000
00000000
00100000
00000000
,
00010000
00000000
00001000
00010000
00001000
00000000
00000100
00000000
,
00000001
00000000
00000010
00000100
00000010
00000000
00000001
00000000
,
00000100
00000000
00001000
00010000
00001000
00000000
00100000
01000000
,
10000000
00010000
00100000
01000000
10000000
00000000
10100000
00000000
,
00100000
00010000
00001000
00000000
00100000
00000000
00010000
00000000
,
01000000
00001000
00010000
00000000
00000100
00010000
00001000
00000000
,
00011000
00000000
00010000
00001000
00010000
00000000
00001000
00000000
,
00000100
00000000
00000001
00001000
00000001
00000000
00000100
00000000
,
00001000
00000000
00010000
00001000
00010000
00000000
00100000
00000000
,
10000000
00000000
01000000
00100000
01000000
00000000
10000000
00000000
,
00100000
00000000
00010000
00001000
00010000
00000000
00000100
00000010
,
00000001
00001000
00000100
00000010
00000001
00000000
00000101
00000000
,
00000100
00001000
00010000
00000000
00000100
00000000
00001000
00000000
,
00000010
00010000
00001000
00000000
00100000
00001000
00010000
00000000
,
00011000
00000000
00001000
00100000
00000000
00100000
01000000
00000000
,
10000000
00000000
00100000
00010000
00000000
00010000
00001000
00000000
,
00000100
00000000
00000001
00000010
00000000
00000010
00001000
00000000
,
00010000
00000000
00001000
00100000
00000000
00100000
01000000
00000000
,
10000000
00000000
00100000
00010000
00000000
00010000
00001000
00000000
,
00000010
00000001
00000101
00001100
,
00011000
01001000
00000000
00010010
,
00000000
00022000
00003000
00001000
,
00031000
00000000
00001000
00100000
01000000
10000000
00010000
00100000
,
01000000
12000000
03010000
01000000
,
00100000
00010000
01000000
00000000
00001000
00010000
00100000
00000000
,
00010000
00001000
00000010
00000000
00001000
00010000
01000000
00000000
,
00010000
00001000
00000100
00000001
00000010
00000000
00000110
00000000
,
00001001
00000000
00000001
00001000
00000100
00010000
00000100
00001000
,
00000001
00000000
00001000
00000100
00000000
00010000
00001000
00000000
,
00100000
00010000
00000000
01000000
00001000
00000000
00011000
00000000
,
00010000
00000100
00000010
00000001
00001000
00000100
00000010
00000000
,
00000021
00000000
00001030
00000000
00000010
00000000
00000100
00001000
,
00000010
00000000
00010000
00001000
00000100
00000000
00001000
00010000
,
01000000
00000000
00010000
00001000
00000010
00000000
00001000
00010000
,
00100000
10000000
01000000
00000000
01100000
00000000
10010000
00000000
,
10000000
00010000
00100000
00001000
00100000
00010000
10000000
00000000
,
00010000
00100000
00000000
00001000
00010000
00000000
00000100
00001000
,
00000000
00000010
00010000
00000000
00011000
00000000
00001000
00100000
,
01000000
10000000
00100000
01000000
00010000
00100000
00000000
00100000
,
00001000
00000000
00001000
00010000
00000000
00010000
00000010
00000000
,
00000010
00000100
00000000
00000100
00000001
00000000
00000001
00000010
,
00000000
00000020
00000200
00000000
00000330
00000000
00000100
00000010
,
00000001
00000100
00001000
00000000
00001000
00010000
00000000
00010000
,
00000100
00000000
00000100
00001000
00000000
00001000
00000010
00000000
,
00000010
00010000
00000000
00010000
00001000
00000000
00001000
00100000
,
00000000
00100000
01000000
00000000
01100000
00000000
10000000
00000000
,
00100000
00010000
00001000
00201000
,
01300000
01000000
00020000
00032000
,
00003020
00000230
00020300
00032000
,
00003020
00000230
00000310
00000001
,
00000100
00002000
00003000
00010000
,
00100000
10000000
11000000
00000000
,
01010000
00000000
00011000
00000000
,
00001010
00000000
00000022
00000000
,
00000000
00000000
00000033
00000000
00000001
00000100
00000001
00000100
,
00000001
00000100
00000001
00001000
00000100
00000010
00000001
00000100
,
00001000
00010000
00012000
00000000
01003000
00000000
01000000
00010000
,
00100000
01000000
10000000
00100000
00010000
00000000
00010000
00001000
,
00000010
00000000
00000010
00000001
00000100
00000000
00000100
00001000
,
00010000
00000000
00010000
00100000
10000000
01000000
00100000
00010000
,
02010000
00000000
03001000
00000000
00011000
00000000
00010000
00001000
,
00000100
00000010
00010000
00001000
00000100
00000000
00000001
00000010
,
00000000
00000010
00001000
00000000
00001000
00010000
00000000
00010000
,
00100000
10000000
01000000
00100000
01100000
00000000
01000000
00000000
,
00100000
00000000
00010000
01000000
00000000
01000000
00001000
00000000
,
00001000
00010000
00000000
00010000
00000100
00000000
00000100
00000010
,
00000000
00000010
00000001
00000000
00000001
00000100
00000000
00000200
,
00000020
00000000
00000330
00000000
00000010
00010000
00001000
00100000
,
01000000
00000000
01000000
10000000
00000000
10000000
00100000
00000000
,
00100000
00010000
00000000
00010000
00001000
00000000
00001000
00000100
,
00000000
00000100
00000001
00000000
00000001
00000010
00000000
00000010
,
00000100
00010000
00001000
00010000
00011000
00000000
00001000
00010000
,
00100000
10000000
01000000
00200000
00000000
01300000
20000000
00000000
,
31000000
00020000
00000000
01030000
20000000
00000000
30100000
00020000
,
00000000
00031000
00000020
00000000
00000031
00000200
00000000
00001300
,
00010000
00100000
10000000
00100000
01000000
00010000
00100000
00001000
,
00011000
00000000
00010000
00002000
00000000
00003100
00000002
00000000
,
00000013
00000200
00000000
00010300
00002000
00000000
00103000
02000000
,
00000000
13000000
00200000
00000000
01300000
00100000
00010000
00001000
,
00100000
00010000
00001000
00000010
00000100
00000000
00000101
00000000
,
00000001
00000010
00001000
00010000
,
01000000
10000000
10010000
00000000
;

//---------------dance-double - ----------------
#NOTES:
     dance-double:
     :
     Challenge:
     16:
     0.746650,0.932585,0.407687,0.513686,0.309842,641.000000,591.000000,50.000000,63.000000,0.000000,0.000000,0.746650,0.932585,0.407687,0.513686,0.309842,641.000000,591.000000,50.000000,63.000000,0.000000,0.000000:
00000000
00000000
00000000
00000000
,
00000000
00000000
00000000
00000000
,
00000000
00000000
00000000
00000000
,
00000000
00000000
00000000
00000000
,
00000000
00000000
00000000
00000000
,
00000000
00000000
00000000
00000000
,
00000000
00000000
00000000
00000000
,
00000000
00000000
00000000
00000000
,
00000000
00000000
01000000
00010000
00001000
00001000
00010000
01000000
,
10000000
10000000
01000000
00010000
00001000
00001000
00010000
01000000
,
20000000
00000000
30100000
00010000
00001000
00001000
00010000
00100000
,
10000000
10000000
00100000
00010000
00001000
00001000
00010000
00100000
,
20000000
00000000
31000000
00010000
00001000
00001000
00010000
01000000
,
00100000
00100000
01000000
00010000
00001000
00001000
00010000
01000000
,
01100000
00000000
00100000
00000000
00010000
01000000
00000000
00000000
00001000
00010000
00000000
00000000
00000100
00001000
00000000
00000000
,
00000001
00000000
00000100
00000000
00000010
00001000
00000000
00000000
00000100
00010000
00000000
00000000
00001000
00100000
00000000
00000000
,
00010000
01000000
00010000
00000000
10000000
00000000
01000000
00000000
00010000
00000000
00010000
00000000
00001000
00000000
00000010
00000000
,
00000001
00000001
00000100
00001000
00010000
00010000
00100000
10000000
,
11000000
00000000
10000000
00100000
00010000
00010000
00001000
00000100
,
00000001
00000001
00000010
00001000
00010000
00010000
01000000
10000000
,
10100000
00000000
00100000
01000000
10000000
10000000
00100000
00010000
,
00001000
00001000
00000100
00000001
00000010
00000010
00001000
00010000
,
00011000
00000000
00100000
00000000
00010000
01000000
00000000
00000000
00001000
00010000
00000000
00000000
00000100
00000010
00000000
00000000
,
00000001
00000000
00000100
00000000
00001000
00010000
00000000
00000000
00100000
01000000
00000000
00000000
00100000
10000000
00000000
00000000
,
01000000
00100000
01000000
00000000
00010000
00001000
00000000
00000000
00010000
00000000
00100000
01000000
00000000
00000000
00100000
00000000
,
00010000
00001000
00000000
00000000
00100000
00000000
01000000
00000000
10000000
00000000
00100000
00000000
00110000
00000000
00000000
00000000
,
00011000
00000000
00000000
00000000
00001000
00010000
00000000
00000000
00001000
00000000
00000100
00000010
00000000
00000000
00000100
00000000
,
00001000
00010000
00000000
00000000
00000100
00000000
00000010
00000000
00000001
00000000
00000100
00000000
00001100
00000000
00000000
00000000
,
00011000
00000000
00000000
00000000
00001000
00100000
00000000
00000000
01000000
00000000
00010000
00001000
00000000
00000000
00000010
00000000
,
00000100
00001000
00000000
00000000
00000001
00000100
00000000
00000000
00001000
00010000
00000000
00000000
00100000
01000000
00000000
00000000
,
00100000
10000000
00000000
00000000
11000000
00000000
00000000
00000000
00000000
00000000
00000000
00000000
01010000
00000000
00000000
00000000
,
00000000
00000000
00022000
00000000
00030000
00010000
00013000
00000000
,
00011000
00000000
00001000
00010000
00100000
10000000
01000000
00100000
,
00010000
10000000
10010000
00000000
00001001
00000000
00000001
00000000
,
00000100
00001000
00010000
00100000
10000000
01000000
00010000
00001000
,
00000010
00000001
00000100
00001000
00010000
00100000
10000000
01000000
,
00100000
00010000
01000000
00100000
00010000
00001000
00100000
01000000
,
11000000
00000000
10000000
00100000
01000000
00010000
00100000
00001000
,
00010000
00000100
00000000
00000000
00001000
00000000
00000100
00010000
00000000
00000000
00001000
00000000
00010000
00000100
00000000
00000000
,
00000010
00000000
00000001
00000100
00000001
00000000
00001000
00000000
00000100
00010000
00001000
00000000
01000000
00001000
00010000
00000000
,
00010000
00001000
00000010
00000001
00000100
00000010
00001000
00000001
,
00001001
00000000
10010000
00000000
10000000
00000000
01000000
00010000
,
00001000
00000010
00000001
00000100
00001000
00010000
00100000
10000000
,
01000000
00010000
00001000
00000010
00000001
00000100
00000010
00001000
,
00000100
00000010
00001000
00010000
00000010
00000100
00000101
00000000
,
00000001
00000000
00000010
00000000
00000100
00000000
00001000
00000000
00000010
00000000
00010000
00000000
00001000
01000000
00000000
00000000
,
00010000
00000000
01000000
00001000
00000000
00000000
00010000
00000000
00001000
01000000
00000000
00000000
00100000
00000000
10000000
01000000
,
10000000
00000000
00010000
00000000
01000000
00001000
00010000
00000000
00000100
00010000
00001000
00000000
00022000
00000000
00000000
00000000
,
00003000
00000100
00030100
00000010
00000002
00000103
00000000
00000200
,
00001300
00000000
00002000
00013000
00000000
00020000
00130000
00000000
,
00200000
10300000
00000000
20000000
31000000
00000000
02000000
03010000
,
00000000
00010000
00012000
00000000
00203000
00000000
01300000
10000000
,
00100000
00020000
00001000
00030000
00000200
00001300
00000000
00002000
,
00003010
00000000
00000020
00010030
00000000
00020000
00031000
00000000
,
00002000
00103000
00000000
00200000
01300000
00000000
02000000
13000000
,
00000000
20000000
30100000
00100000
01000000
00010000
00100000
01000000
,
00100000
00001000
00100000
01000000
00100000
00010000
10010000
00000000
,
00001001
00000000
00000001
00000200
00000000
00002300
00000000
00023000
,
00000000
00230000
00000000
20300000
00000000
32000000
00000000
03020000
,
00000000
00032000
00000000
00003020
00000000
00000031
00000100
00001000
,
00011000
00000000
00210000
00000000
00000000
00000000
01300000
01000000
,
00010000
10000000
01000000
00100000
00202000
00000000
00303000
00000000
,
00020020
00030030
02002000
03003000
,
00020200
00030300
00022000
00000000
,
00000000
00000000
00033000
00000000
00001000
00010000
00100000
00010000
,
00001000
00000010
00001000
00010000
00001000
00000100
00000001
00000010
,
00000100
00001000
00001001
00000000
00000000
00000000
10010000
10000000
,
00100000
01000000
00010000
00000000
01000000
00100000
10000000
00000000
01000000
00010000
01000000
00000000
00010000
00001000
00010000
00000000
,
00001000
00000010
00001000
00000000
00000010
00000001
00000010
00000000
00000001
00000100
00000001
00000000
00000100
00001000
00000100
00000000
,
00001000
00010000
00001000
00000000
00010000
00000000
00100000
00000000
10100000
00000000
10000000
00000000
01000000
00000000
00100000
00000000
,
00010000
01000000
00001000
00010000
00012000
00000000
00003010
00000001
,
00000100
00000000
00001000
00000000
00010000
00000000
01000000
00000000
00100000
00001000
00000000
00000000
00100000
00000000
01000000
00010000
,
00000000
00000000
01000000
00000000
00100000
00001000
00000000
00000000
00100000
00000000
01000000
00010000
00000000
00000000
00001000
00000000
,
00010000
00001000
00000100
00000000
00001000
00000100
00000010
00000000
00000100
00000000
00000100
00000000
00000001
00000000
00000010
00000000
,
00001000
00010000
00100000
10100000
00000000
10000000
11000000
00000000
,
01000000
01010000
00000000
00010000
00011000
00000000
00001000
00001100
,
00000000
00000100
00000101
00000000
00000001
00000011
00000000
00000010
,
00000220
00000000
00000030
00000000
00000310
00001000
00010000
00200000
,
10000000
00300000
10000000
11000000
00000000
01000000
01100000
00000000
,
00100000
00110000
00000000
00010000
00011000
00000000
00001000
00001100
,
00000000
00000100
00000110
00000000
00000010
00000011
00000000
00000001
,
00000100
00000000
00001000
00000000
00000100
00000000
00000001
00000000
00000010
00000100
00000010
00000000
00001000
00000000
00010000
00000000
,
01000000
00100000
01000000
00000000
10000000
00100000
02000000
00000000
00000000
00000000
03100000
10000000
02000000
00000000
00000000
00000000
,
03100000
00010000
02000000
00000000
00000000
00000000
03001000
00010000
00000200
00000000
00000000
00000000
00010300
00001000
00200000
00000000
,
00000000
00000000
00310000
01000000
00200000
00000000
00000000
00000000
00310000
00001000
00000200
00000000
00000000
00000000
00000310
00001000
,
00000100
00000000
00000010
00000000
00000001
00000000
00000100
00000000
00001000
00010000
00001000
00010000
00001000
00010000
00001000
00010000
,
00002000
00000000
00000000
00000000
00013000
00001000
00000200
00000000
00000000
00000000
00001300
00000100
00000002
00000000
00000000
00000000
,
00000013
00000100
00002000
00000000
00000000
00000000
00003100
00010000
00002000
00000000
00000000
00000000
00013000
00100000
20000000
00000000
,
00000000
00000000
31000000
00010000
00002000
00000000
00000000
00000000
00003010
00000001
00000200
00000000
00000000
00000000
00001300
00010000
,
00001000
00100000
01000000
10000000
00100000
00010000
00001000
00100000
,
00010000
00001000
00000100
00010000
00001000
00000010
00000001
00000100
,
00001000
00010000
00011000
00000000
10010000
00000000
00000000
00000000
;
