#VERSION:0.83;
#TITLE:Let Me Hear;
#SUBTITLE:;
#ARTIST:FALILV;
#TITLETRANSLIT:;
#SUBTITLETRANSLIT:;
#ARTISTTRANSLIT:;
#GENRE:J-MUSIC;
#ORIGIN:;
#CREDIT:MUINELIM;
#BANNER:Let Me Hear.png;
#BACKGROUND:Let Me Hear-bg.png;
#PREVIEWVID:;
#JACKET:Let Me Hear-jacket.png;
#CDIMAGE:;
#DISCIMAGE:;
#LYRICSPATH:;
#CDTITLE:;
#MUSIC:Let Me Hear.ogg;
#OFFSET:0.203000;
#SAMPLESTART:60.735519;
#SAMPLELENGTH:14.218468;
#SELECTABLE:YES;
#DISPLAYBPM:92.000000:184.000000;
#BPMS:0.000=184.120,
187.000=92.060,
215.000=184.120;
#STOPS:;
#DELAYS:;
#WARPS:;
#TIMESIGNATURES:0.000=4=4;
#TICKCOUNTS:0.000=4;
#COMBOS:0.000=1;
#SPEEDS:0.000=1.000=0.000=0;
#SCROLLS:0.000=1.000;
#FAKES:;
#LABELS:0.000=Song Start;
#BGCHANGES:0.000=Let Me Hear.avi=1.000=0=0=0=StretchNoLoop====,
99999=-nosongbg-=1.000=0=0=0 // don't automatically add -songbackground-
;
#KEYSOUNDS:;
#ATTACKS:
;

//---------------dance-single - ----------------
#NOTEDATA:;
#CHARTNAME:;
#STEPSTYPE:dance-single;
#DESCRIPTION:;
#CHARTSTYLE:;
#DIFFICULTY:Beginner;
#METER:4;
#RADARVALUES:0.150720,0.268250,0.022448,0.000000,0.000000,94.000000,92.000000,2.000000,0.000000,0.000000,0.000000,0.000000,0.000000,0.000000,0.150720,0.268250,0.022448,0.000000,0.000000,94.000000,92.000000,2.000000,0.000000,0.000000,0.000000,0.000000,0.000000,0.000000;
#CREDIT:MILEN;
#DISPLAYBPM:184.000000;
#NOTES:
0000
0000
0000
0000
,
0000
0000
0000
0000
,
0000
0000
0000
0000
,
0000
0000
0000
0000
,
0000
0000
0000
0000
,
0000
0000
0000
0000
,
0000
0000
0000
0000
,
0000
0000
0000
0000
,
0000
0000
0000
0000
,
0010
0000
0010
0000
,
0010
0000
0010
0000
,
0010
0000
0010
0000
,
0010
0010
0000
0000
,
0100
0000
0100
0000
,
0100
0000
0100
0000
,
0100
0000
0100
0000
,
0100
0100
0000
0001
,
0000
0000
0000
1000
,
0000
0000
0000
0010
,
0000
0000
0000
0100
,
0000
0000
0000
0001
,
0000
1000
0000
0010
,
0000
0100
0000
0001
,
0000
1000
0000
0010
,
0000
0010
0000
0001
,
0000
0000
0000
0001
,
0000
0000
0000
1000
,
0000
0000
0000
1000
,
0000
0000
0000
0001
,
0000
0000
0000
1000
,
0000
0000
0000
0001
,
0000
0000
0000
1000
,
0000
0000
0000
0010
,
0000
0000
0000
0010
,
0000
0000
0000
0100
,
0000
0000
0000
0100
,
0000
0000
0000
0010
,
0000
0000
0000
0100
,
0000
0000
0000
0010
,
0000
0000
0000
0100
,
0000
0000
0000
0001
,
0000
1000
0000
0001
,
0000
1000
0000
0100
,
0000
0010
0000
0100
,
0000
0010
0000
0001
,
0000
1000
0000
0100
,
0000
0000
0000
0110
,
0000
0010
0001
0100
,
0000
0010
0000
0010
,
1000
0100
0100
0010
,
0010
0001
0001
0000
,
1000
0000
0001
0000
,
1000
0001
1000
1000
,
0000
0010
0100
0010
,
0000
0010
0010
0010
,
0000
0010
0010
0010
,
0000
0010
0010
0010
,
0000
1000
0000
0100
,
0000
0001
0000
0010
,
0000
0100
0000
0110
;

//---------------dance-single - ----------------
#NOTEDATA:;
#CHARTNAME:;
#STEPSTYPE:dance-single;
#DESCRIPTION:;
#CHARTSTYLE:;
#DIFFICULTY:Easy;
#METER:7;
#RADARVALUES:0.287010,0.446849,0.101015,0.123462,0.000000,179.000000,170.000000,9.000000,11.000000,0.000000,0.000000,0.000000,0.000000,0.000000,0.287010,0.446849,0.101015,0.123462,0.000000,179.000000,170.000000,9.000000,11.000000,0.000000,0.000000,0.000000,0.000000,0.000000;
#CREDIT:MILEN;
#DISPLAYBPM:184.000000;
#NOTES:
0000
0000
0000
0000
,
0000
0000
0000
0000
,
0000
0000
0000
0000
,
0000
0000
0000
0000
,
0000
0000
0000
0000
,
0000
0000
0000
0000
,
0000
0000
0000
0000
,
0000
0000
0000
0000
,
0000
0000
0000
0001
,
0100
0000
0100
0000
,
0100
0000
0100
0000
,
0100
0000
0100
0000
,
0100
0000
0100
0100
0000
0000
1000
0000
,
0010
0000
0010
0000
,
0010
0000
0010
0000
,
0010
0000
0010
0000
,
0010
2002
3003
1000
,
0100
0010
0001
1000
,
0100
0010
0010
0001
,
0010
0100
1000
0001
,
0010
0100
0100
1000
,
0000
0010
0000
0000
0100
0000
0000
0001
,
0000
1000
0000
0001
,
0000
0100
0000
0000
0010
0000
0000
1000
,
0000
0002
1003
1000
,
0100
1000
0000
0001
,
0100
0001
0000
1000
,
0010
1000
0000
0001
,
0010
0001
0000
0100
,
0010
1000
0000
0010
,
0100
0001
0000
1000
,
0010
0100
0000
0001
,
0100
0010
0000
1000
,
0100
0020
0031
0001
,
0100
0020
1030
1000
,
0001
0010
0100
1000
,
0001
2002
0000
3003
,
0010
0100
0010
0100
,
0000
0100
0000
0000
0010
0000
1000
0000
,
0001
0100
0010
1000
,
0001
1001
0000
1000
,
0100
0001
0000
0001
,
0100
1000
0000
0001
,
0010
1000
0000
1000
,
0010
0001
0000
0100
,
0010
0100
0010
2002
,
0000
0000
3003
1001
,
0000
1000
0100
0010
,
0001
0001
0001
0000
0000
0100
0100
0000
,
0010
1000
0001
0010
,
0100
0000
1000
0000
0010
0100
0000
0010
,
0010
0000
1000
0000
0001
0000
0100
0010
,
0100
0000
0001
1000
0001
0000
1001
0000
,
0000
0010
0010
0000
0100
0010
0100
0000
,
0001
0000
1000
0000
0001
0000
0100
0100
,
0000
0000
1000
0000
0001
0000
0100
0100
,
0000
1000
0001
0100
,
1000
0010
0001
1000
,
0010
0000
0100
0100
0000
0000
0110
0000
,
0000
1001
0000
0220
,
0000
0000
0000
0000
,
0000
0330
0000
0000
;

//---------------dance-single - ----------------
#NOTEDATA:;
#CHARTNAME:;
#STEPSTYPE:dance-single;
#DESCRIPTION:;
#CHARTSTYLE:;
#DIFFICULTY:Medium;
#METER:10;
#RADARVALUES:0.392835,0.515596,0.123462,0.112238,0.022448,245.000000,234.000000,11.000000,10.000000,0.000000,0.000000,0.000000,0.000000,0.000000,0.392835,0.515596,0.123462,0.112238,0.022448,245.000000,234.000000,11.000000,10.000000,0.000000,0.000000,0.000000,0.000000,0.000000;
#CREDIT:MILEN;
#DISPLAYBPM:184.000000;
#NOTES:
0000
0000
0000
0000
,
0000
0000
0000
0000
,
0000
0000
0000
0000
,
0000
0000
0000
0000
,
0000
0000
0000
0000
,
0000
0000
0000
0000
,
0000
0000
0000
0000
,
0000
0000
0000
0000
,
0000
0000
0000
0001
,
0100
0000
0100
0000
,
0100
0000
0100
0000
,
0100
0000
0100
0000
,
0100
0000
0100
0100
0000
0000
1000
0000
,
0010
0000
0010
0000
,
0010
0000
0010
0000
,
0010
0000
0010
0001
,
1000
0000
0010
0100
0020
0000
0130
0000
,
0001
1000
0010
0100
,
0001
0010
0100
1000
,
0010
0100
0001
1000
,
0100
0000
0010
0001
0010
0001
0010
0000
,
0010
0001
0000
0001
0100
0000
0100
0010
,
0000
0010
1000
0000
0000
0000
1000
0000
,
0001
0010
0000
0010
0100
0000
0100
1000
,
0100
1000
0020
0000
0130
0000
0101
0000
,
0001
0010
0100
1000
,
0010
0100
0001
1001
,
1000
0100
0010
0001
,
0100
0010
1000
1010
,
0010
0100
0001
0011
,
0010
0100
1000
1100
,
0100
0010
0001
1000
,
0010
0000
0100
0001
0100
0001
0200
0000
,
0310
1000
0001
0100
,
0020
1030
0001
0100
,
0010
0000
1000
0100
0000
0100
0010
0000
,
0010
0001
0100
0020
0000
0000
0130
0000
,
0010
1000
0100
0010
,
0001
0100
0000
0100
0010
0000
1000
0000
,
0001
0000
0010
0000
0100
0000
1000
0010
,
1000
0000
0001
0010
0001
0000
1000
0000
,
0100
0001
0100
1000
,
0100
0000
0001
0000
0100
1000
0010
0000
,
0100
0001
0010
0000
0100
1000
0010
0000
,
0100
0001
0010
0000
0100
0000
0010
0001
,
0010
0001
1000
0100
1000
0100
0020
0000
,
0000
0000
0000
0130
,
0100
0000
0010
0000
0001
0000
0100
0010
,
1000
0001
0020
0000
0000
0100
0130
0000
,
0100
1000
0010
0000
0011
0000
0101
0000
,
1100
0000
1010
0000
0010
0020
0000
0130
,
0001
0000
0000
0000
0001
0000
0000
1000
0000
0000
0001
0000
0100
0000
0000
0010
,
0000
0000
0100
0000
0001
0000
0000
0010
0000
0000
0100
0000
1100
0000
0000
0000
,
1000
0000
0010
0000
0100
0000
0000
0100
0000
0000
0100
0000
0001
0000
0010
0000
,
0000
0010
0001
0010
0001
0100
0010
1000
,
0000
0000
1000
0100
1000
0100
0010
0001
,
0000
0000
0001
0100
0010
1000
0001
0100
,
0010
1000
0001
0000
0010
0000
0100
0000
,
1000
0000
0010
0100
0000
0001
1000
0000
,
0100
0010
0100
0010
0100
0000
2002
0000
,
0000
0000
0000
0000
,
0000
3003
0000
0000
;

//---------------dance-single - ----------------
#NOTEDATA:;
#CHARTNAME:;
#STEPSTYPE:dance-single;
#DESCRIPTION:;
#CHARTSTYLE:;
#DIFFICULTY:Hard;
#METER:12;
#RADARVALUES:0.538745,0.721834,0.347939,0.213253,0.067343,336.000000,305.000000,31.000000,19.000000,0.000000,0.000000,0.000000,0.000000,0.000000,0.538745,0.721834,0.347939,0.213253,0.067343,336.000000,305.000000,31.000000,19.000000,0.000000,0.000000,0.000000,0.000000,0.000000;
#CREDIT:MILEN;
#DISPLAYBPM:184.000000;
#NOTES:
// measure 0
0000
0000
0000
0000
,  // measure 1
0000
0000
0000
0000
,  // measure 2
0000
0000
0000
0000
,  // measure 3
0000
0000
0000
0000
,  // measure 4
0000
0000
0000
0000
,  // measure 5
0000
0000
0000
0000
,  // measure 6
0000
0000
0000
0000
,  // measure 7
0000
0000
0000
0000
,  // measure 8
0000
0000
0000
0001
,  // measure 9
0101
0100
1100
1000
,  // measure 10
1010
0010
0011
0001
,  // measure 11
0101
0100
1100
1000
,  // measure 12
1010
0000
0001
0100
0000
0100
0010
0000
,  // measure 13
1010
1000
1100
0100
,  // measure 14
0101
0001
0011
0010
,  // measure 15
1010
1000
1100
0100
,  // measure 16
0110
0000
1000
0001
2000
0000
3010
0100
,  // measure 17
0001
1000
0100
0010
0001
1000
0010
0100
,  // measure 18
0001
1000
0100
0010
0001
1000
0010
0100
,  // measure 19
0001
1000
0100
0010
0001
1000
0010
0100
,  // measure 20
0001
1000
0100
0100
0100
0100
0010
0000
,  // measure 21
0010
0001
0000
0001
0100
0000
0100
0010
,  // measure 22
0000
0010
1000
0000
1000
0001
0010
0000
,  // measure 23
0010
0100
0000
0100
1000
0000
1000
0010
,  // measure 24
0100
0001
1000
0010
0200
0000
0301
0010
,  // measure 25
0001
0000
0100
0000
0010
0000
1000
0100
,  // measure 26
1000
0000
0010
0000
0100
0000
0001
0100
,  // measure 27
0001
0000
0100
0000
0010
0000
1000
0010
,  // measure 28
1000
0100
0010
0012
,  // measure 29
0103
0100
0010
2010
,  // measure 30
3100
0000
0100
0010
0001
0000
1000
0100
,  // measure 31
0010
0000
0001
0010
0100
1000
0010
0100
,  // measure 32
0001
0000
0010
0100
1000
0010
0100
0001
,  // measure 33
1000
0100
0010
0000
0010
0001
0100
0010
,  // measure 34
1000
0001
0010
0000
0010
0100
1000
0001
,  // measure 35
0100
0010
1000
0100
0010
0001
1000
0010
,  // measure 36
0100
0000
0110
0220
0000
0000
0330
0000
,  // measure 37
1010
0101
0011
1100
,  // measure 38
1000
0010
0000
0010
0100
0000
0100
0001
,  // measure 39
1000
0010
0000
0010
0100
0001
0010
0100
,  // measure 40
1000
0010
0100
0001
1000
0100
0010
0000
,  // measure 41
0100
1000
0000
0100
0001
0000
0100
1000
,  // measure 42
0000
0100
0001
0100
0010
1000
0010
0000
,  // measure 43
0001
0010
0000
1000
0010
0000
0001
0010
,  // measure 44
0000
1000
0010
0001
0010
0100
1000
0010
,  // measure 45
0100
0001
1000
0100
0010
0001
0200
0000
,  // measure 46
0000
0000
0000
0000
0000
0000
0000
0000
0000
0000
0000
0000
0310
0000
0000
0010
,  // measure 47
1000
0100
0000
0000
0001
0000
0000
0100
0000
0000
1000
0000
0010
0000
0001
0010
,  // measure 48
0000
0000
0010
0200
0000
0000
0000
0000
0310
0000
0010
1000
0100
0000
0000
0100
,  // measure 49
0000
0010
0002
0000
2003
0000
3020
0000
,  // measure 50
0230
0000
0000
0000
0302
0000
0000
0000
1000
0000
1003
0000
0000
0000
1000
0100
,  // measure 51
0020
0000
0000
0000
0032
0000
0000
0103
0000
0000
0110
0000
1010
0000
0000
0110
,  // measure 52
0000
0000
0101
0000
1001
0000
0000
0011
0000
0000
1100
0000
0220
0000
0000
0000
,  // measure 53
0030
0000
0010
0000
0310
0000
0000
0001
0000
0000
0100
0000
1000
0000
1000
0000
,  // measure 54
0010
0100
0001
1000
0100
0010
0001
0001
,  // measure 55
0100
0010
1000
0001
0010
0100
0010
0010
,  // measure 56
0001
0100
0010
1000
0001
0010
0100
1000
,  // measure 57
0010
0001
1000
0100
0001
0010
0100
1000
,  // measure 58
0010
0100
0001
1000
0100
0010
0001
1000
,  // measure 59
0010
0100
0010
0010
0010
0000
2002
0000
,  // measure 60
0000
0000
0000
0000
,  // measure 61
0000
3003
0000
0000
;

//---------------dance-single - ----------------
#NOTEDATA:;
#CHARTNAME:;
#STEPSTYPE:dance-single;
#DESCRIPTION:;
#CHARTSTYLE:;
#DIFFICULTY:Challenge;
#METER:13;
#RADARVALUES:0.580433,0.828320,0.662207,0.044895,0.224477,362.000000,303.000000,59.000000,4.000000,0.000000,0.000000,0.000000,0.000000,0.000000,0.580433,0.828320,0.662207,0.044895,0.224477,362.000000,303.000000,59.000000,4.000000,0.000000,0.000000,0.000000,0.000000,0.000000;
#CREDIT:MILEN;
#DISPLAYBPM:184.000000;
#NOTES:
0000
0000
0000
0000
,
0000
0000
0000
0000
,
0000
0000
0000
0000
,
0000
0000
0000
0000
,
0000
0000
0000
0000
,
0000
0000
0000
0000
,
0000
0000
0000
0000
,
0000
0000
0000
0000
,
0000
0000
0000
2100
,
0001
0000
0001
0000
,
0001
0000
0001
0000
,
0001
0000
0001
0000
,
3001
0000
0001
0100
1000
0010
0000
0000
,
0012
0000
1000
0000
,
1000
0000
1000
0000
,
1000
0000
1000
0000
,
1003
0000
0000
0000
0001
1000
0001
1000
0001
0000
0000
0000
0110
0000
0000
0000
,
0100
1001
0000
0010
1001
0000
0100
1001
,
0000
0010
1001
0000
1000
0010
0110
0000
,
0001
0110
0000
1000
0110
0000
0001
0110
,
0000
1000
0110
0001
0100
0100
0010
0000
,
1000
0101
0000
0001
1010
0000
1000
0101
,
0000
0001
1010
0000
1000
0001
0011
0000
,
0010
1100
0000
0100
0011
0000
0100
1100
,
0001
0000
0100
0000
0010
1000
0010
1000
0010
0000
0000
0000
1000
0000
0000
0000
,
1100
0000
0100
0010
0001
0000
0100
0000
,
0110
0000
0010
1000
0001
0000
0010
0000
,
0110
0000
0100
1000
0010
0000
0100
0000
,
0101
0000
0001
1000
0100
0010
0001
0000
,
0101
0000
0010
1000
0100
0010
0001
0000
,
0101
0000
0010
1000
0100
0010
0000
0010
,
0100
0000
0100
1000
0010
0100
0000
0100
,
0001
0000
0000
0000
1000
0000
0100
0000
0010
0000
0001
0000
0100
0000
0010
1000
,
0000
0000
0001
0100
0000
0000
0010
0000
1000
0000
0001
0000
0010
0000
0100
1000
,
0000
0000
0001
0010
0000
0000
0100
0000
1000
0000
0010
0000
0100
0000
0000
0000
,
0001
0000
1000
0000
0100
0000
0010
0000
0001
0000
0100
0000
0010
1000
0010
0000
,
0100
0000
0001
0000
0010
0001
0010
0000
0001
0000
0100
0000
0100
0000
0000
0000
,
0010
1000
0000
0000
1000
0001
0000
0000
0001
0100
0000
0000
0110
0000
0000
0000
,
1000
0110
0000
0001
0110
1000
0100
0100
,
0010
0000
0001
0000
0000
0000
0001
0000
0100
0000
0010
0000
1000
0100
1000
0000
,
0010
0000
0100
0000
0001
0100
0001
0000
0010
0000
0100
0000
0010
0000
0000
0000
,
0011
0100
0000
0100
0011
0000
0011
0100
,
0000
0100
0011
0001
0100
0010
1010
0000
,
0100
1010
0000
1010
0100
0000
0100
1010
,
0000
0000
1010
0000
0100
0000
0010
0000
0001
0000
0100
0000
0010
1000
0010
0000
,
0100
0001
0100
0000
0010
1000
0010
0000
0100
0000
0100
0000
0110
0000
0000
0000
,
0000
0000
0000
1001
,
0000
0000
0000
0000
0001
0000
0000
1000
0000
0000
0010
0000
0100
0000
0001
1000
,
0000
0000
0100
0010
0000
0000
0000
0000
0011
0000
0010
0001
0100
0000
0000
0010
,
0000
1000
0001
0000
0010
0000
0100
0000
,
1000
0000
0000
0000
0001
0000
0000
0000
0010
0000
0010
0000
0000
0000
0010
0001
,
0100
0000
0000
0000
0101
0000
0000
1100
0000
0000
1010
0000
0011
0000
0000
1001
,
0000
0000
0110
0000
1100
0000
0000
0101
0000
0000
0011
0000
1010
0000
0000
0000
,
0000
0000
1100
0000
1100
0000
0000
0110
0000
0000
0011
0000
0001
0100
0001
0000
,
0000
0000
0000
0000
1000
0100
1000
0000
0010
0100
0010
0000
1000
0001
1000
0000
,
0000
0000
0000
0000
0001
0010
0001
0000
0100
0010
0100
0000
0010
1000
0010
0000
,
0000
0000
0000
0000
1000
0100
0010
0000
0100
0000
0100
0000
1000
0100
0010
0000
,
0100
0000
1000
0010
0100
0000
0001
0100
0010
0000
1000
0001
1000
0000
0000
0000
,
0011
0000
0100
0010
0000
0000
1100
0000
,
0101
0000
0010
0010
0010
0000
2002
0000
,
0000
0000
0000
0000
,
0000
0000
3003
0000
;

//---------------dance-double - ----------------
#NOTEDATA:;
#CHARTNAME:;
#STEPSTYPE:dance-double;
#DESCRIPTION:;
#CHARTSTYLE:;
#DIFFICULTY:Easy;
#METER:6;
#RADARVALUES:0.270976,0.378103,0.112238,0.123462,0.000000,169.000000,159.000000,10.000000,11.000000,0.000000,0.000000,0.000000,0.000000,0.000000,0.270976,0.378103,0.112238,0.123462,0.000000,169.000000,159.000000,10.000000,11.000000,0.000000,0.000000,0.000000,0.000000,0.000000;
#CREDIT:MILEN;
#DISPLAYBPM:184.000000;
#NOTES:
00000000
00000000
00000000
00000000
,
00000000
00000000
00000000
00000000
,
00000000
00000000
00000000
00000000
,
00000000
00000000
00000000
00000000
,
00000000
00000000
00000000
00000000
,
00000000
00000000
00000000
00000000
,
00000000
00000000
00000000
00000000
,
00000000
00000000
00000000
00000000
,
00000000
00000000
00000000
00010000
,
00001000
00000000
00010000
00000000
,
00001000
00000000
00010000
00000000
,
00001000
00000000
00010000
00000000
,
00001000
00011000
00000000
00001000
,
00010000
00000000
00001000
00000000
,
00010000
00000000
00001000
00000000
,
00010000
00000000
00001000
00000000
,
00010000
00022000
00033000
00001000
,
00100000
00010000
01000000
00100000
,
00010000
00001000
00000000
00010000
,
00000100
00001000
00000010
00000100
,
00001000
00010000
00000000
00000100
,
00000000
00000010
00000000
00000001
,
00000000
00000100
00000000
00001000
,
00000000
00010000
00000000
00100000
,
00000000
20000000
30010000
00010000
,
01000000
00001000
00000000
00010000
,
00001000
01000000
00000000
00001000
,
00010000
00000100
00000000
00001000
,
00000100
00010000
00000000
00001000
,
00010000
00100000
00000000
00010000
,
00001000
00000010
00000000
00001000
,
00010000
01000000
00000000
00010000
,
00001000
00000100
00000000
00000001
,
00000010
00000200
00000300
00001000
,
00010000
00200000
00300000
01000000
,
10000000
00100000
01000000
00001000
,
00010000
00022000
00000000
00033000
,
00001000
00010000
00000100
00000010
,
00000000
00000010
00000001
00000100
,
00000010
00001000
00000100
00010000
,
00001000
00011000
00000000
00010000
,
01000000
10000000
00000000
10000000
,
01000000
00010000
00000000
00001000
,
00000010
00000001
00000000
00000001
,
00000010
00001000
00000000
00010000
,
00001000
00010000
00001000
00022000
,
00000000
00000000
00033000
00011000
,
00000000
00010000
00100000
10000000
,
01000000
01000000
01000000
00000000
00000000
00100000
01000000
00000000
,
00010000
00001000
00000010
00000001
,
00000100
00000000
00000010
00000000
00001000
00000100
00000000
00010000
,
00000100
00001000
00000010
00010000
,
00100000
01000000
00100000
10100000
,
00000000
10000000
01000000
00000000
00010000
00001000
00010000
00000000
,
00000100
00000010
00000001
00001000
,
00000000
00010000
10000000
01000000
,
00000000
00010000
00001000
00100000
,
01000000
00010000
00001000
00100000
,
01000000
00010000
00001000
00101000
,
00000000
00010010
00000000
00022000
,
00000000
00000000
00000000
00000000
,
00000000
00033000
00000000
00000000
;

//---------------dance-double - ----------------
#NOTEDATA:;
#CHARTNAME:;
#STEPSTYPE:dance-double;
#DESCRIPTION:;
#CHARTSTYLE:;
#DIFFICULTY:Medium;
#METER:10;
#RADARVALUES:0.375197,0.515596,0.123462,0.101015,0.022448,234.000000,223.000000,11.000000,9.000000,0.000000,0.000000,0.000000,0.000000,0.000000,0.375197,0.515596,0.123462,0.101015,0.022448,234.000000,223.000000,11.000000,9.000000,0.000000,0.000000,0.000000,0.000000,0.000000;
#CREDIT:MILEN;
#DISPLAYBPM:184.000000;
#NOTES:
00000000
00000000
00000000
00000000
,
00000000
00000000
00000000
00000000
,
00000000
00000000
00000000
00000000
,
00000000
00000000
00000000
00000000
,
00000000
00000000
00000000
00000000
,
00000000
00000000
00000000
00000000
,
00000000
00000000
00000000
00000000
,
00000000
00000000
00000000
00000000
,
00000000
00000000
00000000
00010000
,
00001000
00000000
00010000
00000000
,
00001000
00000000
00010000
00000000
,
00001000
00000000
00010000
00000000
,
00001000
00000000
00010000
00011000
00000000
00000000
00001000
00000000
,
00010000
00000000
00001000
00000000
,
00010000
00000000
00001000
00000000
,
00010000
00000000
00001000
00010000
,
00001000
00000000
00010000
00001000
00020000
00000000
00031000
00000000
,
00001000
00100000
01000000
10000000
,
00100000
01000000
00010000
00100000
,
01000000
10000000
00100000
00010000
,
00001000
00000010
00000001
00000100
,
00000010
00010000
00000000
00010000
00001000
00000000
00001000
00100000
,
00000000
00100000
01000000
00000000
00000000
00000000
10000000
00000000
,
00100000
01000000
00000000
01000000
00001000
00000000
00001000
00010000
,
00001000
00010000
00000200
00000000
00000310
00000000
00000011
00000000
,
00000001
00001000
00000100
00010000
,
00001000
00100000
00010000
01010000
,
01000000
00100000
10000000
00010000
,
01000000
00001000
00010000
00011000
,
00001000
00100000
01000000
00010000
,
00001000
00000010
00000100
00010000
,
00001000
00000100
00000001
00000010
,
00001000
00000000
00010000
00001000
00010000
00000000
01000000
00000000
,
00010000
00000000
00001000
00000000
00001000
00010000
00001000
00000000
,
00000010
00001000
00010000
00010000
,
00100000
00000000
10000000
01000000
00000000
01000000
00100000
00000000
,
00100000
00001000
00000000
00021000
00000000
00000000
00030100
00000000
,
00000100
00000010
00000100
00001000
,
00000001
00000100
00000000
00000010
00000100
00000000
00000001
00000000
,
00000010
00000000
00001000
00000000
00010000
00000000
00100000
10000000
,
01000000
00000000
10000000
00100000
01000000
00000000
00010000
00000000
,
00100000
00010000
00100000
00001000
,
00010000
00001000
00010000
00000100
,
00001000
00000000
00000100
00000000
00001000
00000000
00000010
00000100
,
00000001
00000000
00000100
00000010
00001000
00000000
00000100
00010000
,
00001000
00000000
01000000
00001000
00010000
00001000
00020000
00000000
,
00000000
00000000
00000000
00030010
,
00000010
00000000
00001000
00000000
00000100
00000000
00000010
00000001
,
00001000
00000100
00000020
00000000
00000000
00000001
00000031
00000000
,
00000001
00001000
00000100
00000000
00010100
00000000
00010000
00000000
,
00011000
00000000
00001000
00000000
01001000
02000000
00000000
03100000
,
00100000
00000000
00000000
00000000
10000000
00000000
00000000
01000000
00000000
00000000
00100000
00000000
00001000
00000000
00000000
00010000
,
00000000
00000000
00000100
00000000
00000010
00000000
00000000
00000001
00000000
00000000
00000100
00000000
00000110
00000000
00000000
00000000
,
00000010
00000000
00010000
00000000
00001000
00000000
00000000
00010000
00000000
00000000
01000000
00000000
10000000
00000000
10000000
00000000
,
00000000
00100000
01000000
00100000
01000000
00001000
00010000
00000100
,
00000000
00000000
00001000
00000010
00010000
00001000
00100000
01000000
,
00000000
00000000
10000000
00100000
01000000
00010000
00100000
00001000
,
00010000
00000200
00000000
00000000
00000000
00000000
00000310
00000000
,
00000010
00000000
00000001
00000100
00000000
00000000
00001100
00000000
,
00000000
00000000
00001000
00010000
00001000
00000000
00022000
00000000
,
00000000
00000000
00000000
00000000
,
00000000
00033000
00000000
00000000
;

//---------------dance-double - ----------------
#NOTEDATA:;
#CHARTNAME:;
#STEPSTYPE:dance-double;
#DESCRIPTION:;
#CHARTSTYLE:;
#DIFFICULTY:Hard;
#METER:13;
#RADARVALUES:0.525917,0.618715,0.280596,0.224477,0.067343,328.000000,303.000000,25.000000,20.000000,0.000000,0.000000,0.000000,0.000000,0.000000,0.525917,0.618715,0.280596,0.224477,0.067343,328.000000,303.000000,25.000000,20.000000,0.000000,0.000000,0.000000,0.000000,0.000000;
#CREDIT:MILEN;
#DISPLAYBPM:184.000000;
#NOTES:
00000000
00000000
00000000
00000000
,
00000000
00000000
00000000
00000000
,
00000000
00000000
00000000
00000000
,
00000000
00000000
00000000
00000000
,
00000000
00000000
00000000
00000000
,
00000000
00000000
00000000
00000000
,
00000000
00000000
00000000
00000000
,
00000000
00000000
00000000
00000000
,
00000000
00000000
00000000
00010000
,
00011000
00001000
00101000
00100000
,
00110000
00010000
01010000
01000000
,
01100000
00100000
10100000
10000000
,
11000000
00000000
01000000
00100000
00001000
00010000
00000100
00000000
,
00000110
00000010
00000011
00000001
,
00001001
00001000
00001010
00000010
,
00010010
00010000
00011000
00001000
,
00101000
00000000
00100000
00010000
02000000
00000000
03100000
00100000
,
10000000
01000000
00100000
00010000
01000000
00100000
10000000
01000000
,
00100000
00001000
00010000
00000100
00000010
00000001
00000100
00000010
,
00001000
00000100
00000010
00000001
00001000
00000100
00000010
00001000
,
00010000
01000000
00100000
00010000
10000000
01000000
00100000
00000000
,
00100000
00010000
00000000
00010000
00001000
00000000
00001000
00000100
,
00000000
00000100
00000010
00000000
00000010
00000001
00000100
00000000
,
00000100
00000010
00000000
00000010
00001000
00000000
00001000
00010000
,
01000000
00100000
10000000
01000000
00200000
00000000
00310000
00010000
,
01000000
00000000
10000000
00000000
01000000
00000000
00100000
00100000
,
10000000
00000000
01000000
00000000
00100000
00000000
00001000
00001000
,
00010000
00000000
00000100
00000000
00000010
00000000
00000001
00000001
,
00000100
00001000
00010000
00210000
,
10300000
00100000
00010000
00012000
,
00003010
00000000
00000010
00000010
00000001
00000000
00000100
00000100
,
00001000
00000000
00000100
00000001
00000010
00000100
00010000
00001000
,
00000100
00000000
00000001
00000010
00000100
00001000
00010000
01000000
,
00100000
10000000
01000000
00000000
10000000
01000000
00100000
00010000
,
00001000
00000010
00000100
00000001
00000010
00000000
00000001
00000100
,
00001000
00010000
00100000
10000000
01000000
00010000
00001000
00000010
,
00000001
00000000
00000101
00002200
00000000
00000000
00003300
00000000
,
00000110
00001001
00000110
00001001
,
00000001
00000100
00000000
00000100
00001000
00000000
00001000
00010000
,
00100000
01000000
00000000
00100000
10000000
01000000
00100000
00100000
,
00001000
00010000
00010000
01000000
10000000
00100000
02000000
00000000
,
03010000
00100000
00000000
00001000
00010000
00000000
00000100
00001000
,
00000000
00000010
00000100
00001000
00000100
00000001
00000100
00000000
,
00000010
00001000
00000000
00000100
00010000
00000000
00001000
00100000
,
00000000
00010000
01000000
10000000
01000000
00100000
00010000
00001000
,
00000100
00000010
00000001
00000010
00001000
00000100
00020000
00000000
,
00000000
00000000
00000000
00000000
00000000
00000000
00000000
00000000
00000000
00000000
00000000
00000000
00031000
00000000
00000000
00001000
,
00010000
00001000
00000000
00000000
00100000
00000000
00000000
01000000
00000000
00000000
10000000
00000000
00100000
00000000
01000000
00010000
,
00000000
00000000
00010000
00200000
00000000
00000000
00000000
00000000
00301000
00000000
00001000
00010000
00001000
00000000
00000000
00000100
,
00000000
00000001
00000020
00000000
00002030
00000000
00023000
00000000
,
00230000
00000000
00000000
00000000
20300000
00000000
00000000
00000000
01000000
00000000
31000000
00000000
00000000
00000000
01000000
00100000
,
00002000
00000000
00000000
00000000
00023000
00000000
00000000
00030100
00000000
00000000
00000100
00000000
00000010
00000000
00000000
00000001
,
00000000
00000000
00000100
00000000
00001000
00000000
00000000
00010000
00000000
00000000
00001000
00000000
00022000
00000000
00000000
00000000
,
00033000
00000000
00010000
00000000
00100000
00000000
00000000
10000000
00000000
00000000
01000000
00000000
00100000
00000000
00100000
00000000
,
00000000
00010000
01000000
00001000
00000100
00000001
00000010
00000010
,
00000000
00000100
00010000
00001000
00000100
00010000
01000000
01000000
,
00000000
00100000
10000000
01000000
00010000
01000000
00010000
00001000
,
00010000
00001000
00000010
00001000
00000010
00000001
00000100
00001000
,
00010000
00100000
00010000
00001000
00000010
00001000
00010000
01000000
,
10000000
00100000
00010000
00001000
00011000
00000000
00022000
00000000
,
00000000
00000000
00000000
00000000
,
00000000
00033000
00000000
00000000
;

//---------------dance-double - ----------------
#NOTEDATA:;
#CHARTNAME:;
#STEPSTYPE:dance-double;
#DESCRIPTION:;
#CHARTSTYLE:;
#DIFFICULTY:Challenge;
#METER:14;
#RADARVALUES:0.574020,0.828320,0.639759,0.044895,0.202029,358.000000,301.000000,57.000000,4.000000,0.000000,0.000000,0.000000,0.000000,0.000000,0.574020,0.828320,0.639759,0.044895,0.202029,358.000000,301.000000,57.000000,4.000000,0.000000,0.000000,0.000000,0.000000,0.000000;
#CREDIT:MILEN;
#DISPLAYBPM:184.000000;
#NOTES:
00000000
00000000
00000000
00000000
,
00000000
00000000
00000000
00000000
,
00000000
00000000
00000000
00000000
,
00000000
00000000
00000000
00000000
,
00000000
00000000
00000000
00000000
,
00000000
00000000
00000000
00000000
,
00000000
00000000
00000000
00000000
,
00000000
00000000
00000000
00000000
,
00000000
00000000
00000000
00012000
,
01000000
00000000
00000100
00000000
,
01000000
00000000
00000100
00000000
,
01000000
00000000
00000100
00000000
,
01003000
00000000
01000000
00001000
00000000
00010000
00000000
00000000
,
00020010
00000000
00100000
00000000
,
00000010
00000000
00100000
00000000
,
00000010
00000000
00100000
00000000
,
00030010
00000000
00000000
00000000
00010000
00001000
00010000
00001000
00010000
00000000
00000000
00000000
00011000
00000000
00000000
00000000
,
00010000
01000000
00000000
10000000
00100000
00000000
00010000
01000000
,
00000000
10000000
00100000
00000000
00010000
00001000
00011000
00000000
,
00001000
00000100
00000000
00000001
00000010
00000000
00001000
00000100
,
00000000
00000001
00000010
00001000
00010000
00100000
10000000
00000000
,
01000000
01100000
00000000
00010000
00011000
00000000
00000100
00000110
,
00000000
00000001
00001001
00000000
00000010
00000100
00000110
00000000
,
00001000
00011000
00000000
00100000
01100000
00000000
10000000
10010000
,
00010000
00000000
01000000
00000000
00001000
00010000
00001000
00010000
00001000
00000000
00000000
00000000
00000010
00000000
00000000
00000000
,
00000011
00000000
00000001
00000100
00001000
00000000
00010000
00000000
,
00011000
00000000
00001000
00010000
01000000
00000000
10000000
00000000
,
10100000
00000000
00100000
01000000
00010000
00000000
00100000
00000000
,
00101000
00000000
00001000
00010000
00000100
00000010
00000001
00000000
,
00000011
00000000
00000010
00001000
00010000
00100000
10000000
00000000
,
11000000
00000000
01000000
00010000
00001000
00100000
00000000
01000000
,
00010000
00000000
00001000
00000010
00000100
00001000
00000000
00000010
,
00000001
00000000
00000000
00000000
00000001
00000000
00000010
00000000
00000100
00000000
00001000
00000000
00010000
00000000
00100000
01000000
,
00100000
00000000
10000000
01000000
10000000
00000000
00100000
00000000
00010000
00000000
00001000
00000000
00000100
00000000
00000010
00000100
,
00000010
00000000
00001000
00000010
00001000
00000000
00000100
00000000
00000010
00000000
00000001
00000000
00000101
00000000
00000000
00000000
,
00000100
00000000
00001000
00000000
00010000
00000000
00100000
00000000
00010000
00000000
00001000
00000000
00000010
00000001
00000010
00000000
,
00000100
00000000
00001000
00000000
00000010
00000100
00000010
00000000
00010000
00000000
00001000
00000000
00101000
00000000
00000000
00000000
,
01100000
11000000
10100000
00110000
,
00010000
00001000
00000010
00000100
00000110
00000000
00000001
00000100
,
00001000
00000000
00010000
00000000
00000000
00000000
00011000
00000000
00000000
00000000
00100000
00000000
01000000
10000000
01000000
00000000
,
00100000
00000000
00010000
00000000
01000000
00100000
01000000
00000000
00001000
00000000
00010000
00000000
00000100
00000000
00000000
00000000
,
00001100
00001000
00000000
00001001
00000001
00000000
00000101
00000100
,
00000000
00000110
00000010
00010000
00001000
00100000
01100000
00000000
,
01000000
11000000
00000000
10000000
10010000
00000000
00010000
00110000
,
00000000
00000000
00100000
00000000
01100000
00000000
01000000
00000000
10000000
00000000
00100000
00000000
00010000
00001000
00010000
00000000
,
00001000
00010000
00001000
00000000
00010000
00001000
00010000
00001000
00010000
00001000
00010000
00001000
00010000
00000000
00000000
00000000
,
00000000
00000000
00000000
00011000
,
00000000
00000000
00000000
00000000
00001000
00000000
00000000
01000000
00000000
00000000
00100000
00000000
10000000
00000000
01000000
00100000
,
00000000
00000000
00010000
00001000
00000000
00000000
00000000
00000000
00000110
00000000
00000010
00000100
00000001
00000000
00000000
00000010
,
00000000
00001000
00010000
00000000
00100000
00000000
01000000
00000000
,
10000000
00000000
00000000
00000000
00010000
00000000
00000000
00000000
00100000
00000000
00100000
00000000
00000000
00000000
10000000
01000000
,
00100000
00000000
00000000
00000000
00110000
00000000
00000000
00011000
00000000
00000000
00001010
00000000
00000101
00000000
00000000
00001100
,
00000000
00000000
00011000
00000000
00110000
00000000
00000000
11000000
00000000
00000000
01100000
00000000
10010000
00000000
00000000
00000000
,
00000000
00000000
01010000
00000000
01010000
00000000
00000000
01001000
00000000
00000000
00010100
00000000
00000100
00000010
00000100
00000000
,
00000000
00000000
00000000
00000000
00000010
00000000
00000001
00000000
00000100
00000000
00001000
00000000
00010000
01000000
00010000
00000000
,
00000000
00000000
00000000
00000000
01000000
00000000
10000000
00000000
00100000
00000000
00010000
00000000
00001000
00000010
00001000
00000000
,
00000000
00000000
00000000
00000000
00000010
00000001
00000100
00000000
00000010
00000000
00000100
00000000
00000010
00001000
00000100
00000000
,
00010000
00000000
00001000
00010000
00000100
00000000
00010000
00001000
00100000
00000000
01000000
00100000
01000000
00000000
00000000
00000000
,
11000000
00000000
00100000
00101000
00000000
00000000
00010010
00000000
,
00000101
00000000
00000001
00000100
00001100
00000000
00022000
00000000
,
00000000
00000000
00000000
00000000
,
00000000
00000000
00033000
00000000
;
