#TITLE:LIMBO;
#SUBTITLE:;
#ARTIST:Mori†;
#TITLETRANSLIT:;
#SUBTITLETRANSLIT:;
#ARTISTTRANSLIT:MoriT;
#GENRE:VARIETY;
#CREDIT:MUINELIM;
#BANNER:LIMBO.png;
#BACKGROUND:LIMBO-bg.png;
#LYRICSPATH:;
#CDTITLE:;
#MUSIC:LIMBO.ogg;
#OFFSET:-0.039000;
#SAMPLESTART:23.174843;
#SAMPLELENGTH:11.880569;
#LASTBEATHINT:343.187439;
#SELECTABLE:YES;
#BPMS:0.000000=191.91,169.000000=95.955,201.000000=191.91
;
#STOPS:38.000000=0.156323,38.500000=0.156323,205.000000=0.156319,205.500000=0.156319
;
#BGCHANGES:0.000=LIMBO.avi=1.000=1=0=0=StretchNoLoop==CrossFade==,
99999=-nosongbg-=1.000=0=0=0 // don't automatically add -songbackground-
;
#KEYSOUNDS:;
#ATTACKS:;

//---------------dance-single - ----------------
#NOTES:
     dance-single:
     :
     Hard:
     17:
     0.982630,1.489497,0.478354,0.247425,1.253619,834.000000,776.000000,58.000000,30.000000,0.000000,0.000000,0.982630,1.489497,0.478354,0.247425,1.253619,834.000000,776.000000,58.000000,30.000000,0.000000,0.000000:
0000
0000
0000
0000
,
0000
0000
0000
0000
,
0000
0000
0000
0000
,
0000
0000
0000
0000
,
0000
0000
0000
0000
1000
0010
0100
0010
,
1000
0100
0010
0100
1000
0010
0100
0010
,
1010
0000
0101
0000
0001
0010
0100
0010
,
0001
0100
0010
0100
0001
0020
0100
0030
,
0001
0000
0100
0010
1000
0001
0100
0010
2000
0000
0000
0000
0000
0000
0000
0000
,
0000
0000
0000
0000
0001
3001
1000
0001
,
2002
3003
1000
0100
0100
0001
1000
0100
,
0001
0000
0001
0100
0100
1000
0001
0100
,
1000
0100
0110
1000
0010
0001
1000
0010
,
0001
0000
0000
0000
0001
0000
0100
0000
1000
0000
0001
0000
0100
0000
1000
0010
,
1000
0000
0001
0100
0001
0000
1000
0000
0100
0000
0010
0000
1000
0000
0100
0000
,
0010
0000
1001
0001
0010
0100
0001
0010
,
0100
0000
0110
0001
1000
0001
0110
1000
,
0001
0000
1000
0000
1010
0000
0000
0101
0000
0000
0011
0000
1100
0000
1000
0000
,
0010
0100
0010
0100
0001
0000
1000
0100
1000
0100
0010
0001
0010
0000
0000
0001
,
0000
0000
0100
0000
0010
1000
0000
0010
0100
0000
0010
1000
0000
0010
0100
0000
,
0001
1000
0001
0000
0100
0000
0010
1000
0010
1000
0001
0100
0001
0000
0000
0010
,
0000
0000
0100
0000
1000
0010
0000
1000
0100
0000
1000
0001
0000
1000
0100
0010
,
0100
0000
0010
0100
0010
0000
0001
0100
0001
0100
0010
1000
0010
0000
0000
0100
,
0000
0000
0001
0000
0010
0100
0000
0010
1000
0000
0010
0100
0000
0010
0001
0000
,
0100
0010
0100
0010
1000
0000
0000
1000
0100
0000
1000
0000
1010
0000
0000
0001
,
0010
0000
0001
0000
0101
0000
0000
1100
0000
0000
0011
0000
1010
0000
1000
0100
,
0010
0001
0100
0001
0100
0000
0001
0010
0001
1000
0100
1000
0010
0000
0000
0100
,
0000
0000
0001
0000
1000
0100
0000
0010
0100
0000
0001
0100
0000
0010
0100
0000
,
1000
0010
0100
0000
0001
0000
1000
0010
1000
0001
0100
0001
0010
0000
0000
0100
,
0000
0000
1000
0000
0001
0100
0000
0001
1000
0000
0001
0010
0000
0001
0100
0010
,
1000
0000
0010
0100
0002
0000
0000
0000
0013
0000
0010
0100
2000
0000
0000
0000
,
3010
0000
0010
1000
0002
0000
0000
0000
0103
0000
0100
0001
1000
0000
0100
0010
,
0001
0000
1000
0100
0020
0000
0000
0000
1000
0000
0000
0000
0001
0000
0000
0000
,
1000
0000
0000
0130
0010
0001
0100
0010
1000
0100
0010
0001
,
0100
0010
0100
0010
1000
0000
1000
0000
1200
0000
0000
0000
0000
0000
1300
0000
,
1000
0000
1020
0000
0000
0000
0000
0000
0000
0000
1030
0001
0010
0000
0000
0011
,
0000
1010
0001
0001
0201
0000
0000
0301
,
0001
0000
0021
0000
0000
0000
0000
0000
0000
0000
0031
1000
0010
0000
0001
0000
,
0010
1000
0100
0100
2100
0000
0000
3100
,
0100
0000
0102
0000
0000
0000
0000
0000
0000
0000
0103
1000
0010
0000
0000
0110
,
0000
0000
1001
0000
0001
0100
0010
0000
1000
0010
0100
0000
0001
0010
0100
1000
,
0100
0000
0000
0010
0000
0000
0001
0000
0000
0100
0000
0000
0010
0000
0000
0000
1000
0000
0000
0000
1000
0000
0000
0000
0100
0000
0000
0000
0010
0000
0000
0000
0010
0000
0000
0000
0001
0000
0000
0000
0100
0000
0000
0000
0100
0000
0000
0000
,
0010
0000
0000
0000
1000
0000
0000
0000
1000
0000
0000
0000
0001
0000
0000
0010
0000
0000
0100
0000
0000
0010
0000
0000
0100
0000
0000
1000
0000
0000
0010
0000
0000
0000
0000
0000
0000
0000
0000
0001
0000
0000
0010
0000
0000
1000
0000
0000
,
0100
0010
0110
0000
1000
0010
0100
0010
0100
0001
0010
0000
0000
1000
0010
0001
,
0100
0010
0110
0000
1000
0010
1000
0010
0001
1000
0100
0000
0000
0001
0010
1000
,
0010
0100
1001
0000
0001
0010
0001
0010
1000
0001
0100
1000
0100
0010
0001
0010
,
1000
0000
0000
0001
0000
0000
0100
0000
0000
0010
0000
0000
1001
0000
0000
0000
1000
0000
0010
0000
0000
0000
0010
0000
0100
0000
0000
0000
0100
0000
0001
0000
0000
0000
0001
0000
0010
0000
0100
0000
0010
0000
0001
0000
0000
0000
1000
0000
,
0010
0100
0010
1000
0000
0000
1100
0000
0100
0010
0000
0010
0001
0000
0001
0100
0000
0100
0010
1000
0010
0100
0000
0001
,
0010
0100
0010
0001
0000
0000
0011
0000
0001
0100
0000
0100
0010
0000
0010
1000
0000
1000
0100
0010
0100
0010
0001
0100
,
0001
0100
0010
1000
0010
1000
0100
0000
0100
0010
0000
0010
0001
0000
0001
0100
0000
0100
1000
0100
0010
0100
0010
0001
,
0010
0100
0010
0100
1000
0100
0020
0000
0000
0000
0000
0000
0000
0000
0000
0000
0000
0000
0000
0000
0000
0000
0000
0000
,
0000
0000
0000
0000
0100
0000
0130
0000
0010
0000
0100
0000
0010
1000
0001
0010
,
0200
0000
0000
0000
0000
0000
1300
0010
0100
0000
0010
0000
1000
0010
0100
0010
,
0100
0001
0020
0000
0030
0000
0011
0000
0000
0000
1100
0000
1000
0100
0010
0001
,
0200
0000
0000
0000
0000
0000
0310
1000
0001
0000
0100
0001
1000
0000
0001
0010
,
0100
1000
0020
0000
0030
0000
1010
0000
0000
0000
0101
0000
1001
0000
1000
0100
,
0010
0000
0001
0100
0010
0100
0001
0100
0010
0000
0000
1000
0000
0000
0100
0000
,
0001
0000
0010
0100
0010
0000
1000
0000
0100
0010
0000
0010
0001
0000
0100
0000
,
1010
0010
1000
0100
0011
0010
0001
0100
,
1001
0000
0000
0101
0000
0000
1100
0000
2000
0000
3010
0100
0010
1000
0100
0010
,
0002
0000
0000
0000
0000
0000
0103
0010
1000
0010
1000
0001
0100
0001
0100
0010
,
1000
0100
0020
0000
0030
0000
0011
0000
0000
0000
1100
0000
0000
0000
0100
0010
,
0002
0000
0000
0000
0000
0000
0103
0010
1000
0000
0001
0010
0100
0000
1000
0100
,
0010
0001
0200
0000
0300
0000
0110
0000
0000
0000
0101
0000
1010
0000
1000
0100
,
0010
0000
0001
0010
0100
0010
0100
1000
0001
0000
0000
0101
0000
0000
0110
0000
,
1010
0000
1000
0000
0001
0000
0010
0000
0100
1000
0000
1000
0010
0000
0001
0000
,
0010
0100
0001
0000
0010
0000
0100
0000
1000
0010
0100
0000
0001
0000
1000
0000
,
1100
0000
0000
1010
0000
0000
0011
0000
0101
0000
0200
0000
0310
1000
0001
0100
,
0010
0000
0010
1000
0000
1000
0100
0000
0100
0010
0000
0010
,
0001
0000
0001
0100
1000
0100
0001
0000
1000
0010
0001
0010
,
1000
0000
1000
0100
0000
0100
0010
0000
0010
0001
0000
0001
,
0100
0000
0000
0000
0000
0000
0000
0000
0100
0000
0000
0000
1000
0000
0000
0000
0100
0000
0000
0000
0010
0000
0000
0000
0100
0000
0000
0000
0000
0000
0001
0000
0000
0010
0000
0000
0100
0000
0000
0000
0000
0000
0100
0000
0000
1000
0000
0000
,
0010
0000
0010
0100
0000
0100
0001
0000
0001
0010
0000
0010
,
1000
0000
1000
0001
0000
0001
0100
0000
0100
1000
0000
1000
,
0010
0100
0001
0010
1000
0010
0001
0100
1000
0100
0010
1000
,
0100
0000
0000
0110
0000
0000
0011
0000
1100
0000
1000
0010
0100
0001
1000
0100
,
0010
0001
0100
0010
0100
0001
0010
0100
0010
0002
0000
0000
,
1003
0100
0010
0100
1000
0010
0100
0010
1000
0200
0000
0000
,
1300
0010
0100
0001
0010
1000
0010
0001
0100
0020
0000
0000
,
1030
0000
0000
0000
0100
0000
0000
0000
0001
0000
0000
0000
0100
0000
0000
0000
1000
0000
0000
0000
0010
0000
0000
0000
0100
0000
0000
0000
0000
0000
0001
0000
0000
1000
0000
0000
0010
0000
0000
0000
0000
0000
1000
0000
0000
0001
0000
0000
,
0100
0010
1000
0010
0001
0010
1000
0100
0001
0100
1000
0100
,
0010
0001
0010
1000
0010
0100
1000
0100
0001
0100
1000
0010
,
0100
0001
0100
0001
0010
0100
0010
0100
1000
0010
1000
0010
0100
0001
1000
0100
,
0010
0010
0001
1000
1000
0010
0100
0100
0001
0010
0010
0100
,
2002
0000
0000
0000
,
0000
0000
0000
0000
,
3003
0000
0000
0000
;

//---------------dance-double - ----------------
#NOTES:
     dance-double:
     :
     Hard:
     17:
     0.963778,1.347640,0.478354,0.272167,1.187639,818.000000,760.000000,58.000000,33.000000,0.000000,0.000000,0.963778,1.347640,0.478354,0.272167,1.187639,818.000000,760.000000,58.000000,33.000000,0.000000,0.000000:
00000000
00000000
00000000
00000000
,
00000000
00000000
00000000
00000000
,
00000000
00000000
00000000
00000000
,
00000000
00000000
00000000
00000000
,
00000000
00000000
00000000
00000000
00001000
00100000
00001000
00010000
,
00000010
00010000
00001000
01000000
00001000
00010000
00000100
00010000
,
00011000
00000000
00011000
00000000
00010000
01000000
00010000
00001000
,
00000100
00001000
00010000
00100000
00010000
00002000
00000010
00003000
,
00010000
00000000
00001000
00010000
00001000
00010000
00001000
00010000
00002000
00000000
00000000
00000000
00000000
00000000
00000000
00000000
,
00000000
00000000
00000000
00000000
00010000
00013000
00001000
00010000
,
00022000
00033000
00001000
00010000
01000000
10000000
01000000
00010000
,
00001000
00000000
00010000
00001000
00000010
00000001
00000010
00001000
,
00010000
00001000
00011000
00010000
00100000
10000000
01000000
00010000
,
00001000
00000000
00000000
00000000
00010000
00000000
00001000
00000000
00000010
00000000
00000001
00000000
00000100
00000000
00001000
00010000
,
00001000
00000000
00010000
00001000
00010000
00000000
00100000
00000000
01000000
00000000
00010000
00000000
00100000
00000000
01000000
00000000
,
00010000
00000000
00001000
00000100
00000010
00001000
00000100
00000010
,
00001000
00000000
00011000
00100000
01000000
00100000
00011000
00000100
,
00000010
00000000
00000100
00000000
00011000
00000000
00000000
01001000
00000000
00000000
00010100
00000000
00011000
00000000
00001000
00000000
,
00100000
00010000
00100000
00010000
01000000
00000000
00100000
10000000
00100000
10000000
00010000
01000000
00010000
00000000
00000000
00100000
,
00000000
00000000
00001000
00000000
00010000
00000100
00000000
00000100
00001000
00000000
00001000
00000010
00000000
00000010
00000100
00000000
,
00000001
00001000
00000001
00000000
00000100
00000000
00000010
00001000
00000010
00001000
00000100
00010000
00000100
00000000
00000000
00001000
,
00000000
00000000
00000010
00000000
00010000
00001000
00000000
00001000
00100000
00000000
00100000
00010000
00000000
00010000
01000000
00100000
,
10000000
00000000
00100000
01000000
00010000
00000000
10000000
01000000
10000000
01000000
00100000
00010000
00100000
00000000
00000000
00001000
,
00000000
00000000
00010000
00000000
00000100
00001000
00000000
00001000
00000001
00000000
00000001
00000100
00000000
00000100
00000010
00000000
,
00010000
00001000
00010000
00001000
00100000
00000000
00000000
00001000
00010000
00000000
00000010
00000000
00010010
00000000
00000000
00010000
,
00001000
00000000
00100000
00000000
00101000
00000000
00000000
00010100
00000000
00000000
00011000
00000000
00011000
00000000
00010000
00000000
,
00000100
00001000
00000100
00001000
00000001
00000000
00000100
00000010
00000100
00000001
00001000
00000001
00000100
00000000
00000000
00001000
,
00000000
00000000
00010000
00000000
00100000
10000000
00000000
10000000
01000000
00000000
01000000
00100000
00000000
00100000
00010000
00000000
,
01000000
00100000
01000000
00000000
00010000
00000000
10000000
00100000
10000000
01000000
00100000
01000000
10000000
00000000
00000000
00100000
,
00000000
00000000
00010000
00000000
00001000
00010000
00000000
00010000
00000100
00000000
00000100
00000010
00000000
00000010
00000001
00000010
,
00000100
00000000
00010000
00001000
02000000
00000000
00000000
00000000
03001000
00000000
00001000
00010000
00000200
00000000
00000000
00000000
,
00010300
00000000
00010000
00001000
00200000
00000000
00000000
00000000
00301000
00000000
00001000
00010000
00000010
00000000
00001000
00000100
,
00000010
00000000
00000100
00000010
00000002
00000000
00000000
00000000
00000203
00000000
00000000
00000000
00002300
00000000
00000000
00000000
,
00023000
00000000
00000000
00130000
10000000
00100000
10000000
01000000
10000000
01000000
00010000
00001000
,
00000010
00000100
00000010
00000100
00000010
00000000
00000001
00000000
00000201
00000000
00000000
00000000
00000000
00000000
00001300
00000000
,
00010000
00000000
00210000
00000000
00000000
00000000
00000000
00000000
00000000
00000000
10300000
01000000
00100000
00000000
00000000
01100000
,
00000000
10010000
10000000
01000000
01020000
00000000
00000000
00031000
,
00000010
00000000
00000012
00000000
00000000
00000000
00000000
00000000
00000000
00000000
00000103
00000010
00001000
00000000
00000100
00000000
,
00010000
00001000
00100000
01000000
21000000
00000000
00000000
30100000
,
00010000
00000000
00012000
00000000
00000000
00000000
00000000
00000000
00000000
00000000
00003010
00000100
00001000
00000000
00000000
00001100
,
00000000
00000011
00000001
00000100
00001000
00010000
00100000
10000000
,
01000000
00000000
00000000
00010000
00000000
00000000
00001000
00000000
00100000
00000000
00001000
00000000
00010000
00000000
00000010
00000000
00010000
00000000
00001000
00000000
01000000
00000000
00001000
00000000
,
00010000
00000000
00000000
00000000
00000100
00000000
00000000
00000000
00010000
00000000
00000000
00000000
00001000
00000000
00000000
00100000
00000000
00000000
00001000
00000000
00000000
00100000
00000000
00000000
00001000
00000000
00000000
00010000
00000000
00000000
00000010
00000000
00000000
00000000
00000000
00000000
00000000
00000000
00000000
00010000
00000000
00000000
00000100
00000000
00000000
00010000
00000000
00000000
,
00001000
00010000
00011000
00000000
00010000
00000010
00010000
00000010
00010000
00001000
00100000
00000000
00000000
00001000
01000000
00001000
,
00010000
00001000
00011000
00000000
00001000
00100000
00001000
00100000
01000000
10000000
00100000
00000000
00000000
01000000
00100000
00010000
,
00001000
00010000
00011000
00000000
00010000
00000010
00010000
00000010
00000100
00000001
00000010
00000100
00000010
00001000
00010000
00100000
,
10000000
00000000
00000000
01000000
00000000
00000000
00100000
00000000
00000000
00001000
00000000
00000000
00011000
00000000
00000000
00000000
00010000
00000000
00000100
00000000
00000000
00000000
00000100
00000000
00001000
00000000
00000000
00000000
00001000
00000000
00000001
00000000
00000000
00000000
00000001
00000000
00000100
00000000
00000000
00000000
00000100
00000000
00001000
00000000
00000000
00000000
00001000
00000000
,
00010000
00000000
00010000
00100000
00000000
00000000
10100000
00000000
10000000
01000000
00000000
01000000
00100000
00000000
00100000
00010000
00000000
00010000
01000000
00000000
01000000
00001000
00000000
00001000
,
00010000
00000000
00010000
00000100
00000000
00000000
00001100
00000000
00001000
00000010
00000000
00000010
00000100
00000000
00000100
00000001
00000000
00000001
00001000
00000100
00000010
00000001
00000000
00000001
,
00001000
00000010
00000100
00000001
00000000
00000000
00000011
00000000
00000010
00001000
00000000
00001000
00010000
00000000
00010000
00100000
00000000
00100000
10000000
01000000
00100000
01000000
00000000
00100000
,
00001000
00000000
00010000
00000000
00001000
00000000
00000010
00000000
00000000
00001000
00000000
00000000
00020000
00000000
00000000
00000000
00000000
00000000
00000000
00000000
00000000
00000000
00000000
00000000
00000000
00000000
00000000
00000000
00000000
00000000
00000000
00000000
00000000
00000000
00000000
00000000
00000000
00000000
00000000
00000000
00000000
00000000
00000000
00000000
00000000
00000000
00000000
00000000
,
00000000
00000000
00000000
00000000
00001000
00000000
00031000
00000000
00010000
00000000
00001000
00000000
00010000
00001000
00010000
00001000
,
00020000
00000000
00000000
00000000
00000000
00000000
00030100
00001000
00000100
00000000
00000010
00000000
00000001
00000100
00000001
00000100
,
00000001
00001000
00000020
00000000
00000030
00000000
00010010
00000000
00000000
00000000
00101000
00000000
00001000
00010000
00100000
01000000
,
00200000
00000000
00000000
00000000
00000000
00000000
10300000
01000000
00100000
00000000
01000000
00010000
00001000
00000000
00010000
00001000
,
00010000
00000100
00002000
00000000
00003000
00000000
00001010
00000000
00000000
00000000
00000101
00000000
00001001
00000000
00001000
00000100
,
00000010
00000000
00000001
00000100
00000010
00000100
00000010
00000100
00000001
00000000
00000000
00000010
00000000
00000000
00001000
00000000
,
00010000
00000000
00100000
01000000
00100000
00000000
10000000
00000000
01000000
00100000
00000000
00100000
00001000
00000000
00010000
00000000
,
00010010
00000010
00010000
00001000
00101000
00100000
00001000
00010000
,
00011000
00000000
00000000
00010100
00000000
00000000
01001000
00000000
00002000
00000000
00013000
00000010
00010000
00001000
00100000
00001000
,
00020000
00000000
00000000
00000000
00000000
00000000
00031000
00100000
00010000
00100000
00010000
10000000
00100000
10000000
00100000
01000000
,
00010000
00100000
00002000
00000000
00003000
00000000
01001000
00000000
00000000
00000000
00010100
00000000
00000000
00000000
00010000
00000010
,
00002000
00000000
00000000
00000000
00000000
00000000
00003100
00000010
00000001
00000000
00001000
00000100
00000010
00000000
00000001
00000100
,
00000001
00001000
00000200
00000000
00000300
00000000
00001100
00000000
00000000
00000000
00011000
00000000
00110000
00000000
00100000
01000000
,
00100000
00000000
10000000
01000000
00100000
01000000
00100000
00010000
01000000
00000000
00000000
01001000
00000000
00000000
00011000
00000000
,
00010100
00000000
00000100
00000000
00000010
00000000
00000001
00000000
00000100
00001000
00000000
00001000
00010000
00000000
00100000
00000000
,
10000000
01000000
00100000
00000000
01000000
00000000
00010000
00000000
00001000
00000100
00000010
00000000
00000100
00000000
00000001
00000000
,
00000011
00000000
00000000
00001010
00000000
00000000
00011000
00000000
00101000
00000000
00200000
00000000
01300000
10000000
01000000
10000000
,
01000000
00000000
01000000
00100000
00000000
00100000
00001000
00000000
00001000
00010000
00000000
00010000
,
00000100
00000000
00000100
00000010
00000001
00000100
00000010
00000000
00000010
00000100
00000001
00000010
,
00000100
00000000
00000100
00010000
00000000
00010000
00001000
00000000
00001000
00100000
00000000
00100000
,
01000000
00000000
00000000
00000000
00000000
00000000
00000000
00000000
01000000
00000000
00000000
00000000
10000000
00000000
00000000
00000000
00100000
00000000
00000000
00000000
01000000
00000000
00000000
00000000
10000000
00000000
00000000
00000000
00000000
00000000
10000000
00000000
00000000
01000000
00000000
00000000
00010000
00000000
00000000
00000000
00000000
00000000
00100000
00000000
00000000
01000000
00000000
00000000
,
00010000
00000000
00010000
00001000
00000000
00001000
00000010
00000000
00000010
00000001
00000000
00000001
,
00000100
00000000
00000100
00001000
00000000
00001000
00010000
00000000
00010000
00100000
00000000
00100000
,
10000000
01000000
00100000
01000000
00010000
00001000
00010000
00000100
00000010
00000100
00001000
00000001
,
00001000
00000000
00000000
00001010
00000000
00000000
00000101
00000000
00001001
00000000
00001000
00000100
00001000
00000100
00010000
00001000
,
00010000
00001000
00100000
00010000
01000000
00100000
10000000
01000000
00100000
00020000
00000000
00000000
,
01030000
00001000
00010000
00000100
00001000
00000010
00000100
00000001
00001000
00000200
00000000
00000000
,
00000310
00000001
00001000
00000010
00010000
00001000
00100000
01000000
10000000
00200000
00000000
00000000
,
01300000
00000000
00000000
00000000
00010000
00000000
00000000
00000000
00100000
00000000
00000000
00000000
01000000
00000000
00000000
00000000
00010000
00000000
00000000
00000000
00001000
00000000
00000000
00000000
00000010
00000000
00000000
00000000
00000000
00000000
00000001
00000000
00000000
00000100
00000000
00000000
00000010
00000000
00000000
00000000
00000000
00000000
00000001
00000000
00000000
00000010
00000000
00000000
,
00001000
00000100
00000010
00000001
00000100
00000010
00010000
00001000
01000000
00100000
10000000
01000000
,
00100000
00010000
01000000
00001000
00010000
00000010
00001000
00000100
00000010
00000001
00000100
00001000
,
00010000
00001000
00010000
00001000
00010000
00100000
00010000
00100000
01000000
00100000
01000000
00100000
10000000
00100000
10000000
01000000
,
00100000
00010000
01000000
00100000
00010000
00001000
00000100
00000010
00010000
00001000
00000100
00000010
,
00002002
00000000
00000000
00000000
,
00000000
00000000
00000000
00000000
,
00003003
00000000
00000000
00000000
;

//---------------dance-single - ----------------
#NOTES:
     dance-single:
     :
     Medium:
     13:
     0.655086,0.992998,0.206187,0.156702,0.338147,556.000000,531.000000,25.000000,19.000000,0.000000,0.000000,0.655086,0.992998,0.206187,0.156702,0.338147,556.000000,531.000000,25.000000,19.000000,0.000000,0.000000:
0000
0000
0000
0000
,
0000
0000
0000
0000
,
0000
0000
0000
0000
,
0000
0000
0000
0000
,
0000
0000
0000
0000
0100
0001
0100
0000
,
0010
1000
0010
0000
0100
0001
0100
0010
,
1000
0000
0001
0000
0100
1000
0100
0000
,
0010
0001
0010
0000
0100
1000
0100
0010
,
0001
0010
0100
0000
2002
0000
0000
0000
,
0000
0000
3003
0000
1000
0001
1000
0001
,
1001
1000
1000
0010
,
0010
0001
0001
0100
,
1000
0001
1001
0000
0001
0000
0001
0000
,
0010
0000
0010
0000
1000
0000
0100
0010
,
0100
0100
1001
0000
0001
0100
0000
0001
,
0010
0000
1001
0000
1000
0010
0000
1000
,
0100
0110
0001
0110
,
1000
0000
0000
0000
1001
0000
0000
0001
0000
0000
1000
0000
0001
0000
1000
0000
,
0100
0000
0010
0000
0001
0000
0000
0000
0100
0000
0001
0000
0100
0000
0000
0010
,
0000
1000
0001
0010
0001
0010
0100
1000
,
0100
0000
0000
0000
0010
0000
0000
0000
0001
0000
0100
0000
0010
0000
0000
1000
,
0000
0010
0100
0001
0100
0001
1000
0010
,
1000
0000
1100
0000
0100
0010
0001
0000
,
0100
0000
0101
0000
0001
0100
0010
0000
,
1000
1001
0100
1001
,
0010
0000
0000
0000
1001
0000
0000
1000
0000
0000
0010
0000
0100
0000
0100
0000
,
0001
0000
0001
0000
0010
0000
0000
0000
0001
0000
0100
0000
0010
0000
0000
1000
,
0000
0010
0100
0001
0010
0100
0010
0100
,
1000
0000
0010
0000
0100
0000
0000
0000
0001
0000
1000
0000
0100
0000
0000
0010
,
0000
0100
1000
0010
1000
0001
1000
0001
,
0100
0001
0010
0000
0100
0010
0001
0000
,
1000
0100
0010
0000
0100
1000
0010
0100
,
0010
0100
0002
0000
0013
0000
2000
0000
,
3010
0000
0000
0001
0000
0001
0010
0000
0010
0100
1000
0100
,
1000
0100
0010
0001
0020
0000
0000
0130
,
1000
0000
0200
0000
0000
0000
0000
0000
0000
0000
0310
0000
0010
0000
0000
0001
,
0000
0100
0010
1000
0020
0000
0000
0130
,
0001
0200
0000
0000
0000
0310
1000
1000
,
0100
0010
0001
1000
0200
0000
0000
1300
,
0001
0000
0020
0000
0000
0000
0000
0000
0000
0000
0031
0000
0001
0000
0000
0100
,
0000
1000
0010
0100
0010
0001
1000
0100
,
0010
0000
0000
0100
0000
0000
0001
0000
0000
0000
0001
0000
1000
0000
0000
0000
1000
0000
0010
0000
0000
0000
0010
0000
,
0100
0000
0000
0000
0000
0000
0000
0000
0100
0000
0000
0000
0001
0000
0000
0010
0000
0000
0001
0000
0000
0000
0000
0000
0010
0000
0000
0000
0000
0000
0100
0000
0000
0000
0000
0000
1000
0000
0000
0100
0000
0000
1000
0000
0000
0000
0000
0000
,
0010
0000
0100
0000
0001
0100
0001
0000
0100
0000
0010
0000
1000
0010
1000
0000
,
0001
0000
1000
0000
0010
0100
0001
0000
1000
0000
0001
0000
0100
0010
1000
0000
,
0001
0000
1000
0000
0010
0100
0010
0100
0001
0000
0100
0000
0010
0100
0010
0100
,
1000
0000
0100
0000
0001
0010
0100
0000
0010
0000
0001
0000
1000
0100
0010
0000
,
0100
0000
1000
0000
0010
0100
0001
0000
1000
0000
0001
0000
0100
0010
1000
0000
,
0001
0000
1000
0000
0100
0010
0100
0010
0001
0000
0010
0000
0100
0010
0100
0010
,
1000
0000
0010
0000
0001
0100
0010
1000
0100
0010
0001
0000
1000
0010
0100
0001
,
0010
0100
1000
0000
2002
0000
0000
0000
0000
0000
0000
0000
0000
0000
0000
0000
,
3003
0000
0001
1000
0001
1000
1001
0000
,
0220
0000
0330
0010
1000
0100
0010
0100
,
1000
0100
0000
0110
0000
0010
0001
0100
,
0020
0000
0000
1030
0001
1000
0100
1000
,
0001
1000
0000
1010
0000
0010
0100
0001
,
0100
0000
0010
1000
0010
0000
1000
0100
,
1000
0000
0001
0010
0001
0000
0100
0000
,
0110
1000
0110
0001
,
0110
0000
0000
0010
0000
0000
1000
0000
0100
0000
1000
0000
0100
0000
0010
0000
,
0001
0000
0100
0010
1000
0010
0100
0001
,
0010
0100
0000
1100
0000
0001
1000
0100
,
0010
0000
0100
1000
0100
0010
0001
0100
,
0010
1000
0000
0101
0000
0001
0010
0100
,
0010
0000
0100
0010
0001
0000
1000
0100
,
0001
0000
1000
0010
0001
0000
1000
0100
,
0020
0031
0200
1300
,
1000
0000
0000
0010
0000
0000
0001
0000
1000
0000
0010
0000
0100
0000
0001
0000
,
1001
0000
1000
0010
0000
0010
0100
0000
0100
0001
0000
0000
,
1000
0000
1000
0100
0000
0100
0010
0000
0010
0001
0000
0000
,
0100
0000
0100
0010
0000
0010
1000
0000
1000
0001
0000
0000
,
0010
0000
0010
0100
0000
0100
1000
0000
1000
0010
0000
0000
,
0100
0000
0100
0001
0000
0001
1000
0000
1000
0100
0000
0000
,
0010
0000
0010
0001
0000
0001
0100
0000
0100
0010
0000
0000
,
1000
0000
1000
0001
0000
0001
0010
0000
0010
0100
0000
0100
,
1000
0000
0000
0010
0000
0000
0100
0000
0001
0000
0001
0000
1000
0000
1000
0000
,
0010
0001
0010
0100
0010
1000
0100
0010
,
0001
0000
0001
0100
0000
0100
0010
0000
0010
1000
0000
1000
,
0001
0010
0100
0001
0100
1000
0100
0010
,
0100
0000
0100
1000
0000
1000
0001
0000
0001
0100
0000
0100
,
0010
1000
0001
0010
1000
0010
0100
1000
,
0010
0000
0010
0100
0000
0100
0001
0000
0001
0010
0000
0010
,
1000
0010
0001
0100
1000
0100
0010
0100
,
0001
0000
0001
0010
0000
0010
0100
0000
0100
1000
0100
0010
,
2002
0000
0000
0000
,
0000
0000
0000
0000
,
3003
0000
0000
0000
;

//---------------dance-double - ----------------
#NOTES:
     dance-double:
     :
     Medium:
     13:
     0.638591,0.922069,0.222682,0.164950,0.284538,542.000000,515.000000,27.000000,20.000000,0.000000,0.000000,0.638591,0.922069,0.222682,0.164950,0.284538,542.000000,515.000000,27.000000,20.000000,0.000000,0.000000:
00000000
00000000
00000000
00000000
,
00000000
00000000
00000000
00000000
,
00000000
00000000
00000000
00000000
,
00000000
00000000
00000000
00000000
,
00000000
00000000
00000000
00000000
10000000
00100000
10000000
00000000
,
00010000
01000000
00010000
00000000
10000000
00100000
00010000
00000000
,
00001000
00000000
00000110
00000000
00000001
00000010
00000001
00000000
,
00001000
00000100
00001000
00000000
00000001
00000010
00001000
00000000
,
00010000
01100000
20020000
00000000
,
00000000
00000000
30030000
00000000
10000000
00010000
10000000
00010000
,
10010000
10000000
10000000
01000000
,
01000000
00010000
00010000
00001000
,
00010000
00001000
00011000
00000000
00010000
00000000
00010000
00000000
,
00001000
00000000
00001000
00000000
00000010
00000000
00000001
00000100
,
00000001
00000001
00001001
00000000
00001000
00000100
00000000
00010000
,
00001000
00000000
00011000
00000000
00010000
01000000
00000000
10000000
,
01000000
01100000
00010000
01100000
,
10000000
00000000
00000000
00000000
10010000
00000000
00000000
00010000
00000000
00000000
01000000
00000000
00010000
00000000
01000000
00000000
,
00001000
00000000
00010000
00000000
00000100
00000000
00000000
00000000
00001000
00000000
00000100
00000000
00000010
00000000
00000000
00000010
,
00000000
00000001
00000100
00000001
00001000
00000100
00001000
00000100
,
00010000
00000000
00000000
00000000
00001000
00000000
00000000
00000000
00100000
00000000
01000000
00000000
10000000
00000000
00000000
10000000
,
00000000
00100000
01000000
00010000
01000000
00010000
00100000
00001000
,
00010000
00000000
00011000
00000000
00001000
00000100
00000010
00000000
,
00000100
00000000
00000101
00000000
00000001
00000010
00001000
00000000
,
00010000
00011000
00000100
00011000
,
01000000
00000000
00000000
00000000
10010000
00000000
00000000
00010000
00000000
00000000
01000000
00000000
00001000
00000000
00010000
00000000
,
00001000
00000000
00010000
00000000
00000100
00000000
00000000
00000000
00000010
00000000
00000100
00000000
00001000
00000000
00000000
00001000
,
00000000
00000010
00000100
00000001
00000100
00000001
00001000
00000100
,
00000010
00000000
00000001
00000000
00000100
00000000
00000000
00000000
00001000
00000000
00010000
00000000
00100000
00000000
00000000
00100000
,
00000000
10000000
01000000
00100000
00010000
00100000
00010000
01000000
,
00100000
10000000
00010000
00000000
00100000
01000000
00010000
00000000
,
00001000
00000010
00000100
00000000
00001000
00000001
00000100
00001000
,
00000100
00001000
00020000
00000000
00030010
00000000
00002000
00000000
,
01003000
00000000
00000000
01000000
00000000
00010000
10000000
00000000
10000000
01000000
00000000
01000000
,
00010000
00010000
00001000
00010000
00000020
00000000
00000000
00010030
,
00001000
00000000
00200000
00000000
00000000
00000000
00000000
00000000
00000000
00000000
00301000
00000000
00001000
00000000
00000000
00010000
,
00000000
00001000
00010000
00001000
02000000
00000000
00000000
03001000
,
00010000
00000200
00000000
00000000
00000000
00010300
00010000
00001000
,
00100000
01000000
10000000
00100000
00020000
00000000
00000000
00031000
,
00000100
00000000
00000002
00000000
00000000
00000000
00000000
00000000
00000000
00000000
00000013
00000000
00000010
00000000
00000000
00000100
,
00000000
00000010
00000001
00000100
00000010
00001000
00000100
00010000
,
00001000
00000000
00000000
00100000
00000000
00000000
01000000
00000000
00000000
00000000
01000000
00000000
10000000
00000000
00000000
00000000
10000000
00000000
00100000
00000000
00000000
00000000
00100000
00000000
,
00010000
00000000
00000000
00000000
00000000
00000000
00000000
00000000
00010000
00000000
00000000
00000000
00001000
00000000
00000000
00010000
00000000
00000000
00001000
00000000
00000000
00000000
00000000
00000000
00100000
00000000
00000000
00000000
00000000
00000000
01000000
00000000
00000000
00000000
00000000
00000000
00010000
00000000
00000000
00001000
00000000
00000000
00010000
00000000
00000000
00000000
00000000
00000000
,
00000100
00000000
00000010
00000000
00001000
00100000
00001000
00000000
01000000
00000000
00100000
00000000
00010000
00000010
00010000
00000000
,
00000010
00000000
00000100
00000000
00001000
01000000
00001000
00000000
00100000
00000000
01000000
00000000
00010000
00000100
00010000
00000000
,
00001000
00000000
00000010
00000000
00000001
00000100
00001000
00000000
00010000
00000000
00001000
00000000
00010000
00100000
10000000
00000000
,
01000000
00000000
00010000
00000000
00001000
00100000
01000000
00000000
00100000
00000000
00001000
00000000
00010000
00000100
00000010
00000000
,
00001000
00000000
00010000
00000000
00001000
01000000
00100000
00000000
01000000
00000000
00001000
00000000
00010000
00000010
00000100
00000000
,
00000010
00000000
00010000
00000000
00001000
00010000
01000000
00000000
10000000
00000000
00100000
00000000
00010000
00001000
00000010
00000000
,
00000001
00000000
00000100
00000000
00001000
00010000
00001000
00010000
00000100
00000010
00000100
00000000
00010000
00001000
00010000
00001000
,
01000000
00100000
01000000
00000000
00022000
00000000
00000000
00000000
00000000
00000000
00000000
00000000
00000000
00000000
00000000
00000000
,
00033000
00000000
00001000
00010000
00001000
00010000
00011000
00000000
,
00022000
00000000
00033000
00001000
00100000
00010000
00100000
01000000
,
10000000
00100000
00000000
01100000
00000000
01000000
00010000
00100000
,
00002000
00000000
00000000
00013000
00000100
00010000
00001000
00010000
,
00000010
00001000
00000000
00001100
00000000
00000100
00000010
00000001
,
00000100
00000000
00001000
00010000
00100000
00000000
00010000
00001000
,
00000010
00000000
00001000
00010000
01000000
00000000
10000000
00000000
,
01100000
00010000
01100000
10000000
,
10010000
00000000
00000000
00010000
00000000
00000000
01000000
00000000
00100000
00000000
10000000
00000000
00100000
00000000
01000000
00000000
,
00010000
00000000
00100000
00001000
00100000
00010000
01000000
00001000
,
00010000
00000010
00000000
00001010
00000000
00001000
00000001
00000100
,
00000010
00000000
00001000
00000100
00000010
00000001
00000100
00000010
,
00010000
00001000
00000000
00011000
00000000
00010000
00100000
01000000
,
00100000
00000000
10000000
01000000
00010000
00000000
00001000
00000010
,
00000001
00000000
00000001
00000100
00001000
00000000
00010000
00100000
,
20000000
32000000
03200000
00301000
,
00001000
00000000
00000000
00010000
00000000
00000000
00000100
00000000
00000010
00000000
00000001
00000000
00001000
00000000
00000001
00000000
,
00001001
00000000
00001000
00000010
00000000
00000000
00010000
00000000
00010000
00001000
00000000
00000000
,
00100000
00000000
00100000
01000000
00000000
00000000
10000000
00000000
10000000
00100000
00000000
00000000
,
01000000
00000000
01000000
00010000
00000000
00000000
00100000
00000000
00100000
01000000
00000000
00000000
,
00010000
00000000
00010000
00001000
00000000
00000000
00000010
00000000
00000010
00000001
00000000
00000000
,
00000100
00000000
00000100
00001000
00000000
00000000
00010000
00000000
00010000
01000000
00000000
00000000
,
10000000
00000000
10000000
00100000
00000000
00000000
01000000
00000000
01000000
00001000
00000000
00000000
,
00010000
00000000
00010000
00000100
00000000
00000000
00001000
00000000
00001000
00000001
00000000
00000000
,
00000100
00000000
00000000
00001000
00000000
00000000
00010000
00000000
00100000
00000000
00100000
00000000
10000000
00000000
10000000
00000000
,
01000000
00100000
00010000
01000000
00100000
00010000
00001000
00100000
,
01000000
00000000
01000000
10000000
00000000
10000000
00100000
00000000
00100000
01000000
00000000
01000000
,
00010000
00100000
00001000
00010000
00001000
00000010
00000001
00000100
,
00000010
00000000
00000010
00010000
00000000
00010000
00001000
00000000
00001000
00000100
00000000
00000100
,
00000001
00001000
00000100
00000010
00000100
00010000
00001000
00100000
,
01000000
00000000
01000000
10000000
00000000
10000000
00100000
00000000
00100000
01000000
00000000
01000000
,
00001000
00010000
00000100
00001000
00000010
00000100
00000001
00001000
,
00000100
00000000
00000100
00000010
00000000
00000010
00000001
00000000
00000001
00000100
00001000
00010000
,
00022000
00000000
00000000
00000000
,
00000000
00000000
00000000
00000000
,
00033000
00000000
00000000
00000000
;

//---------------dance-single - ----------------
#NOTES:
     dance-single:
     :
     Beginner:
     5:
     0.209722,0.319178,0.074227,0.008247,0.000000,178.000000,169.000000,9.000000,1.000000,0.000000,0.000000,0.209722,0.319178,0.074227,0.008247,0.000000,178.000000,169.000000,9.000000,1.000000,0.000000,0.000000:
0000
0000
0000
0000
,
0000
0000
0000
0000
,
0000
0000
0000
0000
,
0000
0000
0000
0000
,
0000
0000
1000
0000
,
1000
0000
0001
0000
,
0001
0000
1000
0000
,
0001
0000
0100
0000
,
0010
0000
0110
0000
,
0000
0000
0100
0000
,
0100
0100
0000
0001
,
0000
0010
0000
0010
,
0000
0010
0000
1000
,
0000
0100
0000
0100
,
0000
0100
0000
0001
,
0000
1000
0000
0010
,
0000
1000
0000
0001
,
0000
0100
0000
0100
,
0000
0001
0000
0001
,
0000
0010
0000
0000
,
0000
1000
0000
1000
,
0000
0100
0000
0000
,
0000
0001
0000
0001
,
0000
0100
0000
0000
,
0000
1000
0000
1000
,
0000
0010
0000
0000
,
0000
0001
0000
0001
,
0000
1000
0000
1000
,
0000
0010
0000
0010
,
0000
0100
0000
0100
,
0000
0001
0000
0010
,
0000
0100
0000
1000
,
0000
0001
0000
1000
,
0000
0010
0010
0010
,
0000
0110
0000
0000
,
1000
1000
0000
0000
,
0000
0110
0000
0000
,
0001
0001
0000
0000
,
0000
0110
0000
1000
,
0000
0001
0000
0000
,
0000
0110
0000
0001
,
0000
1000
1000
1000
,
0000
0001
0100
0010
,
0000
1000
0010
0100
,
0000
0001
0010
1000
,
0000
1000
0010
0001
,
0000
1000
0100
0010
,
0100
0001
0010
0100
,
0010
1000
0100
0001
,
0100
0001
0010
1000
,
0010
1000
0000
0000
,
0000
0001
0000
0001
,
0001
0000
0100
0000
,
1000
0000
0100
0000
,
0001
0000
1000
0000
,
0010
0000
0001
0000
,
0010
0000
1000
0000
,
0001
0000
0100
0000
,
0010
0000
1000
0000
,
0001
0001
0001
0000
,
1000
0000
0010
0000
,
0001
0000
0100
0000
,
0001
0000
0010
0000
,
1000
0000
0001
0000
,
0100
0000
1000
0000
,
0010
0000
1000
0000
,
0100
0000
0010
0000
,
0100
0100
0100
0000
,
1001
0000
0010
0000
,
0000
0000
0100
0000
,
1001
0000
0010
0000
,
0000
0000
0010
0000
,
0110
0000
0100
0000
,
0110
0000
0010
0000
,
1000
0000
0001
0000
,
1000
1000
1000
0000
,
0001
0000
0100
0000
,
1000
0000
0010
0000
,
0001
0000
0010
0000
,
1000
0000
0100
0000
,
1000
0000
0010
0000
,
0001
0000
0100
0000
,
1000
0000
0010
0000
,
0001
0001
0001
0001
,
0002
0000
0000
0000
,
0000
0000
0000
0000
,
0003
0000
0000
0000
;

//---------------dance-single - ----------------
#NOTES:
     dance-single:
     :
     Easy:
     9:
     0.342860,0.425570,0.131960,0.082475,0.000000,291.000000,275.000000,16.000000,10.000000,0.000000,0.000000,0.342860,0.425570,0.131960,0.082475,0.000000,291.000000,275.000000,16.000000,10.000000,0.000000,0.000000:
0000
0000
0000
0000
,
0000
0000
0000
0000
,
0000
0000
0000
0000
,
0000
0000
0000
0000
,
0000
0000
1000
0000
,
1000
0000
0001
0000
,
0001
0000
1000
0000
,
0001
0000
1000
0001
,
1000
0001
2002
0000
,
0000
0000
3003
0000
0001
1000
0001
0000
,
1001
1000
0100
1000
,
0000
0001
0010
0001
,
0000
1000
0010
1000
,
0000
0001
0100
0001
,
0000
1000
0100
0010
,
0000
0001
0010
0100
,
0000
1000
0010
0100
,
0001
0100
0010
0010
,
0010
1000
0000
0100
,
0000
0001
0010
0001
,
0000
0001
0000
0100
,
0000
1000
0010
1000
,
0000
1000
0000
0100
,
0000
0001
0010
0001
,
0000
0001
0000
0100
,
0000
1000
0010
1000
,
1001
0001
0000
0010
,
0000
1000
0100
1000
,
0000
1000
0000
0010
,
0000
0001
0100
0001
,
0000
0001
0000
0010
,
0000
1000
0000
0100
,
0000
0001
1000
0001
,
1000
0010
0100
0010
,
0010
0000
1000
0000
0000
0000
0000
0001
,
0000
0001
0000
0000
0000
0000
0100
0000
,
1001
0000
0001
0000
0000
0000
0000
1000
,
0000
1000
0000
0000
0000
0000
0010
0000
,
1001
0000
0100
0000
0100
0000
0000
0010
,
0000
0010
0000
0000
0000
0000
0100
0000
,
0110
1000
0100
0010
,
0001
0200
0000
0000
,
0000
0000
0310
0000
0010
0000
1000
0100
,
1000
0000
0010
0000
0010
0000
0100
0001
,
0100
0000
0001
0000
0001
0000
0010
0100
,
0010
0000
1000
0000
1000
0000
0010
0001
,
0010
0001
0100
1000
,
0110
1000
0010
0001
,
0110
1000
0001
0010
,
1001
0001
1000
0100
,
1001
0220
0000
0000
,
0330
0000
0010
0100
0010
0000
0110
0000
,
1000
1000
0100
0100
,
0010
0001
0100
0000
,
0001
0001
0010
0010
,
0100
1000
0010
0000
,
0100
0001
0100
0000
0001
0000
0000
0000
,
1000
0010
1000
0000
0100
0000
0000
0000
,
0010
0100
1000
0001
,
0010
0100
0110
0110
,
1000
0010
0100
0001
,
1000
1000
0100
0000
,
0001
0100
0010
1000
,
0001
0001
0010
0000
,
1000
0100
1000
0000
0001
0000
0000
0000
,
0010
0001
0010
0000
0100
0000
0000
0000
,
1000
0010
0100
0001
,
1000
1000
0001
0001
,
0100
0010
1000
0010
,
0100
0010
2000
3100
,
0100
0010
0001
0010
,
0100
0010
0002
1003
,
1000
0010
0001
0010
,
1000
0010
0002
0013
,
0010
1000
0100
0010
,
0001
1000
0001
1001
,
1000
0010
0100
0000
0010
0000
1000
0000
,
0100
0010
0001
1000
,
0001
0100
0010
0000
1000
0000
0001
0000
,
0010
0100
1000
0001
,
1000
0100
0010
0000
0100
0000
1000
0000
,
0001
0010
0100
0000
0010
0000
0001
0000
,
1000
0010
0001
0100
,
1000
1000
0001
0001
,
2002
0000
0000
0000
,
0000
0000
0000
0000
,
3003
0000
0000
0000
;

//---------------dance-double - ----------------
#NOTES:
     dance-double:
     :
     Easy:
     9:
     0.335791,0.425570,0.123712,0.082475,0.000000,285.000000,270.000000,15.000000,10.000000,0.000000,0.000000,0.335791,0.425570,0.123712,0.082475,0.000000,285.000000,270.000000,15.000000,10.000000,0.000000,0.000000:
// measure 0
00000000
00000000
00000000
00000000
,  // measure 1
00000000
00000000
00000000
00000000
,  // measure 2
00000000
00000000
00000000
00000000
,  // measure 3
00000000
00000000
00000000
00000000
,  // measure 4
00000000
00000000
00001000
00000000
,  // measure 5
00001000
00000000
00010000
00000000
,  // measure 6
00010000
00000000
00001000
00000000
,  // measure 7
00010000
00000000
00001000
00010000
,  // measure 8
00001000
00010000
00022000
00000000
,  // measure 9
00000000
00000000
00033000
00000000
00001000
00010000
00001000
00000000
,  // measure 10
00011000
00001000
01000000
00010000
,  // measure 11
00000000
01000000
00001000
00010000
,  // measure 12
00000000
00000100
00010000
00001000
,  // measure 13
00000000
00010000
00000100
00001000
,  // measure 14
00000000
00000010
00010000
00001000
,  // measure 15
00000000
01000000
00001000
00010000
,  // measure 16
00000000
00000100
00010000
00001000
,  // measure 17
00100000
00001000
00010000
00010000
,  // measure 18
00010000
00100000
00000000
10000000
,  // measure 19
00000000
01000000
00000000
00010000
,  // measure 20
00000000
00001000
00000000
00000010
,  // measure 21
00000000
00000001
00000000
00000100
,  // measure 22
00000000
00001000
00000000
00010000
,  // measure 23
00000000
01000000
00000000
10000000
,  // measure 24
00000000
00100000
00000000
00010000
,  // measure 25
00000000
00001000
00010000
00001000
,  // measure 26
00011000
00010000
00000000
00001000
,  // measure 27
00000000
00000100
00000000
00000001
,  // measure 28
00000000
00000010
00000000
00001000
,  // measure 29
00000000
00010000
00000000
00100000
,  // measure 30
00000000
10000000
00000000
01000000
,  // measure 31
00000000
00010000
00000000
00001000
,  // measure 32
00000000
00000100
00000001
00000100
,  // measure 33
00000001
00001000
00000010
00000100
,  // measure 34
00000100
00000000
00000100
00000000
00000000
00000000
00000000
00000001
,  // measure 35
00000000
00000100
00000000
00000000
00000000
00000000
00001000
00000000
,  // measure 36
00011000
00000000
00010000
00000000
00000000
00000000
00000000
00100000
,  // measure 37
00000000
10000000
00000000
00000000
00000000
00000000
00010000
00000000
,  // measure 38
10010000
00000000
01000000
00000000
01000000
00000000
00000000
00010000
,  // measure 39
00000000
00001000
00000000
00000000
00000000
00000000
00010000
00000000
,  // measure 40
00011000
00001000
00010000
00001000
,  // measure 41
00010000
00002000
00000000
00000000
,  // measure 42
00000000
00000000
00013000
00000000
00010000
00000000
00000100
00001000
,  // measure 43
00000100
00000000
00000010
00000000
00000010
00000000
00000001
00000100
,  // measure 44
00001000
00000000
00010000
00000000
00010000
00000000
00100000
01000000
,  // measure 45
00100000
00000000
10000000
00000000
10000000
00000000
01000000
00010000
,  // measure 46
00001000
00010000
00000100
00000010
,  // measure 47
00000110
00000001
00000100
00001000
,  // measure 48
00011000
00010000
00100000
10000000
,  // measure 49
01100000
10000000
01000000
00010000
,  // measure 50
00011000
00000220
00000000
00000000
,  // measure 51
00000330
00000000
00000010
00000100
00000010
00000000
00000110
00000000
,  // measure 52
00000001
00000001
00000100
00000100
,  // measure 53
00000010
00010000
00001000
00000000
,  // measure 54
00100000
00100000
01000000
01000000
,  // measure 55
10000000
00100000
01000000
00000000
,  // measure 56
00001000
00010000
00001000
00000000
00000010
00000000
00000000
00000000
,  // measure 57
00001000
00010000
00001000
00000000
00100000
00000000
00000000
00000000
,  // measure 58
01000000
10000000
00100000
00010000
,  // measure 59
00001000
00000100
00000001
00001001
,  // measure 60
00001000
00000100
00000010
00001000
,  // measure 61
00010000
01000000
10000000
00000000
,  // measure 62
00010000
01000000
00100000
00010000
,  // measure 63
00001000
00000010
00000001
00000000
,  // measure 64
00001000
00000100
00001000
00000000
00000010
00000000
00000000
00000000
,  // measure 65
00010000
00001000
00010000
00000000
00100000
00000000
00000000
00000000
,  // measure 66
10000000
01000000
00100000
00001000
,  // measure 67
00010000
00010000
00000100
00000100
,  // measure 68
00000010
00000001
00000100
00000001
,  // measure 69
00000010
00000001
00000200
00001300
,  // measure 70
00001000
00010000
00100000
00010000
,  // measure 71
00001000
00010000
00200000
10300000
,  // measure 72
10000000
01000000
00010000
01000000
,  // measure 73
10000000
01000000
00020000
00031000
,  // measure 74
00001000
00000010
00000001
00001000
,  // measure 75
00000100
00000010
00000001
00001001
,  // measure 76
00001000
00000100
00001000
00000000
00000010
00000000
00000100
00000000
,  // measure 77
00001000
00010000
00100000
10000000
,  // measure 78
01000000
00100000
01000000
00000000
00010000
00000000
00001000
00000000
,  // measure 79
00000010
00000100
00000010
00000001
,  // measure 80
00000100
00001000
00000100
00000000
00000010
00000000
00010000
00000000
,  // measure 81
00001000
00010000
00001000
00000000
00100000
00000000
01000000
00000000
,  // measure 82
10000000
00100000
00010000
00001000
,  // measure 83
00000100
00000001
00000010
00001000
,  // measure 84
00022000
00000000
00000000
00000000
,  // measure 85
00000000
00000000
00000000
00000000
,  // measure 86
00033000
00000000
00000000
00000000
;
