#VERSION:0.83;
#TITLE:LILAC;
#SUBTITLE:;
#ARTIST:IU;
#TITLETRANSLIT:;
#SUBTITLETRANSLIT:;
#ARTISTTRANSLIT:;
#GENRE:K-POP;
#ORIGIN:;
#CREDIT:MUINELIM;
#BANNER:LILAC.png;
#BACKGROUND:LILAC-bg.png;
#PREVIEWVID:;
#JACKET:LILAC-jacket.png;
#CDIMAGE:;
#DISCIMAGE:;
#LYRICSPATH:;
#CDTITLE:;
#MUSIC:LILAC.ogg;
#OFFSET:0.000000;
#SAMPLESTART:36.782608;
#SAMPLELENGTH:10.414783;
#SELECTABLE:YES;
#BPMS:0.000=115.000;
#STOPS:;
#DELAYS:;
#WARPS:;
#TIMESIGNATURES:0.000=4=4;
#TICKCOUNTS:0.000=4;
#COMBOS:0.000=1;
#SPEEDS:0.000=1.000=0.000=0;
#SCROLLS:0.000=1.000;
#FAKES:;
#LABELS:0.000=Song Start;
#BGCHANGES:0.000=LILAC.mp4=1.000=1=0=1===CrossFade==,
99999=-nosongbg-=1.000=0=0=0 // don't automatically add -songbackground-
;
#KEYSOUNDS:;
#ATTACKS:
;

//---------------dance-single - ----------------
#NOTEDATA:;
#CHARTNAME:;
#STEPSTYPE:dance-single;
#DESCRIPTION:;
#CHARTSTYLE:;
#DIFFICULTY:Beginner;
#METER:2;
#RADARVALUES:0.114595,0.139623,0.022703,0.000000,0.000000,106.000000,103.000000,3.000000,0.000000,0.000000,0.000000,0.000000,0.000000,0.000000,0.114595,0.139623,0.022703,0.000000,0.000000,106.000000,103.000000,3.000000,0.000000,0.000000,0.000000,0.000000,0.000000,0.000000;
#CREDIT:MILEN;
#NOTES:
0000
0000
0000
0000
,
0000
0000
0000
0000
,
1000
0000
1000
0000
,
1000
0000
0000
0000
,
0001
0000
0001
0000
,
0001
0000
0000
0000
,
1000
0000
0001
0000
,
1000
0000
0001
0000
,
1000
0000
0001
0000
,
1000
1000
1000
0000
,
0010
0000
0010
0000
,
0010
0000
0010
0000
,
0010
0000
0000
0010
,
0010
0000
0000
0000
,
0100
0000
0100
0000
,
0100
0000
0100
0000
,
0100
0000
0000
0000
,
1001
0000
0000
0000
,
0001
0000
0000
0000
,
1000
0000
0000
0000
,
0010
0000
0000
0000
,
0100
0000
0000
0000
,
0001
0000
0000
0000
,
1000
0000
0000
0000
,
0010
0000
0000
0000
,
0100
0000
0000
0100
,
0100
0000
0001
0000
,
0100
0000
0001
0000
,
1000
0000
0010
0000
,
1000
0000
0010
0000
,
0100
0000
0001
0000
,
1000
0000
0010
0000
,
0100
0000
0100
0000
,
0100
0000
0000
0000
,
1001
0000
0000
0000
,
0001
0000
0000
0000
,
1000
0000
0000
0000
,
0001
0000
1000
0000
,
0001
0000
0000
0000
,
1000
0000
0000
0000
,
0001
0000
0000
0000
,
1001
0000
0000
0100
,
0100
0000
0001
0000
,
1000
0000
0010
0000
,
0100
0000
0100
0000
,
0010
0000
0010
0000
,
1000
0000
0001
0000
,
0100
0000
0010
0000
,
1000
0000
0001
0000
,
0100
0000
0000
0100
,
0100
0000
0001
0000
,
0010
0000
0100
0000
,
1000
0000
0010
0000
,
0100
0000
0100
0000
,
0010
0000
1000
0000
,
0100
0000
0010
0000
,
0001
0000
1000
0000
,
0001
0000
0001
0000
,
0100
0000
0010
0000
,
1000
0000
0001
0000
,
0100
0000
0100
0000
,
0100
0100
0100
0000
;

//---------------dance-single - ----------------
#NOTEDATA:;
#CHARTNAME:;
#STEPSTYPE:dance-single;
#DESCRIPTION:;
#CHARTSTYLE:;
#DIFFICULTY:Easy;
#METER:4;
#RADARVALUES:0.182704,0.232704,0.098379,0.045406,0.000000,169.000000,156.000000,13.000000,6.000000,0.000000,0.000000,0.000000,0.000000,0.000000,0.182704,0.232704,0.098379,0.045406,0.000000,169.000000,156.000000,13.000000,6.000000,0.000000,0.000000,0.000000,0.000000,0.000000;
#CREDIT:MILEN;
#NOTES:
// measure 0
0000
0000
0000
0000
,  // measure 1
0000
0000
0000
0000
,  // measure 2
1000
1000
0000
0001
,  // measure 3
1000
0000
1001
0000
,  // measure 4
0001
0001
0000
1000
,  // measure 5
0001
0000
1001
0000
,  // measure 6
1000
0000
0100
0000
,  // measure 7
0010
0000
0001
0000
,  // measure 8
1000
0000
0100
0000
,  // measure 9
0010
0010
0020
0030
,  // measure 10
0001
0100
0001
0100
,  // measure 11
0001
0100
0001
0100
,  // measure 12
1001
0000
0000
1000
,  // measure 13
0001
0000
0001
0000
,  // measure 14
1000
0100
1000
0100
,  // measure 15
1000
0100
1000
0100
,  // measure 16
1001
0000
0000
0001
,  // measure 17
0200
0000
0300
0110
,  // measure 18
1000
0000
0001
0000
,  // measure 19
1000
0100
0010
0000
,  // measure 20
0001
0010
0100
0000
,  // measure 21
1000
0100
0010
0000
,  // measure 22
0001
0000
1000
0000
,  // measure 23
0001
0010
0100
0000
,  // measure 24
1000
0100
0010
0000
,  // measure 25
0110
0000
0000
0001
,  // measure 26
0001
0000
0100
0000
,  // measure 27
1000
0000
0010
0000
,  // measure 28
0001
1000
0002
0003
,  // measure 29
1000
1000
1000
0000
,  // measure 30
0001
0000
0010
0000
,  // measure 31
1000
0000
0100
0000
,  // measure 32
0001
1000
0002
0003
,  // measure 33
1001
0000
0000
0000
,  // measure 34
0100
0000
0010
0100
,  // measure 35
0100
0000
0010
0100
,  // measure 36
0200
0000
0300
0000
,  // measure 37
0001
0000
1000
0000
,  // measure 38
0010
0000
0100
0010
,  // measure 39
0100
0100
0200
0300
,  // measure 40
0001
1000
0001
1000
,  // measure 41
1001
0000
0000
0100
,  // measure 42
0100
0000
0010
0000
,  // measure 43
1000
0000
0001
0000
,  // measure 44
0100
0010
0110
0000
,  // measure 45
0010
0100
0110
0000
,  // measure 46
0001
0000
1000
0000
,  // measure 47
0010
0100
0010
0010
,  // measure 48
1000
0001
1000
0001
,  // measure 49
1001
0000
0000
0100
,  // measure 50
0100
0000
0001
0000
,  // measure 51
0010
0000
1000
0000
,  // measure 52
0100
0010
0100
0000
,  // measure 53
1000
0010
1001
0000
,  // measure 54
0010
0000
1000
0000
,  // measure 55
0100
0000
0001
0000
,  // measure 56
0010
0100
0010
0000
,  // measure 57
0001
0100
1001
0000
,  // measure 58
0001
0000
0010
0000
,  // measure 59
0100
0000
1000
0000
,  // measure 60
0010
0100
0001
0100
,  // measure 61
0010
0010
0010
0000
;

//---------------dance-single - ----------------
#NOTEDATA:;
#CHARTNAME:;
#STEPSTYPE:dance-single;
#DESCRIPTION:;
#CHARTSTYLE:;
#DIFFICULTY:Medium;
#METER:7;
#RADARVALUES:0.307029,0.351894,0.196758,0.469192,0.000000,284.000000,258.000000,26.000000,62.000000,0.000000,0.000000,0.000000,0.000000,0.000000,0.307029,0.351894,0.196758,0.469192,0.000000,284.000000,258.000000,26.000000,62.000000,0.000000,0.000000,0.000000,0.000000,0.000000;
#CREDIT:MILEN;
#NOTES:
0000
0000
0000
0000
,
0000
0000
0000
0000
,
2000
3100
1000
0001
,
1001
0000
0000
0001
0001
0000
1000
0000
,
0002
0103
0001
1000
,
1001
0000
0000
1000
1000
0000
0100
0000
,
2000
3010
0020
0130
,
0200
0301
2002
3003
,
0002
0103
0200
0310
,
0020
0000
2030
0000
3100
0000
0100
0100
,
0020
0031
0200
0301
,
0020
0000
0031
0000
0001
1000
0001
1000
,
0001
0000
0100
0000
1000
0000
0010
0100
,
0020
0030
0100
0110
,
0020
1030
0200
1300
,
0002
0000
1003
0000
0200
0000
1300
0010
,
0200
0000
0000
0000
0000
0000
0310
0010
,
0110
0000
0000
0000
0000
0010
0100
0000
,
2002
0000
0000
0000
3003
0001
1000
0001
,
0100
1000
0010
0001
,
1000
0010
0110
0000
,
0001
0100
0110
0010
,
2002
0000
0000
0000
3003
1000
0001
1000
,
0010
0001
0100
1000
,
0110
0001
0110
1000
,
2002
0000
0000
0000
3003
0000
0001
1000
,
1001
0000
0001
0100
0001
0000
1000
0100
,
2000
0000
3002
0000
0203
0000
0310
0100
,
0010
0000
0010
0000
0020
0000
0000
1030
,
0100
0010
0001
0001
0000
0000
1000
0001
,
1001
0000
1000
0010
1000
0000
0001
0010
,
0002
0000
2003
0000
3020
0000
0130
0010
,
0100
0000
0100
0000
0200
0000
0000
0301
,
0010
0100
1000
1000
0000
0000
0002
0000
,
0203
0000
0000
0300
,
0020
0000
0000
0030
,
2000
0000
0000
0000
3000
0000
0001
0001
,
1000
0100
0010
0001
,
0200
0000
0000
0310
0010
0000
0100
0000
,
0010
2000
0002
3000
,
1000
0010
1000
0103
,
0100
0100
0000
0000
0000
0000
0010
0100
,
2002
0000
0000
0000
3003
0001
1000
0001
,
0010
1000
0100
0001
,
1000
0010
1000
0000
1100
0000
0000
0000
,
0001
0100
0001
0000
0011
0000
0100
0000
,
2002
0000
0000
0000
3003
1000
0001
1000
,
0100
0001
0010
1000
,
0110
0001
0110
1000
,
2002
0000
0000
0000
3003
0000
0100
0010
,
0110
0000
0100
0001
0020
0000
0031
0100
,
0020
0000
2030
0000
3002
0000
0103
0100
,
0020
1030
0002
0103
,
0100
0010
1000
0001
0100
0000
0010
0100
,
0110
0000
0010
1000
0200
0000
1300
0010
,
0200
0000
0302
0000
2003
0000
3010
0010
,
0200
0301
2000
3010
,
0010
0100
0001
1000
0010
0000
0110
0000
,
0100
0001
0200
0000
0301
1000
0002
0000
,
1003
0100
2000
0000
3010
0100
0001
0100
,
0010
0000
0010
0000
1001
0000
1000
0100
,
0001
0010
1000
0001
,
1001
0000
0000
0000
;

//---------------dance-single - ----------------
#NOTEDATA:;
#CHARTNAME:;
#STEPSTYPE:dance-single;
#DESCRIPTION:;
#CHARTSTYLE:;
#DIFFICULTY:Hard;
#METER:9;
#RADARVALUES:0.377300,0.421847,0.355678,0.423787,0.105947,349.000000,302.000000,47.000000,56.000000,0.000000,0.000000,0.000000,0.000000,0.000000,0.377300,0.421847,0.355678,0.423787,0.105947,349.000000,302.000000,47.000000,56.000000,0.000000,0.000000,0.000000,0.000000,0.000000;
#CREDIT:MILEN;
#NOTES:
0000
0000
0000
0000
,
0000
0000
0000
0000
,
1000
0100
1000
0000
0001
0100
0001
1000
,
0200
0000
0000
1000
1300
0000
1000
0001
,
0001
0010
0001
0000
1000
0010
1000
0001
,
0020
0000
0000
0001
0031
0000
0001
1000
,
0010
0000
0000
1000
0000
0000
0100
0000
1000
0000
0000
0001
0000
0000
0010
0000
,
0001
0000
0000
0100
0000
0000
0010
0000
0110
0000
0000
0000
1001
0000
0000
0000
,
1000
0000
0000
0010
0000
0000
0100
0000
0001
0000
0000
0010
0000
0000
0100
0000
,
1000
0000
0000
0001
0000
0000
1000
0000
0100
1000
0000
0000
0100
0000
0010
0000
,
0012
0100
1000
0010
,
0100
0000
1003
0000
1000
0010
0100
0010
,
2000
0000
3100
0000
0002
0000
0103
1000
,
0020
0000
0000
0100
0130
0000
0110
0000
,
2010
0100
0001
0010
,
0100
0000
0000
0000
3001
0000
0000
0000
0001
0000
0000
0010
0000
0000
0100
0000
,
0210
0000
0001
0000
1000
0000
0301
1000
,
1001
0000
0000
0000
0000
0000
0000
0000
0000
0000
0010
0100
0010
0000
0000
0000
,
2002
0000
0000
0000
3003
0001
1000
0001
,
0100
0000
0000
0100
0000
0000
0100
0000
0000
0000
0000
0000
1000
0000
0010
0000
,
1000
0100
0010
0001
0101
0000
1000
0010
,
1000
0100
0010
0001
0101
0000
0100
0000
,
2002
0000
0000
0000
3003
1000
0001
1000
,
0010
0000
0000
0010
0000
0000
0010
0000
0000
0000
0001
0000
0010
0000
0100
0000
,
1000
0000
0000
1000
0010
0000
0000
0000
0001
0000
0000
0001
0010
0000
0100
0000
,
0220
0000
0000
0000
0330
0000
0010
0001
,
0102
1003
2100
3002
,
0203
0000
0320
0000
2030
0000
3001
0100
,
0110
1010
0110
0101
,
0100
0010
1000
0001
0200
0000
0310
0100
,
0102
1003
2010
3002
,
0023
0000
0230
0000
2300
0000
3010
0100
,
0101
1001
1010
1001
,
0110
0000
0000
0000
,
0020
0000
0000
1030
0100
0000
0010
0000
,
0002
0000
0000
0103
0010
0000
1000
0000
,
0200
0000
0000
0000
0000
0000
1300
0001
,
0100
0000
0000
1000
0000
0000
0010
0000
0000
0001
0000
0000
0100
0000
0010
0000
,
0200
0000
0000
0301
0010
0100
0010
0001
,
1000
0000
0000
0010
0000
0000
0200
0000
0000
0000
0000
0000
0000
0000
0310
0000
,
1000
0000
0000
0001
0000
0000
0010
0000
0000
0100
0000
0000
1000
0000
0000
0000
,
0001
0100
0001
0000
0000
0000
0000
0000
0000
0000
0000
0000
0100
0010
0000
0000
,
2002
0000
0000
0000
3003
1000
0001
1000
,
0100
0000
0000
0100
0000
0000
0100
0000
0000
0000
0000
0000
0001
0000
0010
0000
,
0001
0100
0010
1000
1100
0000
0001
0010
,
0001
0100
0010
1000
1100
0000
0100
0000
,
2002
0000
0000
0000
3003
0001
1000
0001
,
0010
0000
0000
0010
0000
0000
0010
0000
0000
0000
1000
0000
0010
0000
0100
0000
,
0001
0000
0000
0001
0010
0000
0000
0000
1000
0000
0000
1000
0010
0000
0100
0000
,
0220
0000
0000
0000
0330
0000
0100
0001
,
0012
1003
2100
3002
,
0023
0000
0230
0000
2300
0000
3010
0100
,
0101
0011
1100
1010
,
0010
0100
0001
0010
0200
0000
0310
0001
,
2001
3100
1002
0203
,
0320
0000
2030
0000
3200
0000
0310
0001
,
0101
1100
1010
0011
,
0001
0010
0100
1000
0001
0010
0100
1000
,
1020
0230
0302
2003
,
3200
0001
1000
0310
,
0110
0101
1010
1001
,
0001
0000
0000
0000
0001
0000
0000
0000
0001
0100
0000
0010
1000
0100
1000
0100
;

//---------------dance-double - ----------------
#NOTEDATA:;
#CHARTNAME:;
#STEPSTYPE:dance-double;
#DESCRIPTION:;
#CHARTSTYLE:;
#DIFFICULTY:Easy;
#METER:4;
#RADARVALUES:0.152433,0.187677,0.083244,0.045406,0.000000,141.000000,130.000000,11.000000,6.000000,0.000000,0.000000,0.000000,0.000000,0.000000,0.152433,0.187677,0.083244,0.045406,0.000000,141.000000,130.000000,11.000000,6.000000,0.000000,0.000000,0.000000,0.000000,0.000000;
#CREDIT:MILEN;
#NOTES:
00000000
00000000
00000000
00000000
,
00000000
00000000
00000000
00000000
,
00001000
00001000
00000000
00010000
,
00010000
00000000
00011000
00000000
,
00010000
00010000
00000000
00001000
,
00001000
00000000
00011000
00000000
,
00001000
00000000
01000000
00000000
,
00010000
00000000
00100000
00000000
,
00001000
00000000
01000000
00000000
,
00100000
00000000
20000000
30000000
,
01000000
00000000
00010000
00000000
,
00001000
00000000
00000010
00000000
,
00000001
00000000
00000000
00001000
,
00001001
00000000
00000001
00000000
,
00000100
00000000
00001000
00000000
,
00010000
00000000
00100000
00000000
,
10000000
00000000
00000000
00010000
,
10010000
00000000
00000000
01000000
,
01000000
00000000
00100000
00000000
,
10000000
00000000
01000000
00000000
,
00010000
00001000
00010000
00000000
,
00001000
00010000
00001000
00000000
,
00000100
00000000
00000001
00000000
,
00000010
00000000
00000100
00000000
,
00010000
00000000
00001000
00000000
,
00011000
00000000
00000000
00100000
,
00100000
00000000
00010000
00000000
,
01000000
00000000
00001000
00000000
,
00010000
00000000
00000100
00000000
,
00001000
00000000
00000001
00000000
,
00000100
00000000
00001000
00000000
,
00010000
00000000
00100000
00000000
,
10000000
00000000
01000000
00000000
,
01100000
00000000
00000000
00000000
,
00100000
00000000
00001000
00010000
,
00001000
00000000
00010000
00001000
,
00020000
00000000
00030000
00000000
,
00000100
00000000
00001000
00000000
,
00000001
00000000
00000100
00000010
,
00000100
00000000
00000220
00000330
,
00000001
00000000
00000100
00001000
,
00010000
00000000
00000000
00011000
,
00000010
00000000
00000100
00000000
,
00000001
00000000
00000010
00000000
,
00001000
00010000
00001000
00000000
,
00010000
00001000
00010000
00000000
,
00100000
00000000
10000000
00000000
,
01000000
00000000
00100000
00000000
,
00001000
00000000
00010000
00000000
,
00011000
00000000
00000000
00000100
,
00000100
00000000
00001000
00000000
,
00000010
00000000
00010000
00000000
,
00001000
00000000
00100000
00000000
,
00010000
00000000
10000000
00000000
,
00100000
00000000
00010000
00000000
,
00001000
00000000
00000100
00000000
,
00000001
00000000
00000010
00000000
,
00001000
00010000
00011000
00000000
,
00000100
00000000
00001000
00000000
,
00000010
00000000
00000100
00000000
,
00000001
00000000
00000010
00000000
,
00001000
00010000
00022000
00000000
,
00033000
00000000
00000000
00000000
;

//---------------dance-double - ----------------
#NOTEDATA:;
#CHARTNAME:;
#STEPSTYPE:dance-double;
#DESCRIPTION:;
#CHARTSTYLE:;
#DIFFICULTY:Medium;
#METER:7;
#RADARVALUES:0.288651,0.304975,0.196758,0.491895,0.000000,267.000000,241.000000,26.000000,65.000000,0.000000,0.000000,0.000000,0.000000,0.000000,0.288651,0.304975,0.196758,0.491895,0.000000,267.000000,241.000000,26.000000,65.000000,0.000000,0.000000,0.000000,0.000000,0.000000;
#CREDIT:MILEN;
#NOTES:
00000000
00000000
00000000
00000000
,
00000000
00000000
00000000
00000000
,
00001000
00010000
00100000
01000000
,
00200000
00000000
00000000
10000000
10300000
00000000
00100000
00000000
,
00010000
00001000
00000100
00000010
,
00000200
00000000
00000000
00000001
00000301
00000000
00000100
00000000
,
00002000
00023000
00230000
02300000
,
03020000
00230000
00301000
00011000
,
00020000
00032000
00003200
00000320
,
00002030
00000000
00003200
00000000
00010300
00000000
00010000
00001000
,
00200000
02300000
23000000
30200000
,
00320000
00032000
00003200
00000301
,
00000101
00000000
00000001
00000000
00000010
00000000
00001000
00010000
,
00002000
00003000
00010000
00011000
,
00002000
00003200
00000320
00000032
,
00000203
00000000
00002300
00000000
00023000
00000000
00130000
10000000
,
02000000
00000000
00000000
00000000
00000000
00000000
03100000
00100000
,
00100000
00000000
00000000
00000000
00000000
00001000
00010000
00000000
,
00022000
00000000
00000000
00000000
00033000
00010000
00001000
00000000
,
00000100
00000001
00000010
00000001
,
00000100
00001000
00011000
00000000
,
01000000
00010000
00011000
00000100
,
00002002
00000000
00000000
00000000
00003003
00000001
00000100
00000000
,
00001000
00010000
01000000
10000000
,
01100000
00010000
00001000
00000110
,
00002002
00000000
00000000
00000000
00003003
00000000
00001000
00000100
,
00010000
00000000
00001000
01000000
00010000
00000000
01000000
00001000
,
00010000
00000000
00100000
00000000
10000000
00000000
01000000
00100000
,
01000000
00000000
00010000
00000000
00022000
00000000
00033000
00001000
,
00010000
00000000
01000000
00000000
10000000
00000000
00100000
00010000
,
00001000
00000000
00010000
00000010
00001000
00000000
00000010
00010000
,
00001000
00000000
00000100
00000000
00000001
00000000
00000010
00000100
,
00000010
00000000
00001000
00000000
00022000
00000000
00033000
00010000
,
00001000
00000100
00000001
00000020
,
00000230
00000000
00000000
00000300
,
00000000
00020000
00000000
00000000
00000000
00000000
00030000
00000000
,
00002000
00000000
00000000
00000000
00003000
00000000
00100000
00100000
,
01000000
10000000
00100000
00010000
,
00002000
00000000
00000000
00103000
00100000
00000000
00010000
00000000
,
01000000
00002000
00020000
00003000
,
00001000
00001000
00001000
00031000
,
00011000
00011000
00000000
00000000
00000000
00000000
00001000
00010000
,
00022000
00000000
00000000
00000000
00033000
00001000
00010000
00000000
,
01000000
10000000
00100000
10000000
,
01000000
00010000
00011000
00000000
,
00000100
00001000
00011000
01000000
,
20020000
00000000
00000000
00000000
30030000
10000000
01000000
00000000
,
00010000
00001000
00000100
00000001
,
00000110
00001000
00010000
01100000
,
20020000
00000000
00000000
00000000
30030000
00000000
00010000
01000000
,
00001000
00000000
00010000
00000100
00001000
00000000
00000100
00010000
,
00001000
00000000
00000010
00000000
00000001
00000000
00000100
00000010
,
00000100
00000000
00001000
00000000
00022000
00000000
00033000
00010000
,
00001000
00000000
00000100
00000000
00000001
00000000
00000010
00001000
,
00010000
00000000
00001000
00100000
00010000
00000000
00100000
00001000
,
00010000
00000000
01000000
00000000
10000000
00000000
00100000
01000000
,
00100000
00000000
00010000
00000000
00022000
00000000
00033000
00001000
,
00010000
01000000
10000000
00200000
,
02300000
03020000
00230000
00302000
,
00023000
00000000
00030200
00000000
00000320
00000000
00000031
00000100
,
00001100
00000000
00001000
00000000
00011000
00000000
00010000
00100000
,
10000000
01000000
00100000
00010000
,
00011000
00000000
00000000
00000000
;

//---------------dance-double - ----------------
#NOTEDATA:;
#CHARTNAME:;
#STEPSTYPE:dance-double;
#DESCRIPTION:;
#CHARTSTYLE:;
#DIFFICULTY:Hard;
#METER:8;
#RADARVALUES:0.348110,0.375354,0.287569,0.507030,0.056757,322.000000,284.000000,38.000000,67.000000,0.000000,0.000000,0.000000,0.000000,0.000000,0.348110,0.375354,0.287569,0.507030,0.056757,322.000000,284.000000,38.000000,67.000000,0.000000,0.000000,0.000000,0.000000,0.000000;
#CREDIT:MILEN;
#NOTES:
00000000
00000000
00000000
00000000
,
00000000
00000000
00000000
00000000
,
00001000
01000000
00001000
00000000
00010000
00000100
00010000
00001000
,
00200000
00000000
00000000
01000000
01300000
00000000
01000000
00010000
,
00010000
00000100
00010000
00000000
00001000
01000000
00001000
00010000
,
00000200
00000000
00000000
00000010
00000310
00000000
00000010
00000001
,
00000100
00000000
00000100
00001000
00010000
00000000
00001000
00010000
,
00100000
00000000
00100000
10000000
01000000
00000000
01100000
00000000
,
00100000
00010000
01000000
00000000
00001000
00010000
00000100
00000000
,
00010000
00001000
00100000
00000000
00001000
00010000
00001000
00000100
,
00000002
00000023
00000230
00002300
,
00003020
00000000
00020030
00000000
00031000
00100000
01000000
10000000
,
00200000
00000000
01300000
00000000
00200000
00000000
10300000
01000000
,
00200000
00000000
00000000
00010000
00310000
00000000
00101000
00000000
,
00002000
00023000
00230000
02300000
,
03020000
00000000
00000000
00000000
20030000
00000000
00000000
00000000
31000000
00000000
00000000
00100000
00000000
00000000
00010000
00000000
,
02010000
00000000
03001000
00000000
00021000
00000000
00030010
00000100
,
00000110
00000000
00000000
00000000
00000000
00000000
00000010
00010000
,
00022000
00000000
00000000
00000000
00033000
00001000
00010000
01000000
,
10000000
00000000
00000000
00100000
00000000
00000000
01100000
00000000
00000000
00000000
00000000
00000000
10000000
00000000
01000000
00000000
,
00010000
00000000
00000000
00001000
00000000
00000000
00000010
00000000
00000010
00000000
00000000
00000000
00000001
00000000
00000010
00000000
,
00001000
00000000
00000000
00010000
00000000
00000000
00100000
00000000
00100000
00000000
00000000
00000000
10000000
00000000
00000000
00000000
,
02200000
00000000
00000000
00000000
03300000
01000000
00010000
01000000
,
00001000
00000000
00000000
00010000
00000000
00000000
00010100
00000000
00000000
00000000
00000100
00000000
00000010
00000000
00000001
00000000
,
00000100
00001100
00010000
00011000
,
02200000
00000000
00000000
00000000
03300000
00000000
00100000
10000000
,
12000000
00100000
10000000
03020000
,
00032000
00000000
00003020
00000000
00000032
00000000
00000103
00000100
,
00000110
00001000
00000110
00000001
,
00001000
00000100
00000010
00000001
00000110
00000000
00000100
00000001
,
00000201
00000010
00000001
00002300
,
00023000
00000000
00230000
00000000
20300000
00000000
31000000
01000000
,
01100000
00010000
01100000
10000000
,
10010000
00000000
00000000
00000000
,
00002000
00003000
00010000
00001000
,
00000200
00000300
00000001
00001000
,
00002200
00000000
00000000
00000000
00003300
00000000
00000100
00010000
,
00001000
00000000
00000000
00010000
00000000
00000000
00100000
00000000
00000000
10000000
00000000
00000000
01000000
00000000
00000000
00000000
,
02200000
00000000
03300000
01000000
00010000
00000000
00001000
00000000
,
00010000
00000000
00000000
00000100
00000000
00000000
00000020
00000000
00000000
00000000
00000000
00000000
00000030
00000000
00000010
00000000
,
00000010
00000000
00000000
00000001
00000000
00000000
00000100
00000000
00000000
00001000
00000000
00000000
00010000
00000000
00000000
00000000
,
00001000
00010000
00001000
00000000
00000000
00000000
00000000
00000000
00000000
00000000
00000000
00000000
00100000
00000000
00001000
00000000
,
00022000
00000000
00000000
00000000
00033000
00010000
00001000
00000100
,
00000001
00000000
00000000
00000010
00000000
00000000
00000110
00000000
00000000
00000000
00000000
00000000
00000001
00000000
00000100
00000000
,
00001000
00000000
00000000
00010000
00000000
00000000
00100000
00000000
00100000
00000000
00000000
00000000
10000000
00000000
00100000
00000000
,
00010000
00000000
00000000
00001000
00000000
00000000
00000010
00000000
00000010
00000000
00000000
00000000
00000001
00000000
00000000
00000000
,
00000220
00000000
00000000
00000000
00000330
00000100
00001000
00000100
,
00010000
00000000
00000000
00001000
00000000
00000000
01001000
00000000
00000000
00000000
01000000
00000000
00100000
00000000
10000000
00000000
,
01000000
01010000
00001000
00011000
,
00000220
00000000
00000000
00000000
00000330
00000000
00000010
00000001
,
00000201
00000010
00000001
00002300
,
00023000
00000000
00230000
00000000
20300000
00000000
31000000
01000000
,
01100000
00010000
01100000
10000000
,
00010000
01000000
00100000
10000000
01100000
00000000
01000000
10000000
,
12000000
00100000
10000000
03020000
,
00032000
00000000
00003020
00000000
00000032
00000000
00000103
00000100
,
00000110
00001000
00000110
00000001
,
00000010
00000100
00010000
00001000
00100000
01000000
10000000
00100000
,
02100000
03020000
00230000
00302000
,
00023000
00030200
00000320
00000032
,
00000203
00001000
00010000
00001000
,
00000301
00000000
00000001
00000000
00000010
00001000
00010000
01000000
,
11000000
00000000
00000000
00000000
;
