#TITLE:LIFE;
#SUBTITLE:;
#ARTIST:Yui;
#TITLETRANSLIT:;
#SUBTITLETRANSLIT:;
#ARTISTTRANSLIT:;
#GENRE:J-MUSIC;
#CREDIT:MUINELIM;
#BANNER:LIFE.png;
#BACKGROUND:LIFE-bg.png;
#LYRICSPATH:;
#CDTITLE:;
#MUSIC:LIFE.ogg;
#OFFSET:-0.032000;
#SAMPLESTART:62.379829;
#SAMPLELENGTH:12.501736;
#SELECTABLE:YES;
#BPMS:0.000000=115;
#STOPS:
;
#BGCHANGES:0.000=LIFE.avi=1.000=1=0=0=StretchNoLoop==CrossFade==,
99999=-nosongbg-=1.000=0=0=0 // don't automatically add -songbackground-
;
#KEYSOUNDS:;
#ATTACKS:;

//---------------dance-single - ----------------
#NOTES:
     dance-single:
     :
     Hard:
     10:
     0.404014,0.406843,0.281838,0.330431,0.072889,291.000000,262.000000,29.000000,34.000000,0.000000,0.000000,0.404014,0.406843,0.281838,0.330431,0.072889,291.000000,262.000000,29.000000,34.000000,0.000000,0.000000:
0000
0000
0000
0000
,
0000
0000
0000
0000
,
0000
0000
0000
0000
,
0000
0000
0000
0000
,
1000
0000
0000
0010
0000
0000
0100
0000
0000
0000
0100
0000
0001
0000
0010
0000
,
0100
0000
0000
1000
0000
0000
0100
0000
0000
0010
0000
0000
0001
0000
1000
0000
,
0001
0000
0000
0100
0000
0000
0010
0000
0000
0000
0010
0000
1000
0000
0100
0000
,
0010
0000
0000
0001
0000
0000
0010
0000
0000
0100
0000
0000
1000
0000
0001
0000
,
1000
1000
0010
0100
0001
1000
0000
1100
,
0000
0100
1000
0100
0010
0001
0100
0010
,
0200
0000
0001
0001
0000
1300
0100
0001
,
0010
0100
1000
0020
0000
0230
0000
0302
,
0000
1000
1003
0000
1000
1010
0000
0110
,
0000
0101
0000
0011
0000
1100
1000
0010
,
0200
0000
0301
0100
0020
0000
0001
0000
,
0000
1000
1030
0000
1000
0001
1001
0000
,
0001
0001
0010
0100
1000
0001
0000
0101
,
0000
0100
0001
0100
0010
1000
0100
0010
,
0200
0000
1000
1000
0000
0301
0100
1000
,
0001
0100
0010
1000
0001
0020
0000
0200
,
0000
0030
0000
1000
1000
1300
0000
1010
,
0000
0011
0000
0101
0000
1100
1000
0001
,
0200
0000
0000
0010
0020
0000
0330
0000
,
0010
0000
0000
1000
0000
0000
0001
0000
0000
0100
0010
0000
0100
0000
0100
0000
,
0001
0010
0100
0010
0001
0010
0100
0010
,
0000
0001
0101
0000
1000
0000
1010
1000
,
0100
0010
0100
1000
0100
0010
0100
1000
,
0000
0100
0010
0011
0000
0001
0100
0100
,
0010
2000
0000
0000
3001
0010
0100
1100
,
0000
1000
0010
0100
0002
1000
0003
1000
,
0110
0000
0010
0100
0001
0100
1000
0100
,
0000
0202
0000
0303
0000
0011
0000
0100
,
1000
0000
0010
0100
0001
1000
0100
0020
,
0000
0032
0000
0203
0000
0320
0000
1000
,
1030
0001
0101
0000
1000
1010
0000
0001
,
1001
2000
0000
3010
0100
0001
0010
0100
,
1000
0010
0001
0100
,
1000
0000
0000
0001
0000
0000
0200
0000
0000
0000
0310
0000
0110
0000
0100
0000
,
0001
0010
1000
0010
0100
0010
0001
2000
,
0000
0200
0000
3300
0000
1000
0010
0100
,
0101
0000
1010
0010
0100
0002
0000
0023
,
0000
0000
0230
0000
0000
0000
2300
0000
0000
0000
0001
0000
0000
0001
0000
0000
,
3001
0000
0110
0200
0000
0302
0000
0023
,
0000
2030
0000
3020
0000
0031
0100
1010
,
0000
0000
1000
0000
0001
0000
0000
0100
0000
0000
1000
0000
0000
0000
0010
0000
,
0001
0100
0001
0010
0001
1000
1001
0000
,
0001
0000
0000
0100
0000
0000
0010
0000
0000
0000
0010
0000
1000
0000
0100
0000
,
0001
0000
0000
0010
0000
0000
1000
0000
0000
0001
0000
0000
0100
0000
0010
0000
,
1000
0000
0000
0100
0000
0000
0010
0000
0000
0000
0010
0000
0001
0000
0100
0000
,
2002
3003
0000
0000
;

//---------------dance-double - ----------------
#NOTES:
     dance-double:
     :
     Hard:
     10:
     0.404014,0.406843,0.349868,0.204090,0.072889,291.000000,255.000000,36.000000,21.000000,0.000000,0.000000,0.404014,0.406843,0.349868,0.204090,0.072889,291.000000,255.000000,36.000000,21.000000,0.000000,0.000000:
// measure 0
00000000
00000000
00000000
00000000
,  // measure 1
00000000
00000000
00000000
00000000
,  // measure 2
00000000
00000000
00000000
00000000
,  // measure 3
00000000
00000000
00000000
00000000
,  // measure 4
00001000
00000000
00000000
00010000
00000000
00000000
01000000
00000000
00000000
00000000
01000000
00000000
10000000
00000000
00100000
00000000
,  // measure 5
01100000
00000000
00000000
01000000
00000000
00000000
00011000
00000000
00000000
00001000
00000000
00000000
01000000
00000000
00001000
00000000
,  // measure 6
00010000
00000000
00000000
00001000
00000000
00000000
00000100
00000000
00000000
00000000
00000100
00000000
00000001
00000000
00000010
00000000
,  // measure 7
00000110
00000000
00000000
00000100
00000000
00000000
00011000
00000000
00000000
00010000
00000000
00000000
00000100
00000000
00010000
00000000
,  // measure 8
00001000
00001000
00100000
00010000
10000000
00100000
00000000
01100000
,  // measure 9
00000000
01000000
00010000
01000000
00001000
00010000
00000100
00001000
,  // measure 10
00000002
00000000
00000100
00000100
00000000
00000013
00000100
00001000
,  // measure 11
00000100
00010000
00001000
00101000
00000000
00110000
00000000
02010000
,  // measure 12
00000000
00100000
03100000
00000000
10000000
11000000
00000000
00010000
,  // measure 13
00000000
00011000
00000000
00000100
00000000
00000101
00000001
00001000
,  // measure 14
00000020
00000000
00010030
00001000
00200000
00000000
01000000
00000000
,  // measure 15
00000000
00010000
00310000
00000000
01000000
00000000
00011000
00000000
,  // measure 16
00010000
00010000
00000010
00001000
00000001
00000010
00000000
00000110
,  // measure 17
00000000
00000100
00001000
00000100
00010000
00001000
01000000
00010000
,  // measure 18
20000000
00000000
01000000
01000000
00000000
30100000
01000000
00010000
,  // measure 19
00100000
00001000
00010000
00000100
00000010
00000002
00000000
00002000
,  // measure 20
00000000
00000003
00000000
00000010
00000010
00003010
00000000
00001100
,  // measure 21
00000000
00010000
00000000
00011000
00000000
01000000
00010000
10000000
,  // measure 22
00200000
00000000
00000000
01000000
02000000
00000000
03300000
00000000
,  // measure 23
00100000
00000000
00000000
00010000
00000000
00000000
00001000
00000000
00000000
00000100
00000010
00000000
00000100
00000000
00000100
00000000
,  // measure 24
00000001
00000010
00001000
00010000
,  // measure 25
01000000
10000000
10100000
00000000
00010000
00000000
01010000
10000000
,  // measure 26
10000000
00100000
00010000
00001000
,  // measure 27
00000100
00000001
00000010
00000011
00000000
00001000
00000010
00000010
,  // measure 28
00010000
00002000
00000000
00000000
00103000
00100000
01000000
11000000
,  // measure 29
00000000
10000000
00100000
00010000
00001000
00000200
00000000
00000301
,  // measure 30
00001001
00000000
00001000
00000010
00010000
00001000
00100000
00010000
,  // measure 31
01000000
00200000
00000000
00300000
00000000
10100000
00000000
10000000
,  // measure 32
01000000
00000000
00010000
01000000
10000000
00100000
01000000
01010000
,  // measure 33
00000000
00001000
00000000
00011000
00000000
00000100
00000000
00001000
,  // measure 34
00000100
00000010
00000011
00000000
00000001
00000100
00000000
00001000
,  // measure 35
00011000
00020000
00000000
00130000
10000000
00100000
01000000
00010000
,  // measure 36
00100000
01000000
00010000
00001000
,  // measure 37
00000010
00000000
00000000
00000001
00000000
00000000
00000200
00000000
00000000
00000000
00000310
00000000
00001010
00000000
00000000
00000000
,  // measure 38
00001000
00000100
00010000
00001000
00100000
01000000
10000000
00100000
,  // measure 39
00010000
00002000
00000000
00003000
00000000
00011000
00000000
00000100
,  // measure 40
00001001
00000000
00000001
00000010
00001000
00020000
00000000
00030200
,  // measure 41
00000000
00000000
00000320
00000000
00000000
00000000
00002030
00000000
00000000
00000000
00013000
00000000
00000000
01000000
00000000
00000000
,  // measure 42
10000000
00000000
01100000
00010000
00000000
01001000
00000000
00010000
,  // measure 43
00000000
00001100
00000000
00000010
00000000
00001000
00000001
00000101
,  // measure 44
00000000
00000000
00001000
00000000
00000010
00000000
00000000
00010000
00000000
00000000
00001000
00000000
00000000
00000000
00100000
00000000
,  // measure 45
01000000
10000000
00100000
00010000
00001000
00010000
00011000
00000000
,  // measure 46
00001000
00000000
00000000
00000100
00000000
00000000
00000001
00000000
00000000
00000000
00000010
00000000
00000100
00000000
00010000
00000000
,  // measure 47
00001000
00000000
00000000
00101000
00000000
00000000
01000000
00000000
00000000
01010000
00000000
00000000
10000000
00000000
00100000
00000000
,  // measure 48
00010000
00000000
00000000
00001000
00000000
00000000
00000100
00000000
00000000
00000000
00000001
00000000
00000010
00000000
00001000
00000000
,  // measure 49
00022000
00033000
00000000
00000000
;

//---------------dance-single - ----------------
#NOTES:
     dance-single:
     :
     Challenge:
     13:
     0.608104,0.646162,0.690017,0.641424,0.315853,438.000000,367.000000,71.000000,66.000000,0.000000,0.000000,0.608104,0.646162,0.690017,0.641424,0.315853,438.000000,367.000000,71.000000,66.000000,0.000000,0.000000:
0000
0000
0000
0000
,
0000
0000
0000
0000
,
0000
0000
0000
0000
,
0000
0000
0000
0000
0000
0000
0001
0010
0100
1000
0010
0000
0010
0100
0001
0000
,
1000
0100
1000
0200
0000
0000
0001
0000
0000
0000
1300
0000
0010
0000
0100
0000
,
0001
0010
0000
0010
1000
0000
1000
0100
0000
0100
0001
0000
2000
0000
3001
0000
,
0001
0010
0001
0020
0000
0000
1000
0000
0000
0000
0031
0000
0100
0000
0010
0000
,
1000
0100
0000
0100
0001
0000
0001
0010
0100
0000
0100
0000
1000
0010
0100
0000
,
0001
1000
0100
0010
0001
0202
0303
2020
,
3030
0000
1001
0000
0001
0000
0010
0000
1000
0000
0001
0000
0100
0000
1000
0010
,
0200
0000
1000
1000
0000
0301
0100
0010
,
0001
1000
0100
0220
0330
2020
3030
0202
,
0000
0303
0011
0001
1000
2200
3300
0202
,
0303
0022
0033
2020
3030
1001
0001
0100
,
2000
0000
0000
0000
3100
0000
0010
0100
0010
0000
0000
0000
1001
0000
0000
0000
,
1000
0000
0010
0000
0100
0001
0010
0000
0010
0000
0100
0000
1000
0010
0100
0000
,
0001
1000
0010
0100
0001
0022
0033
2200
,
3300
1000
0010
0001
1000
0100
0001
0020
,
0100
0030
1001
0000
1000
1000
0100
0001
,
1000
0010
0100
1000
0001
0202
0303
2020
,
0000
3030
1100
0100
0010
0022
0033
0202
,
0303
2200
3300
2020
3030
0110
0100
0001
,
0020
0000
0000
0000
0130
0000
1000
0001
1000
0000
0000
0000
0110
0000
0100
0000
,
0001
0000
0010
0000
0100
1000
0010
0000
0010
0000
0100
0000
0001
0010
0100
1000
,
0001
0000
0010
0001
1000
0000
0100
1000
0001
0000
0100
0000
0010
0000
1000
0000
,
0001
0000
0010
0000
0100
0000
1000
0010
0000
0010
0001
0000
0101
0000
1000
0010
,
0100
0000
0001
0100
0010
0000
1000
0010
0100
0000
0001
0000
0010
0000
0200
0000
,
2000
0000
3300
0000
1100
0000
1100
0000
0000
0000
0101
0000
0001
0010
0001
0000
,
1000
1010
0001
0011
1000
1100
0001
0101
,
0110
0000
0110
0000
1001
0000
0010
0100
0010
0000
0200
0000
0000
0000
0301
0000
,
0001
0010
1000
0000
0001
0100
1000
0000
0001
0010
1000
0000
0001
0100
1000
0000
,
0010
0102
1003
2010
3001
0001
0100
1000
,
0110
0000
1000
1000
0010
0001
0100
2200
,
3300
0000
2020
0000
3030
0000
0022
0000
0033
0000
0101
0000
0100
0010
1000
0000
,
0001
0011
0011
0000
1010
1010
0000
1100
,
1100
0101
0000
1001
0100
0110
0010
1001
,
1000
0000
0010
0000
0100
0000
0001
0010
0000
0010
1000
0000
1100
0000
0001
0000
,
2000
0000
0000
3020
0000
0000
0130
0000
0001
0000
0010
0000
0100
1000
0100
0000
,
1000
0010
0001
0000
1000
0100
0001
0000
1000
0010
0001
0000
1000
0100
0001
0000
,
0010
2100
3001
0012
1003
1000
0010
0001
,
0110
0000
1000
0010
0001
0100
1000
2020
,
3030
0000
0022
0000
0033
0000
2200
0000
3300
0000
0101
0000
0000
0011
0000
0000
,
1010
0000
1000
0010
0100
0000
0001
0000
0011
0000
0010
0001
1000
0000
0100
0000
,
1100
0000
1000
0001
0010
0000
0001
0000
0101
0000
0100
0010
1000
0000
0010
0000
,
1010
0000
0100
0000
0001
0000
0010
1000
0000
1000
0100
0000
0001
0000
1000
0000
,
1010
0000
0000
0011
0000
0000
0101
0000
1000
0010
0100
0001
1000
0100
0010
0001
,
1000
0010
1000
0020
0000
0000
0001
0000
0000
0000
1030
0000
0100
0000
0001
0000
,
1000
0010
0000
0010
0001
0000
0001
0100
0000
0100
1000
0000
0001
0000
0010
0000
,
0100
0001
0010
0200
0000
0000
0001
0000
0000
0000
1300
0000
0010
0000
0001
0000
,
2002
3003
0000
0000
;

//---------------dance-double - ----------------
#NOTES:
     dance-double:
     :
     Challenge:
     13:
     0.590055,0.622230,0.738610,0.213808,0.257542,425.000000,349.000000,76.000000,22.000000,0.000000,0.000000,0.590055,0.622230,0.738610,0.213808,0.257542,425.000000,349.000000,76.000000,22.000000,0.000000,0.000000:
00000000
00000000
00000000
00000000
,
00000000
00000000
00000000
00000000
,
00000000
00000000
00000000
00000000
,
00000000
00000000
00000000
00000000
00000000
00000000
00010000
00001000
00010000
00001000
00010000
00000000
00000100
00001000
00000100
00000000
,
00000010
00000001
00000010
00000002
00000000
00000000
00000203
00000000
00000000
00000000
00001300
00000000
00010000
00000000
00100000
00000000
,
10100000
00000000
00000000
11000000
00000000
00000000
01010000
00000000
00000000
00011000
00000000
00000000
00001000
00000000
00010000
00000000
,
01000000
10000000
01000000
20000000
00000000
00000000
30200000
00000000
00000000
00000000
00310000
00000000
00001000
00000000
00000100
00000000
,
00000101
00000000
00000000
00000011
00000000
00000000
00000010
00000100
00000010
00000000
00001000
00000000
00010000
00001000
00010000
00000000
,
01000000
10000000
00100000
01000000
00010000
00110000
00000000
00001100
,
00000000
00000000
00001001
00000000
00001000
00000000
00000010
00000000
00000100
00000000
00000001
00000000
00000010
00000000
00000100
00010000
,
00000200
00000000
00000001
00000001
00000000
00000310
00000001
00000100
,
00001000
00010000
00100000
10100000
00000000
01010000
00000000
00002020
,
00000000
00003030
00000101
00000001
00000010
00000011
00000000
00001100
,
00000000
00110000
00000000
11000000
00000000
10010000
00010000
01000000
,
00002000
00000000
00000000
00000000
00013000
00000000
00000100
00001000
00000100
00000000
00000000
00000000
00000110
00000000
00000000
00000000
,
00000010
00000000
00000001
00000000
00000100
00001000
00000100
00000000
00001000
00000000
00010000
00000000
00100000
10000000
00100000
00000000
,
10000000
01000000
00100000
00010000
01000000
01001000
00000000
00010010
,
00000000
00010000
00001000
00000100
00000010
00001000
00000100
00000020
,
00000001
00000000
00001030
00000000
00001000
00001000
00010000
01000000
,
10000000
00100000
01000000
00001000
00010000
00010100
00000000
00202000
,
00000000
00303000
00101000
00100000
01000000
11000000
00000000
00101000
,
00000000
00010010
00000000
00000101
00000000
00001001
00001000
00000010
,
00020000
00000000
00000000
00000000
00031000
00000000
00100000
01000000
00100000
00000000
00000000
00000000
01100000
00000000
10000000
00000000
,
00100000
00000000
00010000
00000000
00001000
00010000
00001000
00000000
00000100
00000000
00000001
00000000
00000010
00000100
00001000
00000001
,
00001000
00000000
00000010
00000100
00000010
00000000
00010000
00001000
00010000
00000000
00100000
00000000
10000000
00000000
01000000
00000000
,
00100000
00000000
00010000
00000000
01000000
00000000
01001000
00000000
00000000
00010100
00000000
00000000
00011000
00000000
00010000
00001000
,
00010000
00000000
00100000
01000000
00100000
00000000
10000000
00010000
10000000
00000000
01000000
00000000
00010000
00000000
00001000
00000000
,
00000020
00000000
00000000
00000000
00000001
00000000
00000031
00000000
00000000
00000000
00001001
00000000
00001000
00000010
00001000
00000000
,
00000100
00010100
00010000
00011000
00001000
01001000
01000000
01100000
,
00100000
00000000
10100000
00000000
10100000
00000000
10000000
01000000
00100000
00000000
00002000
00000000
00000000
00000000
00013000
00000000
,
00010000
00001000
00000100
00000000
00000010
00001000
00000100
00000000
00010000
00001000
00000100
00000000
00000010
00001000
00000100
00000000
,
00000010
00000011
00000100
00001100
00001000
00000010
00000100
00000001
,
00001001
00000000
00001000
00000100
00010000
01000000
10000000
10100000
,
00000000
00000000
00110000
00000000
00000000
00000000
00011000
00000000
00000000
00000000
00001100
00000000
00000100
00000010
00000100
00000000
,
00000001
00000010
00001010
00000000
00001000
00011000
00000000
00010000
,
00110000
10100000
00000000
11000000
01000000
01010000
00010000
00011000
,
00001000
00000000
00100000
00000000
01000000
00000000
00010000
00001000
00000000
00001000
00010000
00000000
00000100
00000000
00000010
00000000
,
00000002
00000000
00000000
00000203
00000000
00000000
00001300
00000000
00010000
00000000
00100000
00000000
10000000
01000000
10000000
00000000
,
00100000
00010000
00001000
00000000
00000010
00001000
00010000
00000000
00100000
00010000
00001000
00000000
00000010
00001000
00010000
00000000
,
00100000
10100000
01000000
01010000
00010000
00100000
00001000
00010000
,
00010010
00000000
00000010
00001000
00000100
00000010
00000001
00000101
,
00000000
00000000
00001100
00000000
00000000
00000000
00011000
00000000
00000000
00000000
00110000
00000000
00000000
10100000
00000000
00000000
,
10010000
00010000
01000000
00001000
00011000
00010000
00000100
00000010
,
00000011
00000001
00000100
00000010
00001010
00001000
00010000
01000000
,
01100000
00000000
00100000
00000000
10000000
00000000
01000000
00010000
00000000
00010000
00001000
00000000
00010000
00000000
00000100
00000000
,
00001100
00000000
00000000
00000011
00000000
00000000
00001001
00000000
00001000
00000010
00001000
00000000
00000001
00000100
00000001
00000000
,
00000100
00001000
00000100
00002000
00000000
00000000
00023000
00000000
00000000
00000000
00130000
00000000
10000000
00000000
01000000
00000000
,
01100000
00000000
00000000
00101000
00000000
00000000
00011000
00000000
00000000
00010010
00000000
00000000
00000110
00000000
00000100
00000000
,
00000001
00000010
00000001
00000020
00000000
00000000
00002030
00000000
00000000
00000000
00013000
00000000
01000000
00000000
10000000
00000000
,
20020000
30030000
00000000
00000000
;

//---------------dance-single - ----------------
#NOTES:
     dance-single:
     :
     Beginner:
     1:
     0.080525,0.142863,0.009719,0.000000,0.000000,58.000000,57.000000,1.000000,0.000000,0.000000,0.000000,0.080525,0.142863,0.009719,0.000000,0.000000,58.000000,57.000000,1.000000,0.000000,0.000000,0.000000:
0000
0000
0000
0000
,
0000
0000
0000
0000
,
0000
0000
0000
0000
,
0000
0000
0000
0000
,
1000
0000
0000
0000
,
0100
0000
0000
0000
,
0010
0000
0000
0000
,
0001
0000
0000
0000
,
0100
0000
0000
0000
,
0100
0000
0000
0000
,
0100
0000
0000
0000
,
0010
0000
0000
0000
,
0010
0000
0000
0000
,
0010
0000
0000
0000
,
1000
0000
0000
0000
,
0001
0000
0000
0000
,
1000
0000
0000
0000
,
1000
0000
0000
0000
,
1000
0000
0000
0000
,
0001
0000
0000
0000
,
0001
0000
0000
0000
,
0001
0000
0000
0000
,
0100
0000
0000
0000
,
0010
0000
0000
0000
,
0100
0000
0100
0000
,
0100
0000
0000
0000
,
0001
0000
0001
0000
,
0001
0000
0001
0000
,
1000
0000
1000
0000
,
1000
0000
0000
0000
,
0010
0000
0000
0000
,
0100
0000
0000
0000
,
0010
0000
0000
0000
,
0100
0000
0000
0000
,
0010
0000
0010
0000
,
0010
0000
0010
0000
,
0010
0000
0000
0000
,
1001
0000
0000
0000
,
1000
0000
0000
0000
,
0001
0000
0000
0000
,
1000
0000
0000
0000
,
0001
0000
0000
0000
,
1000
0000
1000
0000
,
1000
0000
1000
0000
,
0001
0000
0001
0000
,
0001
0001
0001
0000
,
0100
0000
0000
0000
,
1000
0000
0000
0000
,
0010
0000
0000
0000
,
0001
0000
0000
0000
;

//---------------dance-single - ----------------
#NOTES:
     dance-single:
     :
     Easy:
     4:
     0.172157,0.215387,0.048593,0.106904,0.000000,124.000000,119.000000,5.000000,11.000000,0.000000,0.000000,0.172157,0.215387,0.048593,0.106904,0.000000,124.000000,119.000000,5.000000,11.000000,0.000000,0.000000:
0000
0000
0000
0000
,
0000
0000
0000
0000
,
0000
0000
0000
0000
,
0000
0000
0000
0000
,
1000
1000
1000
0000
,
0001
0000
1000
0000
,
0001
0001
0001
0000
,
1000
0000
0001
0000
,
0100
0010
1000
0000
,
0010
0100
0001
0000
,
2002
0000
3003
1000
,
0001
1000
0001
0001
,
1000
0000
0010
0010
,
0100
0000
0010
0100
,
0020
0030
0200
0300
,
0010
1000
0001
0100
,
0001
0010
0100
0000
,
1000
0100
0010
0000
,
0220
0000
0330
0100
,
0010
0100
0010
0010
,
0100
0000
1000
0001
,
0010
0000
0001
1000
,
0100
0000
1001
0000
,
1000
0001
1000
0001
,
1000
0000
0010
0000
,
0001
0000
0100
0000
,
0001
0000
0010
0000
,
1000
0000
0100
0100
,
1000
0100
0010
0001
,
1000
0100
0020
0030
,
0001
0000
0100
0000
,
1000
0000
0100
0000
,
0001
0000
0100
0000
,
1000
0000
0100
0000
,
0001
1000
0010
0000
,
1000
0001
0100
0000
,
0002
0000
0000
1003
,
0001
1000
1001
0000
,
1000
0000
0010
0000
,
0001
0000
0010
0000
,
1000
0000
0010
0000
,
0001
0000
0010
0000
,
1000
0000
0100
0000
,
0010
0000
0001
0000
,
0100
0000
0010
0000
,
0100
0010
0200
0300
,
0010
0010
0010
0000
,
1000
0000
0001
0000
,
0100
0100
0100
0000
,
2002
3003
0000
0000
;

//---------------dance-double - ----------------
#NOTES:
     dance-double:
     :
     Easy:
     5:
     0.173546,0.215387,0.058311,0.106904,0.000000,125.000000,119.000000,6.000000,11.000000,0.000000,0.000000,0.173546,0.215387,0.058311,0.106904,0.000000,125.000000,119.000000,6.000000,11.000000,0.000000,0.000000:
// measure 0
00000000
00000000
00000000
00000000
,  // measure 1
00000000
00000000
00000000
00000000
,  // measure 2
00000000
00000000
00000000
00000000
,  // measure 3
00000000
00000000
00000000
00000000
,  // measure 4
00001000
01000000
00001000
00000000
,  // measure 5
00010000
00000000
00001000
00000000
,  // measure 6
00010000
00000010
00010000
00000000
,  // measure 7
00001000
00000000
00010000
00000000
,  // measure 8
01000000
10000000
00100000
00000000
,  // measure 9
00100000
00010000
00001000
00000000
,  // measure 10
00022000
00000000
00033000
00010000
,  // measure 11
00001000
00010000
00000100
00000100
,  // measure 12
00000010
00000000
00000001
00000001
,  // measure 13
00001000
00000000
00000010
00010000
,  // measure 14
00002000
00003000
00200000
00300000
,  // measure 15
01000000
00010000
00001000
00011000
,  // measure 16
00000100
00000001
00000010
00000000
,  // measure 17
00000010
00001000
00010000
00000000
,  // measure 18
00022000
00000000
00033000
00001000
,  // measure 19
00100000
01000000
10000000
10000000
,  // measure 20
00010000
00000000
00100000
00100000
,  // measure 21
01000000
00000000
00010000
00010000
,  // measure 22
00001000
00000000
00011000
00000000
,  // measure 23
00010000
00000100
00001000
00000100
,  // measure 24
00000010
00000000
00000001
00000000
,  // measure 25
00000100
00000000
00001000
00000000
,  // measure 26
00010000
00000000
00100000
00000000
,  // measure 27
10000000
00000000
01000000
01000000
,  // measure 28
00100000
00010000
01000000
00100000
,  // measure 29
00010000
00001000
00020000
00030000
,  // measure 30
00000100
00000000
00001000
00000000
,  // measure 31
00000100
00000000
00000001
00000000
,  // measure 32
00000100
00000000
00001000
00000000
,  // measure 33
00000100
00000000
00000001
00000000
,  // measure 34
00000100
00001000
00000010
00000000
,  // measure 35
00010000
00001000
00100000
00000000
,  // measure 36
02000000
00000000
03000000
00100000
,  // measure 37
00010000
10000000
10010000
00000000
,  // measure 38
00100000
00000000
00010000
00000000
,  // measure 39
00100000
00000000
10000000
00000000
,  // measure 40
00100000
00000000
00010000
00000000
,  // measure 41
00100000
00000000
10000000
00000000
,  // measure 42
01000000
00000000
00100000
00000000
,  // measure 43
00001000
00000000
00010000
00000000
,  // measure 44
00000100
00000000
00000010
00000000
,  // measure 45
00000001
00001000
00000002
00000003
,  // measure 46
00000100
00001000
00010000
00000000
,  // measure 47
00100000
00000000
10000000
00000000
,  // measure 48
01000000
00010000
00001000
00000000
,  // measure 49
00022000
00033000
00000000
00000000
;

//---------------dance-single - ----------------
#NOTES:
     dance-single:
     :
     Medium:
     7:
     0.306829,0.358979,0.174934,0.116623,0.029156,221.000000,203.000000,18.000000,12.000000,0.000000,0.000000,0.306829,0.358979,0.174934,0.116623,0.029156,221.000000,203.000000,18.000000,12.000000,0.000000,0.000000:
0000
0000
0000
0000
,
0000
0000
0000
0000
,
0000
0000
0000
0000
,
0000
0000
0000
0000
,
0100
1000
0100
0010
,
0001
0000
0000
0001
0000
0000
0001
0000
0000
0001
0000
0000
0100
0000
0100
0000
,
0001
0010
0100
1000
,
0010
0000
0000
0010
0000
0000
0010
0000
0100
0000
0010
0000
0010
0000
0000
0000
,
1000
0000
0001
0000
1000
0100
0000
0100
,
1000
0000
0001
0000
1000
0000
0010
1000
,
0200
1000
0300
1100
,
1000
0001
0010
0100
,
0020
0030
0001
0100
,
0010
1000
0010
0100
,
0002
0000
0000
1000
1003
0000
1001
0000
,
1000
0001
0010
0000
0010
0001
0100
0000
,
0001
0000
1000
0000
0001
0100
0000
0100
,
0001
0000
1000
0000
0001
0000
0010
0001
,
0200
0001
0300
0101
,
0001
1000
0010
0100
,
0020
0030
1000
0100
,
0010
0001
0010
0100
,
2000
0000
0002
3003
,
0001
1000
0010
0000
0010
0100
0001
0000
,
0011
1010
1100
0101
,
0001
0010
0100
1000
,
1010
0011
0101
1100
,
1000
0000
0001
0100
0000
0100
0010
1000
,
1000
1100
0001
0011
,
0100
0010
0010
0100
0000
1001
0000
0000
,
1000
0000
0010
0000
0001
0000
0010
1000
,
0100
0000
1000
0000
0010
0000
0001
0010
,
1000
0100
1000
0010
,
0001
0100
1000
0001
,
1001
0100
0100
0000
1000
1000
0000
0010
,
0010
0010
0000
0001
1000
0001
0100
0000
,
0020
1000
0000
1030
,
1000
0000
0000
0001
0000
0000
1000
0000
0000
0000
0010
0000
0110
0000
0000
0000
,
0001
0000
0100
0000
1000
0000
0100
0001
,
0010
0000
0001
0000
0100
0000
1000
0100
,
0001
0010
0001
0100
,
1000
0000
0010
0000
0001
1000
0001
0000
,
2002
3003
1000
0010
,
0001
1000
0001
0100
,
1000
0010
0100
0010
,
1000
0001
0100
0010
1000
0001
0100
0000
,
0001
0010
0100
1000
,
0010
0000
0000
0010
0000
0000
0010
0000
0000
0010
0000
0000
0100
0000
0100
0000
,
0001
0010
1000
0100
,
2002
3003
0000
0000
;

//---------------dance-double - ----------------
#NOTES:
     dance-double:
     :
     Medium:
     7:
     0.290168,0.335047,0.126341,0.116623,0.034015,209.000000,196.000000,13.000000,12.000000,0.000000,0.000000,0.290168,0.335047,0.126341,0.116623,0.034015,209.000000,196.000000,13.000000,12.000000,0.000000,0.000000:
// measure 0
00000000
00000000
00000000
00000000
,  // measure 1
00000000
00000000
00000000
00000000
,  // measure 2
00000000
00000000
00000000
00000000
,  // measure 3
00000000
00000000
00000000
00000000
,  // measure 4
00001000
00010000
00000100
00001000
,  // measure 5
00000010
00000000
00000000
00000010
00000000
00000000
00000010
00000000
00000000
00000010
00000000
00000000
00000100
00000000
00000100
00000000
,  // measure 6
00000001
00000010
00001000
00010000
,  // measure 7
00100000
00000000
00000000
00100000
00000000
00000000
00100000
00000000
10000000
00000000
01000000
00000000
01000000
00000000
00000000
00000000
,  // measure 8
10000000
00000000
00100000
00000000
00010000
00001000
00000000
00001000
,  // measure 9
00010000
00000000
00100000
00000000
10000000
00000000
01000000
00010000
,  // measure 10
00002000
00000100
00003000
00011000
,  // measure 11
00010000
00001000
00000100
00000001
,  // measure 12
00000020
00000030
00000001
00000100
,  // measure 13
00001000
00010000
00100000
00010000
,  // measure 14
00002000
00000000
00000000
00010000
00013000
00000000
00011000
00000000
,  // measure 15
00000100
00000010
00000001
00000100
,  // measure 16
00000001
00000000
00000010
00000000
00001000
00010000
00000000
00010000
,  // measure 17
00001000
00000000
00000010
00000000
00000001
00000000
00000100
00001000
,  // measure 18
00020000
01000000
00030000
00011000
,  // measure 19
00001000
00010000
01000000
10000000
,  // measure 20
00200000
00300000
10000000
01000000
,  // measure 21
00010000
00001000
00000010
00001000
,  // measure 22
00020000
00000000
00002000
00033000
,  // measure 23
00001000
00100000
00010000
00000000
00010000
00100000
01000000
00000000
,  // measure 24
11000000
00010000
00011000
00001000
,  // measure 25
00000010
00000001
00000100
00000010
,  // measure 26
00001010
00010000
00011000
00001000
,  // measure 27
01000000
00000000
00100000
10000000
00000000
01000000
00100000
01000000
,  // measure 28
01000000
00010000
00011000
00001000
,  // measure 29
00000100
00000001
00000001
00000010
00000000
00001001
00000000
00000000
,  // measure 30
00001000
00000010
00010000
00001000
,  // measure 31
00100000
00010000
01000000
00001000
,  // measure 32
00010000
00000100
00001000
00000010
,  // measure 33
00010000
00001000
00100000
01000000
,  // measure 34
11000000
10000000
10000000
00000000
00100000
00100000
00000000
00010000
,  // measure 35
00010000
00010000
00000000
00001000
00010000
00001000
00000010
00000000
,  // measure 36
00000002
00000100
00000000
00001003
,  // measure 37
00001000
00000000
00000000
00000010
00000000
00000000
00010000
00000000
00000000
00000000
00001000
00000000
00011000
00000000
00000000
00000000
,  // measure 38
00010000
00000100
00001000
00000010
,  // measure 39
00010000
00001000
00100000
00010000
,  // measure 40
01000000
00001000
00010000
00000100
,  // measure 41
00000010
00000000
00000001
00000000
00001000
00000010
00001000
00000000
,  // measure 42
00002002
00003003
00000001
00000100
,  // measure 43
00001000
00010000
00100000
10000000
,  // measure 44
01000000
00100000
01000000
00010000
,  // measure 45
00001000
00000000
00000000
00001000
00000000
00000000
00001000
00000000
00010000
00000000
00000100
00000000
00000010
00000000
00000000
00000000
,  // measure 46
00000001
00000100
00001000
00010000
,  // measure 47
00100000
00000000
00000000
00100000
00000000
00000000
00100000
00000000
00000000
00100000
00000000
00000000
10000000
00000000
10000000
00000000
,  // measure 48
01000000
00100000
00001000
00010000
,  // measure 49
00022000
00033000
00000000
00000000
;
