#VERSION:0.83;
#TITLE:LIAR LIAR;
#SUBTITLE:;
#ARTIST:Oh My Girl!;
#TITLETRANSLIT:;
#SUBTITLETRANSLIT:;
#ARTISTTRANSLIT:;
#GENRE:K-POP;
#ORIGIN:;
#CREDIT:MILEN;
#BANNER:LIAR LIAR.png;
#BACKGROUND:LIAR LIAR-bg.png;
#PREVIEWVID:;
#JACKET:LIAR LIAR-jacket.png;
#CDIMAGE:;
#DISCIMAGE:;
#LYRICSPATH:;
#CDTITLE:;
#MUSIC:LIAR LIAR.ogg;
#OFFSET:-0.113000;
#SAMPLESTART:10.013000;
#SAMPLELENGTH:11.919998;
#SELECTABLE:YES;
#DISPLAYBPM:200.000000;
#BPMS:0.000=200.000;
#STOPS:;
#DELAYS:;
#WARPS:;
#TIMESIGNATURES:0.000=4=4;
#TICKCOUNTS:0.000=4;
#COMBOS:0.000=1;
#SPEEDS:0.000=1.000=0.000=0;
#SCROLLS:0.000=1.000;
#FAKES:;
#LABELS:0.000=Song Start;
#BGCHANGES:0.000=LIAR LIAR-bg.png=1.000=0=0=1====#000000=#000000,
1.000=LIAR LIAR.avi=1.000=1=0=0=StretchNoLoop==CrossFade==,
99999=-nosongbg-=1.000=0=0=0 // don't automatically add -songbackground-
;
#KEYSOUNDS:;
#ATTACKS:
;

//---------------dance-single - ----------------
#NOTEDATA:;
#CHARTNAME:;
#STEPSTYPE:dance-single;
#DESCRIPTION:;
#CHARTSTYLE:;
#DIFFICULTY:Hard;
#METER:14;
#RADARVALUES:0.652049,0.815062,0.746321,0.612769,0.000000,581.000000,486.000000,95.000000,78.000000,0.000000,0.000000,0.000000,0.000000,0.000000,0.652049,0.815062,0.746321,0.612769,0.000000,581.000000,486.000000,95.000000,78.000000,0.000000,0.000000,0.000000,0.000000,0.000000;
#CREDIT:MILEN;
#DISPLAYBPM:200.000000;
#NOTES:
0000
0000
0000
0000
,
0000
0000
0000
0000
,
0000
0000
0000
0000
,
0000
0000
0000
0000
,
0000
0000
0000
0000
,
0000
0000
0000
0000
,
0000
0000
0000
0000
,
0000
0110
1001
0220
,
0330
0000
0110
0000
0010
1000
0100
0000
,
0010
0001
0100
0000
0020
0100
0000
0130
,
0000
0000
0110
0000
0100
0001
0010
0000
,
0100
1000
0010
0000
0200
0010
0000
0310
,
0000
0000
0010
1000
0100
0010
0100
1000
,
0010
0100
0001
0000
0011
0000
0010
0100
,
1000
0010
0100
0001
0010
0100
0010
0001
,
0100
0010
1000
0000
1100
0000
2002
0000
,
3003
0000
0110
0000
0001
0100
1000
0000
,
1000
0100
0001
0000
0020
1000
0000
1030
,
0000
0000
0110
0000
1000
0010
0001
0000
,
0001
0010
1000
0000
0200
0001
0000
0301
,
0000
0011
0101
1010
,
2200
0300
0000
3100
0010
0001
0100
0000
,
0010
1010
1100
0011
,
0101
0110
1001
0220
,
0330
0000
0110
0000
0001
0010
1000
0000
,
1000
0100
0001
0000
0020
1000
0000
0130
,
0000
0000
0110
0000
1000
0100
0001
0000
,
0001
0010
1000
0000
0200
0001
0000
0310
,
0000
1010
1100
0011
,
0202
0300
0000
0103
0010
1000
0100
0000
,
0010
0011
0101
1010
,
1100
0110
2002
3003
,
1001
0020
0130
0002
,
0013
0200
1300
0020
,
0130
0002
0010
2000
,
0000
0003
3010
0200
,
0301
0000
0001
0010
0100
1000
0010
0100
,
0001
1000
0100
0010
0001
1000
0010
0100
,
0001
1000
0200
0000
0000
0000
0020
0000
,
0000
0000
0330
0000
0001
0100
1000
0010
,
0001
0000
0110
0000
0010
1000
0100
0000
,
0100
0001
0010
0000
2000
0100
0000
3001
,
0000
0000
0110
0000
0010
0001
0100
0000
,
0100
1000
0010
0000
0002
0100
0000
1003
,
0000
0000
1010
0000
0100
0001
0010
0100
,
0001
0000
1100
0000
0011
0000
1000
0100
,
0010
0001
0101
0000
0010
1000
0100
0010
,
1000
1100
0011
2002
,
3003
0000
0110
0000
0001
0010
2000
0000
,
0000
0100
3200
0000
0010
0320
0000
0002
,
0030
0000
0103
0000
0100
0001
0010
1000
,
0001
0100
2000
0000
3010
0001
0010
0100
,
0001
0000
0011
0000
0100
1000
0010
0100
,
1000
0000
1100
0000
0101
0000
0001
0100
,
0010
1000
1100
0000
0010
0001
0100
0010
,
0001
0000
0011
0000
1010
0000
1000
0010
,
0100
0001
2002
0003
0000
0010
3010
0000
,
0202
0003
0000
0010
0310
0000
0110
0000
,
0100
0010
2002
3000
0000
0100
0103
0000
,
2020
3000
0000
0100
0130
0000
1001
0000
,
0010
0100
0220
0300
0000
0001
0031
0000
,
0220
0030
0000
1000
1300
0000
1001
0000
,
0110
0000
1000
0010
0001
0200
0000
0310
,
1000
0100
0001
1000
0010
0002
0000
0103
,
0010
1000
1001
0001
0001
0100
1000
0100
,
0001
0010
1000
0010
0001
0100
1010
0000
,
0101
0000
0000
1000
1000
0100
0001
0100
,
1000
0010
0001
0010
1000
0100
0011
0000
,
1100
0000
0000
0001
0001
0010
0100
0001
,
0100
0010
1000
0010
0100
1000
0110
0000
,
2002
0000
3003
0000
0001
0100
1000
0001
,
0010
1000
0100
0010
0001
1000
1001
0000
,
0110
0020
1030
0200
,
0301
2000
3100
0002
,
0013
0200
1000
0020
,
0000
0300
0031
2000
,
3010
0000
0010
0100
1000
0100
0001
1000
,
0010
0001
0010
0100
1000
0100
0001
0010
,
0100
1000
0020
0000
0000
0000
0200
0000
,
0000
0330
1010
0202
,
0303
0000
1001
0000
1000
0100
0001
0000
,
1000
0010
0001
0000
0100
0010
1000
1100
,
0000
0000
1001
0000
0001
0010
1000
0000
,
0001
0100
1000
0000
0010
0100
0001
0101
,
0000
0000
1001
0100
0010
1001
0010
0100
,
1001
0000
1100
0000
0011
0000
0001
0100
,
0010
1000
1001
0010
0100
1001
0100
0010
,
1001
0101
1010
0220
,
0330
0000
0010
1000
0100
0001
1000
0010
,
0001
0100
1000
0001
0010
0100
0001
0000
,
0011
0000
0100
0001
0010
1000
0001
0100
,
1000
0010
0001
1000
0100
0010
1000
0000
,
1100
0000
0010
0100
1000
0001
0010
1000
,
0001
0100
1000
0001
0010
0100
0001
0000
,
1001
0000
1000
0010
0001
0101
0000
0001
,
0100
1000
1010
0100
0001
0021
0000
0000
,
0130
0000
2100
0000
0000
0002
0000
0000
,
0000
3003
0001
1000
,
0001
0000
0102
0000
0000
2000
0000
0000
,
0000
3003
1000
0001
,
1000
0000
0220
0300
0000
0002
0000
0000
,
0003
0000
2030
3200
,
0320
0000
0032
0000
0000
2000
0000
0000
,
0000
0000
0000
3003
;

//---------------dance-double - ----------------
#NOTEDATA:;
#CHARTNAME:;
#STEPSTYPE:dance-double;
#DESCRIPTION:;
#CHARTSTYLE:;
#DIFFICULTY:Hard;
#METER:15;
#RADARVALUES:0.650927,0.733555,0.785601,0.424225,0.000000,580.000000,480.000000,100.000000,54.000000,0.000000,0.000000,0.000000,0.000000,0.000000,0.650927,0.733555,0.785601,0.424225,0.000000,580.000000,480.000000,100.000000,54.000000,0.000000,0.000000,0.000000,0.000000,0.000000;
#CREDIT:MILEN;
#DISPLAYBPM:200.000000;
#NOTES:
// measure 0
00000000
00000000
00000000
00000000
,  // measure 1
00000000
00000000
00000000
00000000
,  // measure 2
00000000
00000000
00000000
00000000
,  // measure 3
00000000
00000000
00000000
00000000
,  // measure 4
00000000
00000000
00000000
00000000
,  // measure 5
00000000
00000000
00000000
00000000
,  // measure 6
00000000
00000000
00000000
00000000
,  // measure 7
00000000
01001000
00011000
00020200
,  // measure 8
00030300
00000000
00011000
00000000
00010000
01000000
10000000
00000000
,  // measure 9
10000000
01000000
00010000
00000000
00001000
00010000
00000000
00010010
,  // measure 10
00000000
00000000
00011000
00000000
00001000
00000100
00000001
00000000
,  // measure 11
00000001
00000100
00001000
00000000
00010000
00001000
00000000
00101000
,  // measure 12
00000000
00000000
00001000
00010000
01000000
00100000
01000000
00010000
,  // measure 13
00001000
00100000
01000000
00000000
11000000
00000000
10000000
01000000
,  // measure 14
00100000
01000000
00010000
00001000
00000010
00000100
00000010
00001000
,  // measure 15
00010000
00000100
00000010
00000000
00000011
00000000
00002200
00000000
,  // measure 16
00003300
00000000
00000110
00000000
00000010
00000001
00000100
00000000
,  // measure 17
00001000
00010000
01000000
00000000
10000000
00100000
00000000
11000000
,  // measure 18
00000000
00000000
01100000
00000000
00100000
10000000
01000000
00000000
,  // measure 19
00010000
00001000
00000010
00000000
00000001
00000100
00000000
00000011
,  // measure 20
00000000
00000101
00010010
00101000
,  // measure 21
22000000
33000000
00000000
10000000
01000000
00100000
00010000
00000000
,  // measure 22
01000000
10100000
01001000
00010100
,  // measure 23
00000011
00001001
00000110
00002002
,  // measure 24
00003003
00000000
00000011
00000000
00000010
00001000
00010000
00000000
,  // measure 25
00001000
00010000
00100000
00000000
10000000
01000000
00000000
00110000
,  // measure 26
00000000
00000000
11000000
00000000
01000000
00010000
00001000
00000000
,  // measure 27
00010000
00001000
00000100
00000000
00000001
00000010
00000000
00001100
,  // measure 28
00000000
00010010
00101000
00010100
,  // measure 29
02002000
03003000
00000000
00001000
00010000
00100000
01000000
00000000
,  // measure 30
00010000
00101000
00010010
01001000
,  // measure 31
00010100
00000110
00002002
00003003
,  // measure 32
00001001
00000001
00000010
00000100
,  // measure 33
00001000
00010000
00100000
01000000
,  // measure 34
10000000
00100000
00010000
00022000
,  // measure 35
00000000
00030000
00003010
00000001
,  // measure 36
00000101
00000000
00001000
00000100
00000010
00001000
00010000
01000000
,  // measure 37
00100000
00010000
01000000
10000000
00010000
00100000
01000000
00010000
,  // measure 38
00100000
01000000
00020000
00000000
00000000
00000000
00002000
00000000
,  // measure 39
00000000
00000000
00033000
00000000
00001000
00000010
00000001
00000100
,  // measure 40
00001000
00000000
00011000
00000000
00100000
10000000
01000000
00000000
,  // measure 41
00010000
00001000
00000010
00000000
00000001
00000100
00000000
00001010
,  // measure 42
00000000
00000000
00011000
00000000
00000100
00000001
00000010
00000000
,  // measure 43
00001000
00010000
01000000
00000000
10000000
00100000
00000000
01010000
,  // measure 44
00000000
00000000
01100000
00000000
10000000
01000000
00010000
00001000
,  // measure 45
00000010
00000000
00000101
00000000
00001100
00000000
00000001
00000010
,  // measure 46
00000100
00000000
00000110
00000000
00000001
00000100
00001000
00010000
,  // measure 47
01000000
10100000
00110000
20020000
,  // measure 48
30030000
00000000
01100000
00000000
10000000
01000000
00200000
00000000
,  // measure 49
00000000
00310000
00002000
00000000
00003100
00000020
00000000
00000032
,  // measure 50
00000000
00000000
00000103
00000000
00001000
00010000
00100000
10000000
,  // measure 51
01000000
00010000
00002000
00000000
00103000
01000000
00010000
00001000
,  // measure 52
00000010
00000000
00000011
00000000
00000100
00001000
00010000
00100000
,  // measure 53
01000000
00000000
10100000
00000000
01010000
00000000
00010000
00100000
,  // measure 54
01000000
10000000
10100000
00000000
01000000
00010000
00001000
00000010
,  // measure 55
00000100
00000000
00000011
00000000
00001100
00000000
00001000
00000010
,  // measure 56
00000100
00000001
00002001
00000000
00000000
00003100
00010000
00000000
,  // measure 57
00012000
00000000
00000000
00103000
00010000
00000000
10010000
00000000
,  // measure 58
01100000
00000000
10020000
00000000
00000000
01030000
00001000
00000000
,  // measure 59
00021000
00000000
00000000
00030010
00001000
00000000
00001001
00000000
,  // measure 60
00000110
00000000
00002001
00000000
00000000
00013000
00010000
00000000
,  // measure 61
10020000
00000000
00000000
00031000
00001000
00000000
00011000
00000000
,  // measure 62
00001001
00000000
00000001
00000010
00000100
00002000
00000000
00013000
,  // measure 63
01000000
00100000
10000000
01000000
00100000
00020000
00000000
01030000
,  // measure 64
00001000
00010000
00011000
00001000
00010000
01000000
10000000
01000000
,  // measure 65
00010000
00001000
00000100
00000001
00000100
00001000
00010000
00000000
,  // measure 66
00011000
00000000
00000000
00010000
00001000
00000010
00000001
00000010
,  // measure 67
00001000
00010000
00100000
10000000
00100000
00010000
00001000
00000000
,  // measure 68
00011000
00000000
00000000
00001000
00010000
00100000
10000000
01000000
,  // measure 69
00010000
00001000
00000010
00000001
00000100
00001000
00010000
00000000
,  // measure 70
00022000
00000000
00033000
00000000
00010000
00001000
00000100
00000001
,  // measure 71
00000010
00001000
00010000
01000000
10000000
00100000
01100000
00000000
,  // measure 72
10010000
10000000
00100000
01000000
,  // measure 73
00010000
00001000
00000010
00000100
,  // measure 74
00000001
00000010
00001000
00022000
,  // measure 75
00000000
00003000
00130000
10000000
,  // measure 76
11000000
00000000
00010000
01000000
00100000
00010000
00001000
00000100
,  // measure 77
00000010
00001000
00000100
00000001
00001000
00000010
00000100
00001000
,  // measure 78
00000010
00000100
00002000
00000000
00000000
00000000
00020000
00000000
,  // measure 79
00000000
00033000
00010100
02002000
,  // measure 80
03003000
00000000
01100000
00000000
10000000
01000000
00010000
00000000
,  // measure 81
10000000
00100000
00010000
00000000
01000000
00100000
00010000
00000010
,  // measure 82
00000000
00000000
00000110
00000000
00000001
00000010
00001000
00000000
,  // measure 83
00000001
00000100
00001000
00000000
00000010
00000100
00001000
01000000
,  // measure 84
00000000
00000000
11000000
00000000
00100000
01010000
00000000
00001000
,  // measure 85
00010100
00000000
00000110
00000000
00001001
00000000
00000001
00000010
,  // measure 86
00001000
00000000
00000101
00000000
00000010
00001100
00000000
00010000
,  // measure 87
01001000
01100000
10010000
02200000
,  // measure 88
03300000
00000000
00100000
10000000
01000000
00010000
00001000
00000010
,  // measure 89
00001000
00010000
00100000
00010000
00001000
00000010
00000001
00000000
,  // measure 90
00001100
00000000
00000010
00000001
00000100
00001000
00010000
00100000
,  // measure 91
00010000
00001000
00000010
00001000
00010000
00100000
10000000
00000000
,  // measure 92
01010000
00000000
00100000
10000000
01000000
00100000
00010000
00001000
,  // measure 93
00100000
00010000
00001000
00000100
00010000
00001000
00000100
00000010
,  // measure 94
00000011
00000000
00000001
00000100
00001000
00011000
00000000
10000000
,  // measure 95
00100000
00010000
01001000
00010000
00001000
00000100
00000002
00000000
,  // measure 96
00000023
00000000
00002030
00000000
00000000
00020000
00000000
00000000
,  // measure 97
00000000
00033000
00010000
01000000
,  // measure 98
10000000
00000000
00200000
00000000
00000000
02000000
00000000
00000000
,  // measure 99
00000000
03300000
01000000
00010000
,  // measure 100
00100000
00000000
02000000
00000000
00000000
00020000
00000000
00000000
,  // measure 101
00000000
03000000
00032000
00003020
,  // measure 102
00000032
00000000
00002003
00000000
00000000
00023000
00000000
00000000
,  // measure 103
00000000
00000000
00000000
00030000
;

//---------------dance-single - ----------------
#NOTEDATA:;
#CHARTNAME:;
#STEPSTYPE:dance-single;
#DESCRIPTION:;
#CHARTSTYLE:;
#DIFFICULTY:Beginner;
#METER:3;
#RADARVALUES:0.113351,0.240983,0.000000,0.000000,0.000000,101.000000,101.000000,0.000000,0.000000,0.000000,0.000000,0.000000,0.000000,0.000000,0.113351,0.240983,0.000000,0.000000,0.000000,101.000000,101.000000,0.000000,0.000000,0.000000,0.000000,0.000000,0.000000,0.000000;
#CREDIT:MILEN;
#DISPLAYBPM:200.000000;
#NOTES:
0000
0000
0000
0000
,
0000
0000
0000
0000
,
0000
0000
0000
0000
,
0000
0000
0000
0000
,
0000
0000
0000
0000
,
0000
0000
0000
0000
,
0000
0000
0000
0000
,
0000
0000
0000
0000
,
0000
1000
0000
0000
,
0000
1000
0000
0000
,
0000
0001
0000
0000
,
0000
0001
0000
0000
,
0000
1000
0000
0000
,
0000
0001
0000
0000
,
0000
1000
0000
0000
,
0000
0001
0000
0000
,
0000
1000
0000
0000
,
0000
1000
0000
0000
,
0000
0100
0000
0000
,
0000
0100
0000
0000
,
0000
0010
0000
0000
,
0000
0010
0000
0000
,
0000
0001
0000
0000
,
0000
0001
0000
0000
,
0000
0100
0000
0000
,
0000
0100
0000
0000
,
0000
0010
0000
0000
,
0000
0010
0000
0000
,
0000
1000
0000
0000
,
0000
0001
0000
0000
,
0000
0100
0000
0000
,
0000
0010
0000
0000
,
0000
0100
0000
0000
,
0000
0100
0000
0000
,
0000
0010
0000
0000
,
0000
0010
0000
0000
,
0000
0100
0000
0000
,
0000
0010
0000
0000
,
0000
0100
0000
0100
,
0000
0000
0000
0000
,
0000
0010
0000
0000
,
0000
1000
0000
0000
,
0000
0001
0000
0000
,
0000
0100
0000
0000
,
0000
0010
0000
0000
,
0000
0010
0000
0000
,
0000
0010
0000
0000
,
0000
0010
0000
0000
,
0000
1000
0000
0000
,
0000
0100
0000
0000
,
0000
0010
0000
0000
,
0000
0001
0000
0000
,
0000
0100
0000
0000
,
0000
0100
0000
0000
,
0000
0100
0000
0000
,
0000
0100
0000
0000
,
0000
0010
0000
0000
,
0000
1000
0000
0000
,
0000
0001
0000
0000
,
0000
0100
0000
0000
,
0000
0010
0000
0000
,
0000
1000
0000
0000
,
0000
0001
0000
0000
,
0000
0100
0000
0100
,
0000
0100
0000
0001
,
0000
0010
0000
0000
,
0000
0010
0000
0100
,
0000
1000
0000
0000
,
0000
1000
0000
0010
,
0000
0100
0000
0000
,
0000
0100
0000
0001
,
0000
1000
0000
0010
,
0010
0010
0000
0000
,
0000
0100
0000
0000
,
0000
0001
0000
0000
,
0000
1000
0000
0000
,
0000
0100
0000
0000
,
0000
0010
0000
0000
,
0000
0001
0000
0000
,
0000
0000
0100
0100
,
0000
0100
0000
0000
,
0000
0001
0000
0000
,
0000
0100
0000
0000
,
0000
0001
0000
0000
,
0000
1000
0000
0000
,
0000
0010
0000
0000
,
0000
1000
0000
0000
,
0000
0010
0000
0000
,
0000
0100
0000
0000
,
0000
0001
0000
0000
,
0000
0010
0000
0000
,
0000
0100
0000
0000
,
0000
1000
0000
0000
,
0000
0010
0000
0000
,
0000
0100
0000
0000
,
0000
0010
0000
0010
,
0000
0010
0000
0000
,
0000
0000
0000
0000
,
0000
0001
0000
0000
,
0000
0000
0000
0000
,
0000
0100
0000
0000
,
0000
0000
0000
0000
,
0000
1000
0000
0000
;

//---------------dance-single - ----------------
#NOTEDATA:;
#CHARTNAME:;
#STEPSTYPE:dance-single;
#DESCRIPTION:;
#CHARTSTYLE:;
#DIFFICULTY:Easy;
#METER:8;
#RADARVALUES:0.306385,0.404585,0.102128,0.047136,0.000000,273.000000,260.000000,13.000000,6.000000,0.000000,0.000000,0.000000,0.000000,0.000000,0.306385,0.404585,0.102128,0.047136,0.000000,273.000000,260.000000,13.000000,6.000000,0.000000,0.000000,0.000000,0.000000,0.000000;
#CREDIT:MILEN;
#DISPLAYBPM:200.000000;
#NOTES:
0000
0000
0000
0000
,
0000
0000
0000
0000
,
0000
0000
0000
0000
,
0000
0000
0000
0000
,
0000
0000
0000
0000
,
0000
0000
0000
0000
,
0000
0000
0000
0000
,
0000
0000
0000
0000
,
0000
1000
0000
0001
,
0000
1000
0100
1000
,
0000
0001
0000
1000
,
0000
0001
0010
0001
,
0000
1000
0001
0100
,
0010
1000
0000
1000
,
0000
1000
0001
0100
,
0010
1000
0000
1000
,
0000
1000
0010
0100
,
0000
0001
0100
0010
,
0000
1000
0100
0010
,
0000
0001
0010
0100
,
0000
1000
0001
1000
,
1001
0000
0010
0010
,
0000
0001
1000
0001
,
1001
0000
0100
0100
,
0000
1000
0100
0010
,
0000
0001
0100
0010
,
0000
1000
0010
0100
,
0000
0001
0010
0100
,
0000
1000
0010
1000
,
1010
0000
0100
0100
,
0000
0001
0010
0001
,
0011
0000
0100
0100
,
0000
1000
0000
0010
,
0000
0001
0000
0100
,
0000
1000
0000
0010
,
0000
0001
0000
0100
,
0000
1000
0001
1000
,
0001
0010
0100
0010
,
0100
0010
0000
0020
,
0000
0030
0010
0010
,
0010
0001
0000
1000
,
0000
0010
1000
0010
,
0000
1000
0000
0001
,
0000
0100
0001
0100
,
0000
0001
1000
0010
,
0100
0001
0000
0001
,
0000
0001
1000
0010
,
0100
0001
0000
0001
,
0000
1000
0100
0010
,
0000
0001
0000
1000
,
0000
0001
0010
0100
,
0000
1000
0000
0001
,
0000
1000
0010
0100
,
0001
1000
0000
1000
,
0000
1000
0010
0100
,
0001
1000
0000
1000
,
0000
0001
0000
0100
,
0000
1000
0010
0001
,
0000
1000
0000
0100
,
0000
0001
0010
1000
,
0000
0001
0000
0100
,
0000
1000
0010
0001
,
0000
1000
0100
0001
,
0000
0100
0010
0001
,
1000
1000
0010
0010
,
0100
0100
0001
0001
,
1001
0000
1000
1000
,
0100
0100
0010
0001
,
1001
0000
1000
1000
,
0010
0010
0100
0001
,
1001
0000
0010
0100
,
0010
0100
0010
0010
,
1000
0001
0000
0100
,
0000
1000
0000
0010
,
0000
0001
0000
0100
,
0000
1000
0000
0010
,
0000
0001
1000
0001
,
1000
0010
0100
0010
,
0100
0010
0000
0020
,
0000
0030
0010
0010
,
0000
1001
0100
0010
,
0000
0100
0000
0001
,
0000
1001
0010
0100
,
0000
0010
0000
1000
,
0000
0001
0010
0100
,
1000
0001
0000
0001
,
0000
0001
0010
0100
,
1000
0001
0000
0001
,
0000
1000
0010
1000
,
0100
1000
0010
1010
,
0000
0001
0100
0001
,
0010
0001
0100
0101
,
0000
1000
0100
0001
,
0100
1000
0100
1100
,
0000
0001
0010
1000
,
0010
0001
0010
0011
,
0000
2000
0000
0000
,
3000
0000
0000
0000
,
0000
0200
0000
0000
,
0300
0000
0000
0000
,
0000
0020
0000
0000
,
0030
0000
0000
0000
,
0000
0002
0000
0000
,
0003
0000
0000
0000
;

//---------------dance-single - ----------------
#NOTEDATA:;
#CHARTNAME:;
#STEPSTYPE:dance-single;
#DESCRIPTION:;
#CHARTSTYLE:;
#DIFFICULTY:Medium;
#METER:11;
#RADARVALUES:0.469116,0.611296,0.432081,0.345665,0.000000,418.000000,363.000000,55.000000,44.000000,0.000000,0.000000,0.000000,0.000000,0.000000,0.469116,0.611296,0.432081,0.345665,0.000000,418.000000,363.000000,55.000000,44.000000,0.000000,0.000000,0.000000,0.000000,0.000000;
#CREDIT:MILEN;
#DISPLAYBPM:200.000000;
#NOTES:
0000
0000
0000
0000
,
0000
0000
0000
0000
,
0000
0000
0000
0000
,
0000
0000
0000
0000
,
0000
0000
0000
0000
,
0000
0000
0000
0000
,
0000
0000
0000
0000
,
0000
0010
0100
2002
,
3003
1001
0001
1000
,
0001
0100
1000
0001
,
0000
1001
1000
0001
,
1000
0010
0001
1000
,
0000
0000
0010
0000
0100
0010
0000
0100
,
0001
0000
0100
0000
0010
0000
1000
0001
,
1000
0000
0010
0000
0100
0010
0000
1000
,
0010
0100
0010
0220
,
0330
0100
0001
0010
,
0001
0100
0001
1001
,
0000
0100
1000
0010
,
1000
0100
1000
1001
,
0000
0010
0010
0100
,
0020
0000
0000
1030
0001
1000
0001
0000
,
1000
0100
0100
0010
,
0010
0100
0010
1001
,
0000
0100
1000
0010
,
1000
0100
1000
1001
,
0000
0100
0001
0010
,
0001
0100
0001
1001
,
0000
0010
0010
0100
,
0020
0000
0000
1030
0001
0100
0010
0000
,
1000
0001
0010
0100
,
1000
0001
1000
2002
,
3003
0001
0001
0100
,
0100
1000
1000
0010
,
0010
0001
1000
0220
,
0000
0330
1000
1000
,
0100
0100
0001
0001
,
0010
0010
1000
0001
,
0100
0220
0330
2002
,
0000
0000
3003
0000
0100
0010
0100
0010
,
0100
0110
0001
0100
,
1000
0001
0100
0010
,
0000
0110
1000
0010
,
0001
1000
0010
0100
,
0000
0000
0110
0000
0010
1000
0000
0100
,
1000
0000
0001
0000
1000
0000
0100
0010
,
0100
0000
0110
0000
0010
0001
0000
0100
,
0001
1000
0001
2002
,
3003
1010
0100
0001
,
0010
1000
0001
0010
,
0000
0101
0010
1000
,
0100
0001
1000
0100
,
0000
0000
0110
0000
0010
0001
0000
0010
,
0100
0000
1000
0000
0001
0000
0100
0010
,
0100
0000
0110
0000
0010
1000
0000
0010
,
0100
0000
0001
0000
1000
0000
0010
0100
,
0010
0000
1001
0000
0000
0010
0100
0000
,
1001
0000
0000
0100
0010
0000
2002
0000
,
3003
0000
0110
0000
0000
0001
1000
0000
,
0110
0000
0000
1000
0001
0000
0220
0000
,
0330
0000
1010
0000
0000
0100
0001
0000
,
0011
0000
0000
0100
1000
0000
2200
0000
,
3300
0000
0100
0010
0001
0000
0100
0000
,
0010
0000
1000
0100
0010
0000
0001
0000
,
1000
0000
1001
0000
0001
1000
0001
1000
,
0100
0010
0100
0010
0100
0000
1000
0000
,
1010
0000
0000
0000
1000
0001
1000
0001
,
0010
0100
0010
0100
0010
0000
0001
0000
,
0101
0000
0000
0000
0001
1000
0001
1000
,
0010
0100
0010
0100
0010
0000
1000
0000
,
1100
0000
0000
0000
1000
0001
1000
0001
,
0100
0010
0100
0010
0100
0000
0001
0000
,
0011
1000
1000
0100
,
0100
0001
0001
0010
,
0010
1000
0001
0220
,
0000
0330
0001
0001
,
0010
0010
1000
1000
,
0100
0100
0001
1000
,
0010
0220
0330
2002
,
0000
3003
1001
1001
,
0000
0011
0100
1000
,
0010
0001
0100
0010
,
0000
1100
0010
0001
,
0100
1000
0010
0100
,
0000
0000
0101
0000
0001
0010
0000
0010
,
1000
0000
0100
0000
0010
0000
0001
1000
,
0010
0000
1010
0000
1000
0100
0000
0100
,
0001
0010
0100
2002
,
3003
0000
0011
0000
0000
0100
1000
0000
,
1010
0000
0000
0100
0001
0000
0022
0000
,
0033
0000
1100
0000
0000
0010
0001
0000
,
0101
0000
0000
0010
1000
0000
2200
0000
,
3300
0000
1010
0000
0000
0001
0100
0000
,
1100
0000
0000
0010
0001
0000
0202
0000
,
0303
0000
0100
0010
0100
0010
0000
1000
,
0001
1000
0001
1000
0001
2000
0000
0000
,
0000
3002
0000
0000
,
0000
0000
0000
0000
,
0000
0203
0000
0000
,
0000
0000
0000
0000
,
0000
2300
0000
3020
,
0000
0230
0000
0302
,
0000
2000
0000
0000
,
0000
0000
0000
3003
;

//---------------dance-double - ----------------
#NOTEDATA:;
#CHARTNAME:;
#STEPSTYPE:dance-double;
#DESCRIPTION:;
#CHARTSTYLE:;
#DIFFICULTY:Easy;
#METER:9;
#RADARVALUES:0.313118,0.404585,0.196400,0.054992,0.000000,279.000000,254.000000,25.000000,7.000000,0.000000,0.000000,0.000000,0.000000,0.000000,0.313118,0.404585,0.196400,0.054992,0.000000,279.000000,254.000000,25.000000,7.000000,0.000000,0.000000,0.000000,0.000000,0.000000;
#CREDIT:MILEN;
#DISPLAYBPM:200.000000;
#NOTES:
00000000
00000000
00000000
00000000
,
00000000
00000000
00000000
00000000
,
00000000
00000000
00000000
00000000
,
00000000
00000000
00000000
00000000
,
00000000
00000000
00000000
00000000
,
00000000
00000000
00000000
00000000
,
00000000
00000000
00000000
00000000
,
00000000
00000000
00000000
00000000
,
00000000
00001000
00000000
00010000
,
00000000
00100000
10000000
00100000
,
00000000
00010000
00000000
00001000
,
00000000
00000100
00000001
00000100
,
00000000
00001000
00010000
01000000
,
00000000
11000000
00000000
01000000
,
00000000
00010000
00001000
00000010
,
00000000
00000011
00000000
00000010
,
00000000
00001000
00100000
01000000
,
00000000
00100000
00001000
00010000
,
00000000
00001000
00010000
00000100
,
00000000
00000010
00000100
00010000
,
00000000
00001000
00010000
00001000
,
00011000
00000000
01000000
01000000
,
00000000
00010000
00001000
00010000
,
00011000
00000000
00000100
00000100
,
00000000
00000010
00000001
00000100
,
00000000
00001000
00010000
00000100
,
00000000
00010000
00001000
00100000
,
00000000
01000000
10000000
00100000
,
00000000
00010000
00001000
00010000
,
00010010
00000000
00000100
00000100
,
00000000
00001000
00010000
00001000
,
00101000
00000000
01000000
01000000
,
00000000
00001000
00000000
00010000
,
00000000
01000000
00000000
00100000
,
00000000
00001000
00000000
00010000
,
00000000
01000000
00000000
00100000
,
00000000
00001000
00010000
00001000
,
00010000
00000100
00000010
00000100
,
00000010
00001000
00000000
00022000
,
00000000
00033000
00001000
00010000
,
00001000
00011000
00000000
00000010
,
00000000
00000001
00000100
00001000
,
00000000
00011000
00000000
00100000
,
00000000
10000000
01000000
00010000
,
00000000
00001000
00000100
00000001
,
00000000
00000011
00000000
00001000
,
00000000
00010000
00100000
10000000
,
00000000
11000000
00000000
00010000
,
00000000
00001000
00010000
00100000
,
00000000
00001000
00000000
00000010
,
00000000
00010000
00001000
00000010
,
00000000
00010000
00000000
00100000
,
00000000
10000000
01000000
00010000
,
00000000
00110000
00000000
00001000
,
00000000
00000001
00000010
00001000
,
00000000
00001100
00000000
00010000
,
00000000
00001000
00000000
00000010
,
00000000
00000001
00000100
00001000
,
00000000
00010000
00000000
00100000
,
00000000
10000000
01000000
00010000
,
00000000
00001000
00000000
00000010
,
00000000
00000001
00000100
00001000
,
00000000
00010000
00100000
10000000
,
00000000
01000000
00100000
00001000
,
00010000
00010000
00000100
00000100
,
00000010
00000010
00000001
00000001
,
00001001
00000000
00001000
00001000
,
00000100
00000100
00010000
00001000
,
00011000
00000000
00010000
00010000
,
00100000
00100000
10000000
10000000
,
11000000
00000000
01000000
00010000
,
00001000
00000010
00000001
00000100
,
00000110
00000010
00000000
00001000
,
00000000
00000100
00000000
00010000
,
00000000
00000010
00000000
00001000
,
00000000
00000100
00000000
00010000
,
00000000
00001000
00100000
00001000
,
00100000
00010000
01000000
00010000
,
01000000
00010000
00000000
20000000
,
00000000
30000000
10100000
10100000
,
00000000
00010000
00001000
00000100
,
00000000
00000110
00000000
00000001
,
00000000
00001000
00010000
00100000
,
00000000
01100000
00000000
10000000
,
00000000
00010000
00100000
01000000
,
00010000
00001000
00000000
00001001
,
00000000
00001000
00000100
00000010
,
00001000
00010000
00000000
10010000
,
00000000
10000000
01000000
00100000
,
00010000
00001000
00000100
00000001
,
00000000
00000001
00000010
00000100
,
00001000
00010000
00100000
10000000
,
00000000
10000000
00100000
01000000
,
00010000
00001000
00000010
00000101
,
00000000
00000001
00000010
00000100
,
00001000
00010000
00100000
11000000
,
00000000
20000000
00000000
00000000
,
30000000
00000000
00000000
00000000
,
00000000
00020000
00000000
00000000
,
00030000
00000000
00000000
00000000
,
00000000
00002000
00000000
00000000
,
00003000
00000000
00000000
00000000
,
00000000
00000002
00000000
00000000
,
00000003
00000000
00000000
00000000
;

//---------------dance-double - ----------------
#NOTEDATA:;
#CHARTNAME:;
#STEPSTYPE:dance-double;
#DESCRIPTION:;
#CHARTSTYLE:;
#DIFFICULTY:Medium;
#METER:12;
#RADARVALUES:0.457893,0.570543,0.384945,0.322097,0.000000,408.000000,359.000000,49.000000,41.000000,0.000000,0.000000,0.000000,0.000000,0.000000,0.457893,0.570543,0.384945,0.322097,0.000000,408.000000,359.000000,49.000000,41.000000,0.000000,0.000000,0.000000,0.000000,0.000000;
#CREDIT:MILEN;
#DISPLAYBPM:200.000000;
#NOTES:
00000000
00000000
00000000
00000000
,
00000000
00000000
00000000
00000000
,
00000000
00000000
00000000
00000000
,
00000000
00000000
00000000
00000000
,
00000000
00000000
00000000
00000000
,
00000000
00000000
00000000
00000000
,
00000000
00000000
00000000
00000000
,
00000000
00001000
00010000
00022000
,
00033000
00011000
00001000
00010000
,
01000000
10000000
01000000
00010000
,
00000000
00011000
00010000
00001000
,
00000010
00000001
00000010
00001000
,
00000000
00000000
00010000
00000000
00001000
00100000
00000000
00010000
,
01000000
10000000
01000000
00100000
,
00010000
00000000
00011000
00000000
00010000
00000100
00000000
00001000
,
00000010
00000001
00000010
00000220
,
00000330
00001000
00000001
00000100
,
00001000
00010000
00100000
10100000
,
00000000
00010000
10000000
00100000
,
00010000
00001000
00000100
00000101
,
00000000
00000001
00000001
00001000
,
00000002
00000000
00000000
00000103
00001000
00010000
00100000
00000000
,
10000000
01000000
01000000
00100000
,
00100000
01000000
00100000
10010000
,
00000000
00010000
10000000
01000000
,
00010000
00001000
00000010
00000011
,
00000000
00001000
00000001
00000010
,
00001000
00010000
01000000
11000000
,
00000000
10000000
10000000
00010000
,
20000000
00000000
00000000
31000000
00010000
00001000
00000010
00000000
,
00000001
00000100
00000100
00000010
,
00000010
00000100
00000010
00002002
,
00003003
00000001
00000001
00000100
,
00000100
00001000
00001000
00010000
,
00010000
00100000
10000000
20020000
,
00000000
30030000
10000000
10000000
,
01000000
01000000
00010000
00010000
,
00001000
00001000
00000010
00000001
,
00001000
00002002
00003003
00000220
,
00000000
00000000
00000330
00000000
00000010
00010000
00001000
01000000
,
00100000
10100000
10000000
01000000
,
00010000
00001000
00000100
00000001
,
00000000
00000011
00000001
00000100
,
00001000
00010000
00100000
10000000
,
00000000
00000000
01000000
00000000
00100000
00001000
00000000
00010000
,
01000000
00000000
10000000
00000000
00100000
00000000
00010000
00001000
,
00010000
00000000
00000100
00000000
00000010
00000001
00000000
00000100
,
00001000
00010000
00001000
00022000
,
00033000
00011000
01000000
10000000
,
00100000
00010000
00001000
00010000
,
00000000
00011000
00000100
00000001
,
00000010
00001000
00010000
00001000
,
00000000
00000000
00000010
00000000
00000100
00010000
00000000
00001000
,
00000010
00000000
00000001
00000000
00000100
00000000
00001000
00010000
,
00001000
00000000
01000000
00000000
00100000
10000000
00000000
01000000
,
00010000
00000000
00001000
00000000
00010000
00000000
00000100
00000010
,
00000100
00000000
00001001
00000000
00000000
00001000
00000100
00000000
,
00001001
00000000
00000000
00000001
00000100
00000000
00022000
00000000
,
00033000
00000000
10010000
00000000
00000000
00010000
01000000
00000000
,
10010000
00000000
00000000
10000000
01000000
00000000
00022000
00000000
,
00033000
00000000
00001001
00000000
00000000
00001000
00010000
00000000
,
10010000
00000000
00000000
00010000
00001000
00000000
00022000
00000000
,
00033000
00000000
00010000
00001000
00010000
00000000
00000010
00000000
,
00010000
00000000
00001000
00010000
00001000
00000000
01000000
00000000
,
00001000
00000000
00011000
00000000
00010000
00100000
00010000
00000000
,
00100000
10000000
00100000
10000000
01000000
00000000
00010000
00000000
,
00011000
00000000
00000000
00000000
00001000
00000010
00001000
00000000
,
00000010
00000001
00000010
00000001
00000100
00000000
00001000
00000000
,
00011000
00000000
00000000
00000000
00010000
01000000
00010000
00000000
,
01000000
10000000
01000000
10000000
00100000
00000000
00010000
00000000
,
00011000
00000000
00000000
00000000
00001000
00000100
00001000
00000000
,
00000100
00000001
00000100
00000001
00000010
00000000
00001000
00000000
,
00011000
00010000
01000000
10000000
,
00100000
01000000
10000000
01000000
,
00010000
00100000
01000000
00020000
,
00000000
00031000
00001000
00000010
,
00000001
00000100
00000010
00000001
,
00000010
00001000
00000100
00000010
,
00001000
00020000
00000000
00002000
,
00000000
00033000
00011000
00011000
,
00000000
01010000
01000000
10000000
,
00100000
00010000
00001000
00000100
,
00000000
00001100
00000100
00000001
,
00000010
00001000
00010000
01000000
,
00000000
00000000
11000000
00000000
10000000
00100000
00000000
00010000
,
00001000
00000000
00100000
00000000
01000000
00000000
00010000
00001000
,
00000010
00000000
00000011
00000000
00000001
00000100
00000000
00001000
,
00010000
00100000
10000000
20020000
,
30030000
00000000
11000000
00000000
00000000
00100000
00001000
00000000
,
00011000
00000000
00000000
00010000
00000010
00000000
00000202
00000000
,
00000303
00000000
00000011
00000000
00000000
00000100
00010000
00000000
,
00011000
00000000
00000000
00001000
01000000
00000000
20200000
00000000
,
30300000
00000000
11000000
00000000
00000000
00100000
00010000
00000000
,
00011000
00000000
00000000
00000100
00000010
00000000
00000022
00000000
,
00000033
00000000
00000001
00000100
00001000
00010000
00000000
00001000
,
00010000
00100000
10000000
01000000
00010000
00002000
00000000
00000000
,
00000000
00023000
00000000
00000000
,
00000000
00000000
00000000
00000000
,
00000000
02030000
00000000
00000000
,
00000000
00000000
00000000
00000000
,
00000000
03200000
00000000
00302000
,
00000000
00023000
00000000
00030200
,
00000000
00000320
00000000
00000000
,
00000000
00000000
00000000
00000030
;
