#VERSION:0.83;
#TITLE:極圏 (HVN Medley);
#SUBTITLE:;
#ARTIST:cosMo vs. dj TAKA;
#TITLETRANSLIT:Kyokuken (HVN Medley);
#SUBTITLETRANSLIT:;
#ARTISTTRANSLIT:;
#GENRE:VARIETY;
#ORIGIN:;
#CREDIT:MILEN;
#BANNER:Kyokuken (HVN Medley).png;
#BACKGROUND:Kyokuken (HVN Medley)-bg.png;
#PREVIEWVID:;
#JACKET:Kyokuken (HVN Medley)-jacket.png;
#CDIMAGE:;
#DISCIMAGE:;
#LYRICSPATH:;
#CDTITLE:;
#MUSIC:Kyokuken (HVN Medley).mp3;
#OFFSET:-0.072000;
#SAMPLESTART:96.303886;
#SAMPLELENGTH:12.713623;
#SELECTABLE:YES;
#DISPLAYBPM:207.000000;
#BPMS:0.000=207.000,
398.000=414.000,
400.000=207.000,
483.500=414.000,
484.500=207.000;
#STOPS:328.000=0.145,
328.500=0.145,
483.500=0.290;
#DELAYS:;
#WARPS:;
#TIMESIGNATURES:0.000=4=4;
#TICKCOUNTS:0.000=4;
#COMBOS:0.000=1;
#SPEEDS:0.000=1.000=0.000=0;
#SCROLLS:0.000=1.000;
#FAKES:;
#LABELS:0.000=Song Start;
#BGCHANGES:;
#KEYSOUNDS:;
#ATTACKS:
;

//---------------dance-single - ----------------
#NOTEDATA:;
#CHARTNAME:;
#STEPSTYPE:dance-single;
#DESCRIPTION:;
#CHARTSTYLE:;
#DIFFICULTY:Challenge;
#METER:18;
#RADARVALUES:0.990158,1.271579,0.448044,0.298696,0.896088,1021.000000,955.000000,66.000000,44.000000,0.000000,0.000000,0.000000,0.000000,0.000000,0.990158,1.271579,0.448044,0.298696,0.896088,1021.000000,955.000000,66.000000,44.000000,0.000000,0.000000,0.000000,0.000000,0.000000;
#CREDIT:MILEN;
#DISPLAYBPM:207.000000;
#NOTES:
0000
0000
0000
0000
,
0000
0000
0000
0000
,
0000
0000
0000
0000
,
0000
0000
0000
0000
,
0000
0000
0000
0000
,
2002
0000
0000
3003
,
1000
0001
1000
0001
1000
0001
1000
0001
0100
0000
0100
0000
0220
0000
0330
0000
,
0010
0000
1000
0000
0010
0000
1000
0000
0100
0000
0000
0010
0000
0000
0001
0000
,
0001
0000
0100
0000
0001
0000
0100
0000
0010
0000
0000
1000
0000
0000
0100
0000
,
0100
0000
0010
0000
0100
0000
0010
0000
0001
0000
0000
0100
0000
0000
0110
0000
,
0010
0000
1000
0000
0001
0000
0100
0010
0100
0010
0100
0010
0100
0010
0100
0010
,
2000
0000
3100
0100
0010
0001
0100
0010
,
1000
0000
0001
0000
0010
0000
0100
0000
2100
0000
0000
0000
3100
0010
0100
0010
,
0001
0000
0000
0100
0000
0000
1000
0000
0100
0000
0010
0000
1000
0000
0100
0000
,
0010
0000
0001
0000
0100
0000
0010
0000
1000
0001
1000
0001
0200
0000
0000
0000
,
0310
0000
0010
0000
1000
0000
0001
0000
0010
0000
0000
0100
0000
0000
1000
0000
,
0010
0000
0001
0000
0010
0000
0100
0000
1000
0000
0000
0100
0000
0000
0001
0000
,
0010
0000
0100
0000
1000
0010
1000
0010
0100
0000
0000
0001
0000
0000
0010
0000
,
0000
1000
0000
0000
0001
0000
0100
1000
0000
0100
0010
0000
0100
1000
0000
0100
,
0001
0000
0001
0000
0100
0000
0100
0000
0010
0000
0010
0000
0001
0000
0100
0010
,
0100
0000
0100
0000
0010
0000
0010
0000
1000
0000
1000
0000
0001
0010
0001
0010
,
0100
0000
1000
0000
0010
0100
0010
0100
0001
0000
0010
0000
0100
1000
0100
1000
,
0020
0030
0200
0300
0002
2003
3002
0103
,
0100
0000
0010
1000
0000
0100
1000
0000
0001
0000
0000
1000
0000
0000
0100
0000
,
0010
0000
0001
0100
0000
0010
0100
0000
0010
0000
0000
1000
0000
0000
0001
0000
,
1000
0000
0010
0100
0000
0001
0100
0000
0010
0000
0000
1000
0000
0000
0001
0000
,
0100
0000
0001
0010
0000
0100
0010
0000
0100
0000
0000
1000
0000
0000
0010
0000
,
2000
0000
0000
3002
0000
0000
0203
0000
0320
0000
0000
2030
0000
0000
3200
0000
,
0320
0000
0000
0032
0000
0000
2003
0000
3020
0000
0000
0230
0000
0000
0301
0000
,
0100
0100
0000
0010
1000
0100
0110
0000
,
0011
0000
0000
1100
0000
0000
1010
0000
0000
0101
0000
0000
0110
0000
1001
0000
,
0010
0000
1000
0001
0000
0100
0001
1000
0000
0100
0000
1000
0001
0000
0100
0010
,
0100
0000
0010
1000
0000
0001
0010
0100
0000
0010
0000
0100
1000
0000
0001
0100
,
0001
0000
1000
0001
0000
0100
0010
1000
0000
0001
0000
0100
0010
0000
0100
0010
,
0100
0000
0000
0100
0000
0000
0100
0000
0001
1000
0100
1000
0000
0001
0100
0000
,
0001
0000
0001
0100
0000
0010
0100
0010
0000
1000
0000
0001
0010
0000
0001
1000
,
0010
0000
0100
0001
0000
1000
0100
1000
0000
0010
0000
0100
0001
0000
1000
0001
,
0100
0000
0001
0010
0000
0100
0010
0100
0000
0010
0000
0001
1000
0000
0010
1000
,
0001
0000
0000
0001
0000
0000
0001
0000
1000
0100
1000
0100
0000
1000
0010
0000
,
1010
0000
0000
1001
0000
0000
0011
0000
0000
1001
0000
0000
0110
0000
1001
0000
,
0010
0000
0100
0000
1000
0100
1000
0000
0001
0000
0000
0100
0000
0000
0001
0000
,
0011
0000
0000
1001
0000
0000
1010
0000
0000
1001
0000
0000
0110
0000
1001
0000
,
0010
0000
1000
0000
0100
1000
0100
0000
1000
0001
0000
0100
0000
0000
0010
0000
,
1010
0000
0000
0110
0000
0000
0101
0000
0000
1100
0000
0000
0110
0000
0011
0000
,
0010
0000
0100
0000
1000
0001
1000
0000
0010
0000
0000
1000
0000
0000
0001
0000
,
0011
0000
0000
1001
0000
0000
1100
0000
0000
0101
0000
0000
1001
0000
1010
0000
,
0200
0000
0000
0310
,
2002
0000
0000
0000
,
0000
0000
0000
3003
,
1001
1000
0001
1000
,
0010
0000
0100
0010
0100
0000
0020
0000
0000
0000
0130
0000
0110
0000
0000
0000
,
0010
1000
0010
1000
0100
0010
0100
0010
,
0001
0100
0001
0100
0010
1000
0001
0000
,
0100
0001
0100
0001
0010
0100
0010
0100
,
1000
0000
0010
0000
1000
0000
0010
0000
0100
0000
0001
0000
1000
0000
0010
0100
,
0010
0100
0001
0010
0100
0010
0100
1000
,
0010
0100
0001
1000
0100
0010
0001
0100
,
0010
1000
0010
0001
0010
1000
0010
0100
,
0101
0000
0000
0000
0110
0000
0000
0000
1010
0000
0010
0100
0002
0000
0000
0000
,
0013
0100
1000
0010
0100
0001
1000
0100
,
0010
0001
0100
0010
1000
0001
1001
0000
,
1000
0010
0100
0001
1000
0100
0010
0001
,
0100
0000
0010
0000
1000
0000
0001
0000
0010
0000
0100
0000
1000
0000
0010
0100
,
0001
0000
0001
0000
1000
0000
1000
0000
0010
0000
0010
0000
0100
0000
0100
0001
,
0100
0000
0010
0000
1000
0000
0010
0100
0010
0000
0010
0000
0100
0000
0001
0000
,
0011
0100
1100
0000
1010
0000
0101
0001
,
1000
0010
0100
0010
1000
0010
0100
0010
2000
0000
0000
0000
3100
0010
0100
0010
,
0001
0000
0000
0100
0000
0000
0010
0000
0000
1000
0001
0000
0100
0000
0001
0000
,
1000
0100
0000
0100
0000
0010
0100
0000
1000
0000
0000
0010
0000
0000
0100
0000
,
0001
0100
0010
0000
0100
0000
0001
0000
0010
0000
0000
0100
0000
0000
0010
0000
,
0001
0100
0000
0100
0000
0010
1000
0000
0100
0010
0001
0000
0010
0000
0100
0000
,
1000
0000
0000
0010
0000
0000
0100
0000
0000
0001
0100
0000
0010
0000
1000
0000
,
0001
0010
0000
0010
0000
0100
0010
0000
0001
0000
0000
0100
0000
0000
0010
0000
,
1000
0010
1000
0000
0100
0000
0010
0000
0001
0000
0000
0100
0000
0000
0010
0000
,
1000
0001
0000
0001
0000
0100
0010
0000
1000
0010
1000
0000
0100
0000
0100
0000
,
0010
0000
0000
0001
0000
0000
0100
0000
0000
0010
1000
0000
0010
0000
0100
0000
,
0001
1000
0000
1000
0000
0010
0100
0000
0010
0000
0000
1000
0000
0000
0100
0000
,
0010
0100
0010
0000
0001
0000
0100
0000
0010
0000
0000
1000
0000
0000
0001
0000
,
0010
0100
0000
0100
0000
0010
0001
0000
0100
0010
1000
0000
0010
0000
0010
0000
,
0110
1010
1100
0101
,
0011
1001
0110
1001
,
0110
0000
0100
0002
0000
0000
1003
0000
1000
0010
1000
0010
0100
0001
1000
0010
,
0100
0000
0100
0000
0100
0000
0100
0000
2002
0000
3003
0000
0001
0000
0100
0001
,
0010
0000
0001
0000
0100
0000
0010
0000
0001
0000
0010
0000
0100
0000
0010
1000
,
0100
0000
0010
0000
0100
0000
1000
0000
0100
0000
0100
0000
0010
0001
0100
0000
,
0010
0000
0010
0000
1000
0100
0010
0000
0100
0000
0100
0000
1000
0010
0000
0100
,
0001
0000
0010
0000
0100
0000
0110
0000
0110
0000
0010
0000
0100
0000
1000
0010
,
0100
0000
1000
0000
0100
0000
0010
0000
0100
0000
1000
0000
0100
0000
0010
0100
,
0001
0000
0010
0000
0100
0000
0010
0000
0001
0000
0010
0000
0110
0000
0000
1100
,
0000
0101
0001
0100
1000
0020
0000
0100
,
0000
0100
0000
0000
0130
0000
0000
0000
1001
0000
0000
0000
0001
0000
0000
0000
,
0001
0001
0001
0100
,
0100
0100
0100
1000
,
1000
1000
1000
0010
,
0010
0000
0010
0000
0010
0000
0001
0100
,
0001
0100
1000
0010
1000
0010
0001
0100
,
1000
0000
0010
0000
0001
0000
0100
0000
1000
0000
0010
0000
0001
0100
0001
0100
,
0001
0100
0001
0100
0001
0100
0001
0100
0001
0100
0001
0100
0010
1000
0010
1000
,
0010
1000
0010
1000
0010
1000
0200
0000
0000
0000
0310
0001
0020
0000
0000
0032
,
0000
0000
2003
0000
3010
0100
0001
1000
0200
0000
0000
0000
0000
0000
0000
0000
,
0310
0010
0001
0100
1000
0100
0010
0001
,
0010
0000
1000
0000
0100
0010
0100
0000
0010
0001
0010
0000
0001
0100
0001
0000
,
0100
0010
0100
0000
0010
1000
0010
0000
1000
0000
1100
0000
0001
0000
0101
0000
,
1000
0000
0100
0000
0010
0000
0001
0100
0010
0000
1000
0000
0001
0000
0010
0000
,
0100
0000
1000
0000
0010
0000
0100
0001
1000
0000
0100
0000
0010
0000
0001
0000
,
0100
0000
0100
0000
0010
0000
0010
0000
1000
0000
1000
0000
0001
0100
0001
0100
,
0010
1000
0010
1000
0100
1000
0100
1000
0100
0010
0100
0010
0001
0010
0001
0010
,
0001
0001
0100
1000
0100
0010
1000
0010
,
0001
0010
0100
0001
0100
1000
0100
0010
,
0100
0001
0100
0001
0020
0000
0000
0000
0130
1000
0100
1000
0002
0000
0000
0000
,
0103
0010
0100
0010
2000
0000
0000
0000
3001
0010
0001
0010
0200
0000
0000
0000
,
0310
0000
0100
0000
1000
0000
0010
0000
0001
0010
0100
0010
1000
0000
0100
0000
,
0110
0000
0010
0000
0001
0000
0100
0000
1000
0100
0010
0100
0001
0000
1000
0000
,
0010
0100
0001
1000
0100
0000
0010
0000
0001
0100
0010
1000
0001
0000
0010
0000
,
0100
1000
0100
1000
0010
0100
0010
0100
0001
0010
0001
0010
0100
1000
0010
0100
,
0001
0000
0001
1000
0000
1000
0010
0000
0010
0100
0000
0100
,
0001
0000
0001
0010
0000
0010
0100
0001
0100
1000
0100
0010
,
0001
0000
0001
0100
0000
0100
1000
0000
1000
0010
0000
0010
,
0001
0000
0001
0010
0000
0010
1000
0000
1000
0100
0000
0100
,
0001
0010
0100
0010
0001
0010
0100
1000
0100
0010
0100
1000
,
0010
0000
0001
0000
0010
0000
1000
0000
0100
0000
0001
0000
0100
0000
1000
0000
0010
0000
0100
0000
0000
0100
0000
0000
,
0000
2002
0000
0000
0000
0000
0000
0000
,
0000
0000
0000
0000
,
0000
0000
0000
0000
,
0000
0000
0000
0000
0000
0000
0000
3003
;

//---------------dance-single - ----------------
#NOTEDATA:;
#CHARTNAME:;
#STEPSTYPE:dance-single;
#DESCRIPTION:;
#CHARTSTYLE:;
#DIFFICULTY:Hard;
#METER:17;
#RADARVALUES:0.885420,1.144421,0.475198,0.319062,0.590603,913.000000,843.000000,70.000000,47.000000,0.000000,0.000000,0.000000,0.000000,0.000000,0.885420,1.144421,0.475198,0.319062,0.590603,913.000000,843.000000,70.000000,47.000000,0.000000,0.000000,0.000000,0.000000,0.000000;
#CREDIT:MILEN;
#DISPLAYBPM:207.000000;
#NOTES:
0000
0000
0000
0000
,
0000
0000
0000
0000
,
0000
0000
0000
0000
,
0000
0000
0000
0000
,
0000
0000
0000
0000
,
2002
0000
0000
3003
,
0001
1000
0001
1000
0001
0100
0220
0330
,
0010
1000
0001
0100
0010
1000
0001
0000
,
0100
0001
1000
0010
0100
0001
1000
0000
,
0010
0000
1000
0000
0001
0000
0100
0000
0010
0000
0000
0010
0000
0000
0010
0000
,
0000
0000
1010
0000
1000
0000
0100
0000
0010
0001
0010
0000
0100
0000
0010
0000
,
0110
0000
0100
1000
0010
0000
0100
0001
,
0010
0000
0000
0000
0100
0000
1000
0000
0001
0000
0000
0000
0010
0001
0010
0001
,
1000
0000
0000
1000
0000
0000
1000
0000
0000
0000
1100
0000
0100
0000
0010
0000
,
0001
0000
0010
0000
0100
0000
0010
0000
0001
0100
0010
0000
2010
0000
0000
0000
,
3001
0100
0010
1000
0100
0010
0001
0100
,
0010
1000
0001
0010
0100
1000
0010
0100
,
0001
0000
1000
0000
0100
0000
0010
0000
0011
0000
0000
0001
0000
0000
0101
0000
,
0000
0100
0000
0000
0110
0000
0000
0010
0000
0000
1010
0000
0000
1000
0000
0000
,
1001
0000
0001
0000
0010
0000
0100
0000
0010
0000
0001
0000
0100
0000
0010
1000
,
0010
0000
1000
0000
0001
0000
0010
0000
0001
0000
1000
0000
0010
0000
0100
0001
,
0100
0000
0001
0000
0010
0000
0100
0010
0100
0000
0010
0000
0100
0000
1000
0000
,
0020
0030
0200
0300
0002
2003
3002
2003
,
3100
0000
0010
0000
0001
0000
0000
0000
1000
0000
0000
0001
0000
0000
0100
0000
,
0010
0000
1000
0000
0100
0000
0000
0000
0010
0000
0000
0001
0000
0000
1000
0000
,
0001
0000
0010
0000
0100
0000
0000
0000
0010
0000
0000
0001
0000
0000
1000
0000
,
0100
0000
1000
0000
0010
0000
0000
0000
0100
0000
0000
0001
0000
0000
0010
0000
,
0001
0000
0000
1000
0000
0000
0100
0000
0010
0000
0000
0001
0000
0000
0100
0000
,
0010
0000
0000
1000
0000
0000
0001
0000
0010
0000
0000
0100
0000
0000
1000
0000
,
0100
0100
0000
0010
0001
0100
0110
0000
,
1010
0000
0000
0101
0000
0000
0011
0000
0000
1100
0000
0000
0110
0000
1001
0000
,
0010
0001
1000
0100
0001
0100
1000
0100
,
0010
0001
0010
1000
0010
0100
1000
0010
,
0100
0001
1000
0100
0010
0100
1000
0010
,
0100
0000
0000
0100
0000
0000
0100
0000
0001
0000
0000
1000
0000
0000
0010
0000
,
0001
1000
0100
0010
1000
0010
0001
1000
,
0010
0100
1000
0100
0001
0010
0100
1000
,
0010
1000
0001
0010
0100
1000
0001
0100
,
0110
0000
0000
0000
1000
0001
1000
0001
,
0010
0000
0000
0110
0000
0000
1000
0000
0000
1010
0000
0000
0001
0000
0101
0000
,
0010
0100
0001
0100
0020
0000
0130
0000
,
0001
0000
0000
1001
0000
0000
0010
0000
0000
0110
0000
0000
0100
0000
1100
0000
,
0010
0001
0100
0000
0100
0001
0010
0000
,
0010
0000
0000
0110
0000
0000
0001
0000
0000
0011
0000
0000
1000
0000
1100
0000
,
0010
0100
1000
0100
0020
0000
0130
0000
,
1000
0000
0000
1001
0000
0000
0010
0000
0000
0110
0000
0000
0100
0000
0101
0000
,
2000
0000
0000
3100
,
0202
0000
0000
0000
,
0000
0000
0000
0303
,
0001
1000
0001
1000
,
0010
0000
0100
0010
0100
0000
0020
0000
0000
0000
0130
0000
0110
0000
0000
0000
,
0100
0001
0000
0000
0001
1000
0000
0000
1000
0010
0000
0000
0010
0000
0110
0000
,
0000
0100
0001
0100
0010
0001
0000
0010
,
1000
0100
0000
0000
0100
0010
0000
0000
0010
0001
0000
0000
0001
0000
1001
0000
,
0000
0000
1000
0000
0010
0000
0100
0000
1000
0000
0100
0000
0000
0000
0100
0010
,
0100
0001
0010
0100
1000
1010
0010
0100
,
0001
0101
0000
0011
0000
1100
0000
1000
,
0110
0001
1000
0001
0110
1000
0001
1000
,
1001
0000
0000
0000
0110
0000
0000
0000
1001
0000
0010
0100
0020
0000
0000
0000
,
1030
0010
0000
0000
0010
0100
0000
0000
0100
0001
0000
0000
0001
0000
0011
0000
,
0000
0010
0100
0001
0100
1000
0000
1000
,
0010
0100
0000
0000
0100
0001
0000
0000
0001
1000
0000
0000
1000
0000
1010
0000
,
0000
0000
0010
0000
0100
0000
1000
0000
0100
0000
0001
0000
0000
0000
0001
0010
,
0001
0000
0010
0000
0100
0000
1000
0000
0010
0000
0110
0000
0100
0000
0001
1000
,
0001
0000
0100
0000
0010
0000
1000
0001
1000
0000
0010
0000
0100
0000
0001
0000
,
0011
0110
1100
0000
1010
0000
0101
0001
,
1000
0010
1000
0010
0100
0001
0100
0001
2000
0000
0000
0000
0002
0000
3003
0000
,
0001
0000
0000
0100
0000
0000
0020
0000
0000
0000
1030
0000
0001
0000
0010
0000
,
0100
0010
0000
0100
0000
0010
0100
0000
1000
0000
0000
0010
0000
0000
0100
0000
,
0001
0010
0000
0001
0010
0000
0001
0000
0100
0000
0000
0010
0000
0000
1000
0000
,
0001
0100
0000
0001
0000
0100
0010
0000
1000
0010
1000
0000
0100
0000
0010
0000
,
0001
0000
0000
1000
0000
0000
0020
0000
0000
0000
0130
0000
0001
0000
0010
0000
,
0100
1000
0000
0100
0000
1000
0100
0000
0010
0000
0000
0100
0000
0000
1000
0000
,
0010
0100
0000
0010
0100
0000
0001
0000
1000
0000
0000
0100
0000
0000
0010
0000
,
0001
0100
0000
0001
0000
1000
0100
0000
0010
0100
0010
0000
0001
0000
0100
0000
,
0010
0000
0000
1000
0000
0000
0002
0000
0000
0000
0013
0000
0100
0000
1000
0000
,
0010
0100
0000
0001
0000
0100
0010
0000
1000
0000
0000
0001
0000
0000
0100
0000
,
0010
1000
0000
0010
1000
0000
0100
0000
0010
0000
0000
0001
0000
0000
1000
0000
,
0010
0100
0000
0001
0000
0100
0010
0000
1000
0100
1000
0000
0001
0000
0100
0000
,
0110
1010
0101
0011
,
1100
0110
1001
0110
,
0010
0100
0000
0020
0000
0000
1030
0000
1000
0100
1000
0100
0010
0001
0010
0001
,
0100
0000
0100
0000
0100
0000
0100
0000
2002
0000
3003
0000
0001
0100
0000
0100
,
0001
0000
1000
0000
0100
0000
0010
0000
0001
0000
0100
0000
0010
1000
0000
1000
,
0010
0000
0100
0000
0001
0000
0010
0000
0100
0000
1000
0000
0010
0100
0010
0000
,
1000
0000
0001
0000
0100
0010
0100
0000
0001
0000
1000
0000
0010
0100
0000
0100
,
0001
0000
1000
0000
0010
0000
0100
0000
0101
0000
0000
0000
0001
1000
0000
1000
,
0001
0000
0100
0000
0010
0000
1000
0000
0001
0000
0010
0000
0100
1000
0000
1000
,
0100
0000
0010
0000
0001
0000
0100
0000
0010
0000
1000
0000
1100
0000
0000
0101
,
0000
1001
1000
0010
0001
0100
0000
1010
,
0000
0011
0000
0000
1001
0000
0000
0000
0220
0000
0330
0000
0010
0000
0000
0000
,
0010
0010
0010
1000
,
1000
1000
1000
0001
,
0001
0001
0001
0100
,
0100
0000
0100
0000
0100
0000
0010
1000
,
0010
1000
0010
1000
0010
1000
0100
0001
,
0100
0000
0001
0000
0100
0000
0001
0000
0100
0000
0001
0000
0010
0100
0010
0000
,
1000
0010
1000
0000
0001
0100
0001
0000
0100
0010
0100
0000
0001
1000
0001
1000
,
0001
1000
0001
1000
0001
1000
0001
1000
0002
0000
0000
0000
2003
0000
0000
0000
,
3020
0000
0000
0000
0130
0001
0100
0001
2000
0000
0000
0000
0000
0000
0000
0000
,
3001
0001
0100
0100
0010
0010
1000
1000
,
0200
0000
0000
0000
0310
0001
0010
0000
0001
0100
0001
0000
0100
0010
0100
0000
,
0010
1000
0010
0000
1000
0100
1000
0000
0100
0000
0010
0000
0100
0000
0010
0000
,
0001
0000
0001
0000
0100
0000
0010
1000
0100
0000
1000
0000
0001
0000
0100
0000
,
0100
0000
0010
0000
1000
0000
0001
0010
0100
0000
0010
0000
0001
0000
0100
0000
,
0020
0000
0000
2030
0000
0000
3002
0000
0203
0000
0000
0320
0000
0000
2030
0000
,
3001
0100
0010
0000
1000
0010
0100
0000
0001
0100
0010
0000
1000
0010
0100
0000
,
0001
0010
0001
0000
0100
0000
1000
0000
0100
0000
0010
0000
0001
0000
0010
0000
,
1000
0100
1000
0000
0010
0000
0001
0000
0010
0000
0100
0000
1000
0000
0100
0000
,
0001
0010
0100
0000
2000
0000
0000
0000
3010
0100
0001
0000
0020
0000
0000
0000
,
0130
1000
0010
0000
0200
0000
0000
0000
0301
1000
0100
0000
0020
0000
0000
0000
,
0031
0000
0001
0000
0100
0000
0010
0000
1000
0100
1000
0100
0010
0000
0001
0000
,
1000
0000
0010
0000
0100
0000
0001
0000
0010
0100
0010
0100
1000
0000
0010
0000
,
0100
0100
0001
0001
1000
1000
0010
0010
,
0100
0001
0010
0000
0100
1000
0010
0000
0100
0001
0010
0000
0100
1000
0010
0000
,
0200
0000
0301
0010
0000
0010
0100
0000
0100
1000
0000
1000
,
0010
0000
0010
0100
0000
0100
0001
1000
0010
1000
0001
0100
,
0010
0000
0010
1000
0000
1000
0100
0000
0100
0010
0000
0010
,
0001
0000
0001
0100
0000
0100
1000
0000
1000
0010
0000
0010
,
0002
0000
0000
0000
,
1003
0000
0010
0000
0100
0000
0001
0000
0010
0000
0100
0000
1000
0000
0010
0000
0100
0000
0001
0000
0000
1000
0000
0000
,
0000
2002
0000
0000
0000
0000
0000
0000
,
0000
0000
0000
0000
,
0000
0000
0000
0000
,
0000
0000
0000
0000
0000
0000
0000
3003
;

//---------------dance-single - ----------------
#NOTEDATA:;
#CHARTNAME:;
#STEPSTYPE:dance-single;
#DESCRIPTION:;
#CHARTSTYLE:;
#DIFFICULTY:Medium;
#METER:15;
#RADARVALUES:0.780683,1.017263,0.488775,0.224022,0.281725,805.000000,733.000000,72.000000,33.000000,0.000000,0.000000,0.000000,0.000000,0.000000,0.780683,1.017263,0.488775,0.224022,0.281725,805.000000,733.000000,72.000000,33.000000,0.000000,0.000000,0.000000,0.000000,0.000000;
#CREDIT:MILEN;
#DISPLAYBPM:207.000000;
#NOTES:
0000
0000
0000
0000
,
0000
0000
0000
0000
,
0000
0000
0000
0000
,
0000
0000
0000
0000
,
0000
0000
0000
0000
,
2002
0000
0000
3003
,
1000
0010
0100
0001
1000
0010
0110
0000
,
0100
0001
0100
0000
0010
1000
0010
0000
,
0100
0001
1000
0000
0010
1000
0001
0000
,
0100
0000
0001
0000
1000
0000
0010
0000
0100
0000
0000
0100
0000
0000
0100
0000
,
0000
0101
0001
0010
0100
1000
0100
1000
,
1100
0000
0100
1000
0100
0000
0010
0001
,
0010
0000
0001
0100
0010
0000
1000
0010
,
0100
0001
1000
0100
0010
0000
0001
0100
,
0010
0000
1000
0000
0001
0000
0010
0000
0100
0010
0100
0000
2000
0000
0000
0000
,
3010
0100
0001
0000
0100
0010
1000
0000
,
0100
0010
0001
0000
1000
0100
0010
0000
,
0001
0000
0100
0000
1000
0000
0100
0000
0001
0000
0000
0010
0000
0000
0100
0000
,
0000
0001
0000
0000
0100
0000
0000
1000
0000
0000
0010
0000
0000
0100
0000
0000
,
0001
1000
0100
0010
0001
1000
0010
0000
,
1000
0001
0010
0100
1000
0001
0100
0000
,
0010
1000
0010
1000
0100
0001
0100
0001
,
0020
0000
0230
0000
0301
1000
1001
0000
,
0100
0010
1000
0000
0001
0000
1000
0000
,
0010
0001
0100
0000
0010
0000
0001
0000
,
1000
0010
0100
0000
0010
0000
1000
0000
,
0100
0001
0010
0000
0100
0000
0010
0000
,
1000
0001
0100
0000
0010
1000
0100
0000
,
0010
0001
1000
0000
0010
0100
0001
0000
,
0100
0100
0000
0010
0010
0000
1001
0000
,
0010
0000
0000
1000
0000
0000
0010
0000
0000
0100
0000
0000
0001
0000
1000
0000
,
0010
1000
0001
0000
1000
0000
0001
0000
,
0010
0100
0010
0000
0001
0000
0100
0000
,
0010
1000
0001
0000
1000
0000
0100
0000
,
0011
1100
0010
0100
,
1000
0001
0100
0000
0001
0000
1000
0000
,
0010
0100
0001
0000
1000
0000
0100
0000
,
0010
0001
0010
0000
0100
1000
0100
0000
,
0110
0000
0000
0000
0001
1000
0001
0000
,
0010
0000
0000
0010
0000
0000
0100
0000
0000
0100
0000
0000
1000
0000
0001
0000
,
0010
0000
0100
1000
0002
0000
0103
0000
,
0010
0000
0000
0010
0000
0000
0100
0000
0000
0100
0000
0000
0001
0000
1000
0000
,
0010
0000
0100
0001
2000
0000
3100
0000
,
0010
0000
0000
0010
0000
0000
0100
0000
0000
0100
0000
0000
0010
0000
0100
0000
,
0010
0000
0001
0100
0020
0000
0130
0000
,
0001
0000
0000
0001
0000
0000
1000
0000
0000
1000
0000
0000
0010
0000
0100
0000
,
0010
1000
0100
0010
,
2002
0000
0000
0000
,
0000
0000
0000
3003
,
0001
1000
0001
1000
,
0001
0000
0100
0010
0100
0000
0020
0000
0000
0000
1030
0000
1001
0000
0000
0000
,
0101
0000
1100
0000
0101
0000
0001
0010
,
0100
0001
0100
1000
0010
0100
0101
0000
,
1010
0000
0011
0000
1010
0000
1000
0100
,
0010
1000
0010
0001
0100
0010
0000
0110
,
0101
0000
0001
0010
0100
1100
0000
1000
,
0001
0011
0000
0110
0000
1001
0000
1000
,
0100
0110
0000
0010
0001
0100
1000
0100
,
0110
0000
0000
0000
1010
0000
0000
0000
0101
0000
0001
0010
0002
0000
0000
0000
,
1003
0010
0100
0001
0100
1000
0100
0010
,
0001
0010
1000
0010
0100
0100
0100
0000
,
0001
0010
1000
0010
0100
0001
0100
1000
,
0010
0000
0100
0000
0001
0000
1000
0000
0100
0000
0100
0000
0100
0000
0010
0001
,
0010
0001
0100
0010
1000
0001
0010
0100
,
1001
1000
0010
0100
0001
1000
0100
0010
,
1001
0001
0110
0000
1001
0000
1000
0010
,
0100
0001
0100
0000
0010
1000
0010
0000
2000
0000
0000
0000
3200
0000
0000
0000
,
0310
0000
0000
0010
0000
0000
0020
0000
0000
0000
0031
0000
0100
0000
0010
0000
,
1000
0000
0000
0001
0000
0000
0010
0000
0100
0000
0000
1000
0000
0000
0010
0000
,
0100
0000
0001
0000
1000
0000
0100
0000
0010
0000
0000
0001
0000
0000
0100
0000
,
0010
1000
0000
0010
0000
0000
0100
0000
0001
0000
1000
0000
0100
0000
0010
0000
,
0001
0000
0000
0001
0000
0000
0002
0000
0000
0000
0103
0000
0010
0000
1000
0000
,
0001
0000
0000
0010
0000
0000
0100
0000
1000
0000
0000
0010
0000
0000
0100
0000
,
0001
0000
1000
0000
0100
0000
0010
0000
0001
0000
0000
0100
0000
0000
0010
0000
,
1000
0001
0000
1000
0000
0000
0010
0000
0100
0000
0001
0000
0010
0000
0100
0000
,
1000
0000
0000
1000
0000
0000
2000
0000
0000
0000
3100
0000
0010
0000
0001
0000
,
0100
0000
0000
0010
0000
0000
1000
0000
0100
0000
0000
0001
0000
0000
0100
0000
,
0010
0000
0001
0000
0100
0000
1000
0000
0100
0000
0000
0010
0000
0000
1000
0000
,
0001
0010
0000
0001
0000
0000
0100
0000
0010
0000
1000
0000
0001
0000
0100
0000
,
0120
1030
0210
0301
,
0120
0031
0210
1300
,
0100
0000
0010
0000
1000
0000
0001
0000
0100
0000
0010
0000
1000
0001
1000
0001
,
1000
0000
0001
0000
1000
0000
0001
0000
2002
0000
3003
0000
1001
0000
0000
1010
,
0000
0000
0100
0000
0001
0000
0010
0000
0100
0000
1000
0000
1010
0000
0000
0101
,
0000
0000
1000
0000
0100
0000
0010
0000
0001
0000
0100
0000
0110
0000
0000
1001
,
0000
0000
1000
0000
0100
0000
0001
0000
0100
0000
0010
0000
0011
0000
0000
1100
,
0000
0000
1000
0000
0010
0000
0100
0000
0001
0000
1000
0000
1100
0000
0000
0011
,
0000
0000
0001
0000
0100
0000
1000
0000
0100
0000
0010
0000
1010
0000
0000
0011
,
0000
0000
0100
0000
0001
0000
1000
0000
0010
0000
0100
0000
0101
0000
0000
0011
,
0000
1100
1000
0010
0100
0102
0000
1000
,
0000
1000
0000
0000
1003
0000
0000
0000
0220
0000
0330
0000
1000
0000
0010
0000
,
0001
0000
0001
0100
1000
0000
1000
0010
,
0100
1000
0100
0001
1000
0000
0001
0010
,
1000
0000
1000
0100
0001
0000
0001
0010
,
0100
0001
0100
1000
0001
0000
1000
0010
,
0100
0010
0001
0010
1000
0000
0001
0100
,
0010
0100
1000
0100
0001
0000
0010
0100
,
1000
0000
0010
0000
0001
0000
1000
0000
0100
0000
0001
0000
0010
0100
0010
0000
,
0100
1000
0100
0000
0010
0001
0010
0000
0001
1000
0001
0000
0200
0000
0000
0000
,
0000
0000
0000
0000
0310
1000
0001
0100
0020
0000
0000
0000
0000
0000
0000
0000
,
1030
0100
0010
0001
,
1000
0010
0100
1000
0100
0001
1000
0010
,
0001
0010
0100
0001
0010
1000
0010
0100
,
1100
0000
0000
1010
0000
0000
0011
0000
0001
0000
1000
0000
0100
0000
0010
0000
,
0011
0000
0000
0101
0000
0000
1100
0000
1000
0000
0010
0000
0100
0000
0001
0000
,
0011
0000
0000
0110
0000
0000
1100
0000
1010
0000
0000
0110
0000
0000
0101
0000
,
1001
1000
0010
0001
0010
0100
1000
0100
,
0001
0010
0100
0001
0100
0010
0001
1000
,
0100
0010
1000
0010
0100
1000
0010
0100
,
0001
0010
0000
0000
1100
0000
0000
0000
1000
0010
0000
0000
0101
0000
0000
0000
,
1000
0100
0000
0000
0011
0000
0000
0000
0001
0100
0000
0000
1010
0000
0000
0000
,
1000
0000
0010
0000
0100
0000
1000
0000
0001
0000
0010
0100
0010
0000
1000
0000
,
0001
0000
0100
0000
0010
0000
0001
0000
1000
0000
0100
0010
0100
0000
0001
0000
,
1000
1000
0010
0010
0001
0001
0100
0100
,
1000
0000
0010
0000
0100
0000
0001
0000
1000
0000
0100
0010
0100
0010
0100
0000
,
0020
0000
0031
0100
0000
0100
0010
0000
0010
1000
0000
1000
,
0100
0000
0100
0010
0000
0010
0001
0010
0001
0010
0100
1000
,
0010
0100
0001
1000
,
0100
0001
0010
2000
,
0002
0000
0000
3003
,
0001
0000
0100
0000
0010
0000
1000
0000
0010
0000
0100
0000
0001
0000
0100
0000
0010
0000
1000
0000
0000
0001
0000
0000
,
0000
2002
0000
0000
0000
0000
0000
0000
,
0000
0000
0000
0000
,
0000
0000
0000
0000
,
0000
0000
0000
0000
0000
0000
0000
3003
;

//---------------dance-single - ----------------
#NOTEDATA:;
#CHARTNAME:;
#STEPSTYPE:dance-single;
#DESCRIPTION:;
#CHARTSTYLE:;
#DIFFICULTY:Easy;
#METER:11;
#RADARVALUES:0.508171,0.720561,0.285119,0.237599,0.000000,524.000000,482.000000,42.000000,35.000000,0.000000,0.000000,0.000000,0.000000,0.000000,0.508171,0.720561,0.285119,0.237599,0.000000,524.000000,482.000000,42.000000,35.000000,0.000000,0.000000,0.000000,0.000000,0.000000;
#CREDIT:MILEN;
#DISPLAYBPM:207.000000;
#NOTES:
0000
0000
0000
0000
,
0000
0000
0000
0000
,
0000
0000
0000
0000
,
0000
0000
0000
0000
,
0000
0000
0000
0000
,
2002
0000
0000
3003
,
0001
0000
1000
0000
0001
1000
0001
0000
,
1000
0100
0010
0001
,
0100
0010
1000
0001
,
0010
0100
1000
0010
,
0110
0000
0110
0000
0100
0001
1000
0010
,
0100
0001
1000
0100
,
0010
0000
0001
0000
1000
0000
0010
0100
,
0010
1000
0002
0000
,
1003
0000
1000
0000
0001
0100
0001
0000
,
1000
0100
0010
0001
,
0100
0010
1000
0001
,
0010
0100
1100
1100
,
0011
0011
0101
1010
,
1001
0000
0100
0010
0100
0000
0001
0000
,
1000
0100
0010
0001
,
1000
0010
1000
0000
0001
0100
0001
0000
,
2000
0000
3002
0000
0103
0100
0200
0000
,
0310
0010
1000
0000
,
0010
0010
0001
0000
,
0100
0100
1000
0000
,
0100
0100
0001
0000
,
2000
3100
0002
0103
,
2000
3010
0002
0013
,
0200
0000
0310
1001
,
0010
0000
0000
1000
0000
0000
0001
0000
,
0010
0001
1000
0001
,
0010
0100
1000
0010
,
0100
0001
1000
0100
,
0020
0031
0020
0130
,
1000
0100
0001
0100
,
1000
0010
0001
0010
,
1000
0010
0100
0010
,
2002
0003
0100
3100
,
0010
0000
0000
0001
0000
0000
1000
0000
,
2200
0000
0000
3300
,
0010
0000
0000
1000
0000
0000
0001
0000
,
0202
0000
0000
0303
,
0010
0000
0000
0100
0000
0000
0010
0000
,
2002
0000
0000
3003
,
0001
0000
0000
0100
0000
0000
1000
0000
,
0020
0000
0000
0130
,
2002
0000
0000
0000
,
0000
0000
0000
3003
,
0001
0000
1000
0000
,
0001
0000
1000
0000
0001
1000
1001
0000
,
0010
0010
1000
1000
,
0100
0000
0100
0000
0001
0010
0001
0000
,
0100
0100
1000
1000
,
0010
0000
0010
0000
0001
0100
0001
0000
,
0010
0010
1000
1000
,
0100
0100
0001
0001
,
1000
1000
0010
0010
,
0001
0000
0001
0000
0100
0100
0200
0000
,
0310
0000
1000
0000
0010
1000
0100
0000
,
0010
0000
0001
0000
0010
0001
0100
0000
,
0100
0000
0001
0000
0100
0001
0010
0000
,
0100
0000
1000
0000
0100
1000
0010
0000
,
0010
0100
0010
0000
1000
0000
0001
0000
,
0100
0010
0100
0000
0001
0000
1000
0000
,
0010
0100
0010
0000
0110
0000
0100
0001
,
0000
1000
0010
0200
0000
0000
0310
0000
,
1000
0001
1000
0001
,
0010
0100
0010
0100
,
1000
0001
0010
0100
,
1000
0001
1001
1001
,
0001
1000
0001
1000
,
0100
0010
0100
0010
,
0001
1000
0100
0010
,
0001
1000
1001
1001
,
0100
0001
0010
1000
,
0001
0100
1000
0010
,
0001
1000
0100
0001
,
0010
1000
0100
0110
,
0011
0100
1010
0001
,
1100
0010
0101
1000
,
0001
0100
0001
0000
1000
0010
1000
0000
,
0001
1000
0001
0000
2002
3003
1000
0000
,
0001
0000
0010
0001
1000
0000
0001
0000
,
1000
0000
0010
1000
0001
0000
1000
0000
,
0001
0000
0100
0001
1000
0000
0001
0000
,
1000
0000
0100
1000
0001
0000
0110
0000
,
1000
0000
0100
0010
0100
0000
0110
0000
,
0001
0000
0100
0010
0100
0000
0110
0000
,
1000
0000
0110
0000
0001
0001
0000
2002
,
0000
3003
1001
0001
,
0100
0001
0100
1000
,
0010
1000
0010
0001
,
0100
0001
0100
1000
,
0010
1000
0010
1000
,
0100
0001
0010
1000
,
0100
0000
0001
0000
0010
0000
0100
0010
,
0100
0000
0010
0100
0010
0000
0100
0010
,
0100
0010
0100
0010
0100
0010
0200
0000
,
0000
0000
0310
0000
,
0110
0010
0100
1000
,
0001
0010
0100
1000
,
0010
0001
1000
0100
,
0001
1000
0001
0000
0100
0000
0010
0000
,
1000
0001
1000
0000
0010
0000
0100
0000
,
0001
0010
0001
0000
1000
0010
1000
0000
,
0001
0100
0001
0000
1000
0100
1000
0100
,
0010
0001
0100
1000
,
0001
0010
1000
0100
,
0010
0100
0010
0000
0100
1000
0100
0000
,
0010
0001
0010
0000
0001
1000
0001
0000
,
1000
0010
0100
0000
1000
0000
0100
0000
,
0001
0100
0010
0000
0001
0000
0010
0000
,
1000
0100
0010
0000
0001
0010
0100
0000
,
1000
0001
1000
0001
1000
0001
1000
0001
,
1001
0100
1010
0001
,
1100
0010
0101
1000
,
0011
0100
1000
0010
,
0001
0100
1000
0010
,
0220
0000
0000
0330
,
0100
0010
1000
0001
0100
0010
1000
0001
,
0000
2002
0000
0000
0000
0000
0000
0000
,
0000
0000
0000
0000
,
0000
0000
0000
0000
,
0000
0000
0000
0000
0000
0000
0000
3003
;

//---------------dance-single - ----------------
#NOTEDATA:;
#CHARTNAME:;
#STEPSTYPE:dance-single;
#DESCRIPTION:;
#CHARTSTYLE:;
#DIFFICULTY:Beginner;
#METER:9;
#RADARVALUES:0.294817,0.466246,0.169714,0.183291,0.000000,304.000000,279.000000,25.000000,27.000000,0.000000,0.000000,0.000000,0.000000,0.000000,0.294817,0.466246,0.169714,0.183291,0.000000,304.000000,279.000000,25.000000,27.000000,0.000000,0.000000,0.000000,0.000000,0.000000;
#CREDIT:MILEN;
#DISPLAYBPM:207.000000;
#NOTES:
0000
0000
0000
0000
,
0000
0000
0000
0000
,
0000
0000
0000
0000
,
0000
0000
0000
0000
,
0000
0000
0000
0000
,
2002
0000
0000
0000
,
3003
0000
0000
1001
,
0001
0000
1000
0000
,
0010
0000
0100
0000
,
0001
0000
1000
1000
,
1000
0000
0001
0001
,
0001
0000
0100
0000
,
0010
0000
1000
0000
,
0001
0000
0100
0000
,
0010
0010
0010
0010
,
0010
0000
1000
0000
,
0100
0000
0010
0000
,
0001
0000
0100
0100
,
0100
0100
0100
0100
,
0100
0010
0100
0000
,
0010
0000
1000
0000
,
0001
0000
0100
0000
,
0010
0100
0010
0100
,
0020
0000
0030
0000
,
2000
0000
3000
0000
,
0200
0000
0300
0000
,
0002
0000
0003
0000
,
0001
0000
1000
0000
,
0001
0000
1000
0000
,
0002
0000
0003
0000
,
2000
0000
3000
0000
,
0010
0000
0001
0000
,
1000
0000
0001
0000
,
0100
0000
1000
0000
,
0010
0000
0010
0000
,
0100
0000
0001
0000
,
0010
0000
0001
0000
,
0100
0000
0001
0000
,
2002
0000
3003
0000
,
0000
0000
0000
0000
,
0002
0000
0003
0000
,
0000
0000
0000
0000
,
0020
0000
0030
0000
,
0000
0000
0000
0000
,
2000
0000
3000
0000
,
0000
0000
0000
0000
,
0100
0000
0000
0000
,
2002
0000
0000
0000
,
0000
0000
0000
3003
,
1001
0000
0000
0000
,
0100
0100
0100
0100
,
0010
1000
0010
0000
,
0100
0001
0100
0000
,
0010
1000
0010
0000
,
0100
0001
0100
0000
,
0010
1000
0010
1000
,
0001
0100
0001
0100
,
0010
0010
0010
1000
,
0001
1000
0001
1001
,
0010
0000
1000
0000
,
0100
0000
0010
0000
,
0001
0000
1000
0000
,
0010
0000
0100
0000
,
0001
1000
0001
1000
,
0100
0010
0100
0010
,
0001
0001
0002
0003
,
2000
3000
0020
0030
,
0110
0000
0000
0000
,
1000
0000
0000
0000
,
0110
0000
0000
0000
,
0001
0000
0000
0000
,
0110
0000
1000
0000
,
0110
0000
0001
0000
,
0110
0000
1001
0000
,
0110
0000
1001
1001
,
0001
1000
0100
0000
,
1000
0001
0100
0000
,
0001
1000
0010
0000
,
1000
0001
0010
0000
,
0001
1000
0001
1000
,
0010
0100
0010
0100
,
0001
1000
0010
0100
,
0010
0010
0010
0000
0110
0000
1000
0000
,
0100
0001
0000
1000
,
0100
0001
0000
1000
,
0100
0001
0100
1000
,
0000
1000
0000
0001
,
0010
1000
0000
0001
,
0010
1000
0000
0001
,
0010
1000
0020
0030
,
0001
0001
1001
0100
,
0000
0000
0000
0100
,
0000
0000
0000
0100
,
0000
0000
0000
0100
,
0000
0000
0000
0100
,
0000
0100
0000
0100
,
0000
0100
0000
0100
,
0100
0100
0100
0200
,
0000
0000
0300
1001
,
0000
0000
1001
0000
,
0001
0000
1000
0000
,
0010
0100
0001
1000
,
0010
0001
0100
1000
,
0010
0100
0020
0030
,
0100
0010
0200
0300
,
0001
1000
0010
0100
,
0001
1000
0001
1001
,
1000
0000
0010
0000
,
0100
0000
0001
0000
,
1000
1000
0001
0001
,
0100
0100
0010
0010
,
1000
0001
0010
0100
,
1000
0010
0100
0001
,
1000
0100
0010
0001
,
0100
1000
0010
0001
,
1001
0000
1001
0000
,
1001
0000
2002
3003
,
0001
1000
0010
0100
,
0001
0010
0100
1000
,
0020
0000
0000
0000
,
0130
0001
0010
1000
,
0000
2002
0000
0000
0000
0000
0000
0000
,
0000
0000
0000
0000
,
0000
0000
0000
0000
,
0000
0000
0000
0000
0000
0000
0000
3003
;

//---------------dance-double - ----------------
#NOTEDATA:;
#CHARTNAME:;
#STEPSTYPE:dance-double;
#DESCRIPTION:;
#CHARTSTYLE:;
#DIFFICULTY:Easy;
#METER:10;
#RADARVALUES:0.449014,0.635790,0.264753,0.203656,0.000000,463.000000,424.000000,39.000000,30.000000,0.000000,0.000000,0.000000,0.000000,0.000000,0.449014,0.635790,0.264753,0.203656,0.000000,463.000000,424.000000,39.000000,30.000000,0.000000,0.000000,0.000000,0.000000,0.000000;
#CREDIT:MILEN;
#DISPLAYBPM:207.000000;
#NOTES:
00000000
00000000
00000000
00000000
,
00000000
00000000
00000000
00000000
,
00000000
00000000
00000000
00000000
,
00000000
00000000
00000000
00000000
,
00000000
00000000
00000000
00000000
,
00022000
00000000
00000000
00033000
,
00001000
00000000
00010000
00000000
00001000
00010000
00001000
00000000
,
00100000
00010000
01000000
00010000
,
01000000
00001000
00010000
00000100
,
00001000
00000100
00001000
00000010
,
00000110
00000000
00000110
00000000
00000100
00000001
00000100
00000000
,
00001000
00010000
00001000
00000100
,
00001000
00000000
00010000
00000000
00100000
00000000
10000000
00100000
,
10000000
01000000
00020000
00000000
,
00031000
00000000
00001000
00000000
00010000
00001000
00010000
00000000
,
00001000
00000010
00000001
00000010
,
00001000
00010000
00100000
10000000
,
01000000
00100000
00110000
00001000
,
00011000
00000010
00001010
00000001
,
00001001
00001000
00000100
00010000
,
00001000
01000000
00010000
10000000
,
00100000
01000000
00010000
00100000
,
02000000
23000000
30020000
02030000
,
03100000
01000000
00010000
00000000
,
00100000
00001000
00010000
00000000
,
00001000
00010000
00000100
00000000
,
00000010
00000100
00010000
00000000
,
00001000
00001000
00000100
00000100
,
00000001
00000001
00000010
00000010
,
00000200
00000000
00000310
00001001
,
00000001
00000000
00000000
00000100
00000000
00000000
00001000
00000000
,
00010000
00001000
00100000
01000000
,
00100000
00001000
00010000
00000010
,
00000100
00000010
00001000
00000100
,
00000010
00000010
00001000
00010000
,
00001000
00100000
01000000
00100000
,
00001000
01000000
00100000
01000000
,
00001000
00010000
01000000
10000000
,
20020000
00030000
00100000
30100000
,
01000000
00000000
00000000
00001000
00000000
00000000
00010000
00000000
,
00022000
00000000
00000000
00033000
,
00000010
00000000
00000000
00000001
00000000
00000000
00001000
00000000
,
00000220
00000000
00000000
00000330
,
00001000
00000000
00000000
00010000
00000000
00000000
00001000
00000000
,
00022000
00000000
00000000
00033000
,
00100000
00000000
00000000
01000000
00000000
00000000
10000000
00000000
,
00020000
00000000
00000000
10030000
,
02200000
00000000
00000000
00000000
,
00000000
00000000
00000000
03300000
,
00010000
00000000
10000000
00000000
,
00010000
00000000
10000000
00000000
00010000
10000000
00010000
00000000
,
00100000
00100000
00001000
00001000
,
00010000
00010000
00000100
00000100
,
00001000
00001000
00000010
00000010
,
00010000
00010000
00001000
00001000
,
00100000
00100000
01000000
01000000
,
00010000
00010000
00001000
00001000
,
00000010
00000010
00000100
00000100
,
00001000
00000000
00001000
00000000
00000001
00001000
00000002
00000000
,
00000103
00001000
00000100
00001000
,
00010000
00001000
00010000
00001000
,
00010000
01000000
00010000
01000000
,
10000000
00100000
10000000
00100000
,
00010000
00100000
00010000
00100000
,
00010000
00001000
00010000
00001000
,
00000100
00000000
00000001
00000000
00000011
00000000
00001000
00000010
,
00000000
00010000
00001000
00020000
00000000
00000000
01030000
00000000
,
01000000
00000000
10000000
00000000
,
00100000
00000000
01000000
00000000
,
00010000
00000000
00100000
00000000
,
00001000
00010000
00011000
00011000
,
00000100
00000000
00000001
00000000
,
00000010
00000000
00000100
00000000
,
00001000
00000000
00000010
00000000
,
00010000
00001000
00011000
00011000
,
01000000
00000000
10000000
00000000
,
00100000
00000000
00010000
00000000
,
00001000
00000000
00000100
00000000
,
00000001
00000010
00001000
00011000
,
00011000
00000000
01001000
00000000
,
00010010
00000000
00101000
00000000
,
00010100
00000100
00010000
00001000
,
01000000
01000000
01000000
00000000
20020000
30030000
10000000
00000000
,
00010000
00100000
00001000
00100000
,
00010000
10000000
00010000
00100000
,
00001000
00100000
00010000
10000000
,
00010000
00100000
00001000
00011000
,
00010000
00000100
00000010
00000011
,
00000001
00000100
00001000
00011000
,
01000000
00000000
00011000
00000000
00000010
00000010
00000000
00022000
,
00000000
00033000
00011000
00010000
,
01000000
00010000
01000000
00010000
,
00001000
00010000
00001000
00000100
,
00001000
00000100
00001000
00010000
,
00001000
00010000
00001000
00010000
,
00100000
00010000
00001000
00000010
,
00001000
00010000
00100000
01000000
,
00100000
00000000
00010000
00000000
00001000
00000000
00000100
00000010
,
00000100
00000000
00000010
00000100
00000010
00000100
00000020
00000000
,
00000000
00000000
00000130
00000000
,
00000110
00000010
00001000
00000100
,
00010000
00001000
00100000
00010000
,
01000000
00100000
10000000
00010000
,
01000000
00100000
01000000
00000000
00010000
00000000
10000000
00000000
,
00100000
01000000
00100000
00000000
10000000
00000000
00010000
00000000
,
01000000
00001000
00010000
00000100
,
00000010
00000000
00000001
00000000
00000100
00000010
00000100
00000010
,
00000100
00001000
00010000
00100000
,
10000000
01000000
00100000
00010000
,
01000000
00001000
00010000
00100000
,
00001000
00000010
00010000
00001000
,
00000100
00000001
00000100
00000000
00000010
00000000
00010000
00000000
,
00001000
00010000
00001000
00000000
00100000
00000000
01000000
00000000
,
10000000
00100000
00010000
00001000
,
00000100
00000001
00000100
00000000
00000010
00001000
00000010
00001000
,
00001100
00010000
00011000
01000000
,
01010000
00001000
00011000
00000010
,
00001010
00001000
00000001
00000100
,
00001000
00010000
00100000
10000000
,
22000000
00000000
00000000
33000000
,
01000000
00100000
01000000
00000000
00010000
00001000
00010000
00001000
,
00000000
00022000
00000000
00000000
00000000
00000000
00000000
00000000
,
00000000
00000000
00000000
00000000
,
00000000
00000000
00000000
00000000
,
00000000
00000000
00000000
00000000
00000000
00000000
00000000
00033000
;

//---------------dance-double - ----------------
#NOTEDATA:;
#CHARTNAME:;
#STEPSTYPE:dance-double;
#DESCRIPTION:;
#CHARTSTYLE:;
#DIFFICULTY:Medium;
#METER:14;
#RADARVALUES:0.720555,0.805333,0.400524,0.217233,0.213839,743.000000,684.000000,59.000000,32.000000,0.000000,0.000000,0.000000,0.000000,0.000000,0.720555,0.805333,0.400524,0.217233,0.213839,743.000000,684.000000,59.000000,32.000000,0.000000,0.000000,0.000000,0.000000,0.000000;
#CREDIT:MILEN;
#DISPLAYBPM:207.000000;
#NOTES:
00000000
00000000
00000000
00000000
,
00000000
00000000
00000000
00000000
,
00000000
00000000
00000000
00000000
,
00000000
00000000
00000000
00000000
,
00000000
00000000
00000000
00000000
,
00022000
00000000
00000000
00033000
,
00001000
00010000
00001000
00010000
00001000
00010000
00011000
00000000
,
00010000
01000000
10000000
00100000
,
00010000
00001000
00000100
00000001
,
00000010
00000000
00000100
00000000
00001000
00000000
00000010
00000000
00000100
00000000
00000000
00000100
00000000
00000000
00000100
00000000
,
00000000
00000001
00001000
00000100
00010000
00001000
01000000
00010000
,
10010000
10000000
00100000
00010000
,
00001000
00000000
00000100
00000000
00000001
00000000
00000010
00001000
,
00010000
00000000
00001000
00010000
00100000
00000000
10000000
01000000
,
00100000
00010000
01000000
00001000
00010000
00010000
00000200
00000000
,
00000310
00000001
00000100
00001000
,
00010000
00100000
10000000
01000000
,
00110000
00000000
00100000
00000000
01000000
00000000
00100000
00000000
00010000
00000000
00000000
01000000
00000000
00000000
00001000
00000000
,
00000000
00010000
00000000
00000000
00000100
00000000
00000000
00000010
00000000
00000000
00000001
00000000
00000000
00001000
00000000
00000000
,
00000010
00000100
00000010
00000100
00000010
00000100
00000010
00000000
,
00001000
00000001
00001000
00000001
00001000
00000001
00001000
00000000
,
00000010
00010000
00000010
00010000
00001000
00100000
00001000
00100000
,
02000000
00000000
23000000
00000000
30010000
10000000
10010000
00000000
,
01000000
00100000
00010000
00000000
01000000
00000000
01000000
00000000
,
00100000
00001000
00010000
00000000
00001000
00000000
00001000
00000000
,
00000100
00000010
00000001
00000000
00000010
00000000
00000010
00000000
,
00000100
00001000
00000001
00000000
00000100
00000000
00000100
00000000
,
00000010
00010000
00001000
00000000
00100000
00001000
00010000
00000000
,
00000100
00010000
00001000
00000000
01000000
00001000
00010000
00000000
,
01000000
01000000
00000000
00100000
00100000
00000000
10010000
00000000
,
10000000
00000000
00000000
00100000
00000000
00000000
01000000
00000000
00000000
00001000
00000000
00000000
00010000
00000000
00000100
00000000
,
00001000
00000001
00000100
00000000
00000001
00000000
00000010
00000000
,
00000100
00010000
00001000
00000000
01000000
00000000
00100000
00000000
,
10000000
00010000
01000000
00000000
00100000
00000000
01000000
00000000
,
00100000
00000000
00000000
00100000
00000000
00000000
00100000
00000000
00010000
00000000
00000000
00000000
00001000
00000000
00000000
00000000
,
01000000
00001000
00010000
00000000
01000000
00000000
00100000
00000000
,
00001000
00010000
00100000
00000000
01000000
00000000
00100000
00000000
,
10000000
01000000
00010000
00000000
00001000
00000100
00000001
00000000
,
00002002
00000000
00003000
00000000
00000100
00000100
00000103
00000000
,
00000010
00000000
00000000
00000100
00000000
00000000
00000010
00000000
00000000
00010000
00000000
00000000
00001000
00000000
01000000
00000000
,
00010000
00000000
10000000
00010000
20000000
00000000
31000000
00000000
,
00100000
00000000
00000000
01000000
00000000
00000000
00100000
00000000
00000000
00001000
00000000
00000000
00010000
00000000
00000100
00000000
,
00001000
00000000
00000001
00001000
00000002
00000000
00000103
00000000
,
00000010
00000000
00000000
00000100
00000000
00000000
00000010
00000000
00000000
00010000
00000000
00000000
00100000
00000000
01000000
00000000
,
00010000
00000000
10000000
00010000
20000000
00000000
31000000
00000000
,
00100000
00000000
00000000
01000000
00000000
00000000
00100000
00000000
00000000
00001000
00000000
00000000
00000010
00000000
00000100
00000000
,
00002000
00000000
00000000
00003001
,
00000220
00000000
00000000
00000000
,
00000000
00000000
00000000
00000330
,
00000001
00001000
00000001
00001000
,
00010000
01000000
01000000
00200000
00000000
10300000
10010000
00000000
,
01010000
00000000
11000000
00000000
01010000
00000000
00010000
10000000
,
01000000
00100000
00001000
00010000
00000100
00000010
00000001
00000000
,
00000101
00000000
00001100
00000000
00000101
00000000
00000001
00000010
,
00000100
00010000
00001000
00100000
01000000
10000000
00000000
10000000
,
10100000
00000000
00100000
01000000
00010000
00110000
00000000
00001000
,
00010000
00011000
00000000
00001100
00000000
00000110
00000000
00000001
,
00000100
00001000
00000000
00010000
00100000
10000000
01000000
00100000
,
00110000
00000000
00000000
00000000
01001000
00000000
00000000
00000000
00010100
00000000
00010000
00001000
00020000
00000000
00000000
00000000
,
00030100
00000010
00000001
00001000
00000100
00000010
00000001
00000100
,
00001000
00010000
00100000
10000000
01000000
00000000
01100000
00000000
,
00100000
01000000
10000000
00010000
00100000
01000000
10000000
00100000
,
00010000
00001000
00000100
00000001
00000010
00000000
00000110
00000100
,
00000100
00000010
00000001
00000100
00001000
00000100
00001000
00010000
,
00100000
10000000
00100000
10000000
01000000
00100000
00010000
01000000
,
00001000
00010000
00010100
00000000
01001000
00000000
00001000
00010000
,
00001000
00000100
00000001
00000010
00002000
00000000
00023000
00000000
,
01030000
00000000
00000000
01000000
00000000
00000000
02000000
00000000
00000000
00000000
13000000
00000000
00100000
00000000
01000000
00000000
,
00100000
00000000
00000000
10000000
00000000
00000000
00010000
00000000
01000000
00000000
00000000
00100000
00000000
00000000
01000000
00000000
,
00001000
00000000
00010000
00000000
00001000
00000000
00100000
00000000
00010000
00000000
00000000
01000000
00000000
00000000
00001000
00000000
,
00010000
00000000
00000000
00000100
00000000
00000000
00000010
00000000
00000100
00000000
00000010
00000000
00000001
00000000
00000100
00000000
,
00000010
00000000
00000000
00000010
00000000
00000000
00000020
00000000
00000000
00000000
00010030
00000000
00001000
00000000
00010000
00000000
,
00100000
00000000
00000000
01000000
00000000
00000000
00010000
00000000
10000000
00000000
00000000
01000000
00000000
00000000
00100000
00000000
,
00010000
00000000
01000000
00000000
00001000
00000000
00010000
00000000
00000100
00000000
00000000
00010000
00000000
00000000
00001000
00000000
,
00010000
00000000
00000000
01000000
00000000
00000000
10000000
00000000
00100000
00000000
01000000
00000000
00100000
00000000
00010000
00000000
,
00001000
00000000
00000000
00001000
00000000
00000000
00002000
00000000
00000000
00000000
01003000
00000000
00010000
00000000
00100000
00000000
,
01000000
00000000
00000000
00010000
00000000
00000000
00001000
00000000
00000010
00000000
00000000
00000001
00000000
00000000
00001000
00000000
,
00000100
00000000
00010000
00000000
00001000
00000000
00010000
00000000
00100000
00000000
00000000
10000000
00000000
00000000
01000000
00000000
,
00100000
00000000
00000000
00010000
00000000
00000000
00001000
00000000
00000010
00000000
00000100
00000000
00000001
00000000
00001000
00000000
,
00001100
00000010
00011000
00100000
,
01010000
00001000
00011000
00010000
,
00000010
00000000
00000100
00000000
00001000
00000000
00010000
00000000
00100000
00000000
01000000
00000000
00001000
00010000
00001000
00000000
,
00010000
00000000
00001000
00000000
00010000
00000000
00001000
00000000
00022000
00000000
00033000
00000000
00011000
00000000
00000000
00010000
,
00000000
00000000
01000000
00000000
10000000
00000000
00100000
00000000
01000000
00000000
00010000
00000000
00110000
00000000
00000000
00100000
,
00000000
00000000
00001000
00000000
00010000
00000000
00000100
00000000
00001000
00000000
00000100
00000000
00000110
00000000
00000000
00000010
,
00000000
00000000
00000001
00000000
00000100
00000000
00001000
00000000
00010000
00000000
00001000
00000000
00011000
00000000
00000000
00010000
,
00000000
00000000
01000000
00000000
10000000
00000000
00100000
00000000
01000000
00000000
00100000
00000000
10100000
00000000
00000000
10000000
,
00000000
00000000
00010000
00000000
01000000
00000000
00001000
00000000
00010000
00000000
00000100
00000000
00001100
00000000
00000000
00001000
,
00000000
00000000
00000100
00000000
00000010
00000000
00000001
00000000
00001000
00000000
00000010
00000000
00000110
00000000
00000000
00000100
,
00000000
00001001
00001000
00000100
00010000
00012000
00000000
01000000
,
00000000
01000000
00000000
00000000
01003000
00000000
00000000
00000000
02200000
00000000
03300000
00000000
00100000
00000000
00000000
00000000
,
10000000
01000000
00010000
00001000
,
00000010
00000001
00000100
00001000
,
00010000
00100000
10000000
01000000
,
00010000
00000000
00001000
00000000
00011000
00000000
00010000
00000010
,
00010000
00000010
00010000
00000010
00010000
00000000
00001000
00100000
,
00001000
00100000
00001000
00100000
00001000
00000000
00010000
00001000
,
00010000
00001000
00010000
00001000
00010000
00001000
00010000
01000000
,
10000000
00100000
00010000
00001000
00000100
00000001
00000020
00000000
,
00000000
00000000
00000000
00000000
00001030
00010000
00001000
00010000
00002000
00000000
00000000
00000000
00000000
00000000
00000000
00000000
,
00013000
00001000
00010000
00011000
,
00001000
00100000
01000000
10000000
00100000
01000000
00001000
00100000
,
01000000
10000000
01000000
00100000
00010000
00100000
01000000
10000000
,
10100000
00000000
00000000
00010000
00000000
00000000
00001000
00000000
00010000
00000000
00001000
00000000
00000100
00000000
00000001
00000000
,
00000011
00000000
00000000
00001000
00000000
00000000
00010000
00000000
00001000
00000000
00010000
00000000
01000000
00000000
10000000
00000000
,
10100000
00000000
00000000
00100000
00000000
00000000
01010000
00000000
00001000
00000000
00000000
00011000
00000000
00000000
00000100
00000000
,
00001100
00001000
00000100
00000010
00000001
00001000
00000100
00000010
,
00000001
00000100
00001000
00000000
00000100
00001000
00010000
00000000
,
00001000
00010000
01000000
00000000
00010000
01000000
10000000
00100000
,
01100000
01001000
00011000
00010100
,
00000110
00001001
00000011
00001100
,
00000100
00010000
00001000
00100000
01000000
10000000
00100000
00010000
,
00100000
01000000
00100000
00010000
00001000
00000100
00000010
00000100
,
00001000
00000100
00000001
00000010
00000100
00001000
00010000
01000000
,
00100000
00000000
10000000
00000000
00010000
00000000
00100000
00000000
01000000
00000000
00010000
00001000
00010000
00001000
00010000
00000000
,
00000200
00000000
00000310
00000001
00000000
00000000
00000100
00000000
00000010
00001000
00000000
00000000
,
00010000
00000000
01000000
00100000
00000000
10000000
01000000
10000000
01000000
10000000
01000000
00100000
,
00010000
00001000
00000010
00000100
,
00000001
00000010
00000100
00020000
,
00002000
00000000
00000000
00033000
,
00001000
00000000
01000000
00000000
00001000
00000000
00010000
00000000
00000100
00000000
00010000
00000000
00001000
00000000
00100000
00000000
00001000
00000000
00010000
00000000
00000000
00010000
00000000
00000000
,
00000000
00022000
00000000
00000000
00000000
00000000
00000000
00000000
,
00000000
00000000
00000000
00000000
,
00000000
00000000
00000000
00000000
,
00000000
00000000
00000000
00000000
00000000
00000000
00000000
00033000
;

//---------------dance-double - ----------------
#NOTEDATA:;
#CHARTNAME:;
#STEPSTYPE:dance-double;
#DESCRIPTION:;
#CHARTSTYLE:;
#DIFFICULTY:Hard;
#METER:17;
#RADARVALUES:0.854387,1.059649,0.495564,0.359793,0.515929,881.000000,808.000000,73.000000,53.000000,0.000000,0.000000,0.000000,0.000000,0.000000,0.854387,1.059649,0.495564,0.359793,0.515929,881.000000,808.000000,73.000000,53.000000,0.000000,0.000000,0.000000,0.000000,0.000000;
#CREDIT:MILEN;
#DISPLAYBPM:207.000000;
#NOTES:
00000000
00000000
00000000
00000000
,
00000000
00000000
00000000
00000000
,
00000000
00000000
00000000
00000000
,
00000000
00000000
00000000
00000000
,
00000000
00000000
00000000
00000000
,
00022000
00000000
00000000
00033000
,
00010000
00001000
00010000
00001000
00010000
00001000
00022000
00033000
,
00010000
01000000
10000000
01000000
00100000
00001000
00010000
00000000
,
00001000
00000010
00000001
00000010
00000100
00010000
00001000
00000000
,
00010000
00000000
01000000
00000000
10000000
00000000
00100000
00000000
01000000
00000000
00000000
01000000
00000000
00000000
01000000
00000000
,
00000000
01010000
00010000
00100000
01000000
00010000
00001000
00000010
,
00000110
00000000
00000100
00000010
00000001
00000000
00000100
00001000
,
00010000
00000000
00000000
00000000
00100000
00000000
10000000
00000000
01000000
00000000
00000000
00000000
00100000
01000000
00100000
01000000
,
00100000
00000000
00000000
00100000
00000000
00000000
00100000
00000000
00000000
00000000
00110000
00000000
00010000
00000000
01000000
00000000
,
00001000
00000000
00010000
00000000
00000100
00000000
00000010
00000000
00000001
00000100
00000001
00000000
00002000
00000000
00000000
00000000
,
00003100
00010000
00001000
00100000
01000000
10000000
00100000
01000000
,
00010000
00100000
00001000
00010000
00000100
00001000
00000010
00000100
,
00000001
00000000
00001000
00000000
00000100
00000000
00000010
00000000
00000011
00000000
00000000
00001000
00000000
00000000
00001100
00000000
,
00000000
00010000
00000000
00000000
00011000
00000000
00000000
01000000
00000000
00000000
01010000
00000000
00000000
10000000
00000000
00000000
,
10100000
00000000
00100000
00000000
01000000
00000000
00100000
00000000
10000000
00000000
01000000
00000000
00010000
00000000
00001000
00010000
,
00001000
00000000
00000100
00000000
00000001
00000000
00000010
00000000
00000100
00000000
00001000
00000000
00000010
00000000
00010000
00001000
,
00010000
00000000
00100000
00000000
10000000
00000000
01000000
00100000
01000000
00000000
00100000
00000000
00010000
00000000
01000000
00000000
,
20000000
00000000
32000000
00000000
03200000
00320000
00032000
00000000
,
00003100
00000000
00000010
00000000
00001000
00000000
00000000
00000000
00000100
00000000
00000000
00000100
00000000
00000000
00000100
00000000
,
00000010
00000000
00001000
00000000
00010000
00000000
00000000
00000000
00001000
00000000
00000000
00001000
00000000
00000000
00001000
00000000
,
01000000
00000000
00100000
00000000
10000000
00000000
00000000
00000000
00100000
00000000
00000000
00100000
00000000
00000000
00100000
00000000
,
01000000
00000000
00010000
00000000
10000000
00000000
00000000
00000000
01000000
00000000
00000000
01000000
00000000
00000000
01000000
00000000
,
00100000
00000000
00000000
00001000
00000000
00000000
00010000
00000000
00000010
00000000
00000000
00010000
00000000
00000000
00001000
00000000
,
01000000
00000000
00000000
00001000
00000000
00000000
00010000
00000000
00000100
00000000
00000000
00010000
00000000
00000000
00001000
00000000
,
00000100
00000100
00000000
00000010
00001000
00000100
00000110
00000000
,
00000001
00000000
00000000
00000010
00000000
00000000
00000100
00000000
00000000
00010000
00000000
00000000
01000000
00000000
00100000
00000000
,
00010000
10000000
01000000
10000000
00100000
01000000
00010000
00000000
,
00100000
00001000
00010000
00000100
00000010
00000001
00001000
00000000
,
00000010
00000100
00000001
00001000
00000100
00000010
00000100
00000000
,
00010000
00000000
00000000
00010000
00000000
00000000
00010000
00000000
00001000
00000000
00000000
00100000
00000000
00000000
00010000
00000000
,
00000010
00000100
00010000
00001000
00100000
00010000
01000000
00000000
,
00100000
01000000
00001000
00010000
00000010
00001000
00000100
00000000
,
00000010
00000001
00000100
00000010
00000100
00001000
00010000
00100000
,
02000000
00000000
00000000
00000000
00100000
00100000
03100000
00000000
,
00100000
00000000
00000000
10100000
00000000
00000000
01000000
00000000
00000000
01010000
00000000
00000000
00001000
00000000
00011000
00000000
,
00000010
00000000
00001000
00000100
00002000
00000000
00003001
00000000
,
00000010
00000000
00000000
00000011
00000000
00000000
00000100
00000000
00000000
00001100
00000000
00000000
00010000
00000000
00011000
00000000
,
00100000
00010000
00100000
00000000
01000000
10000000
01000000
00000000
,
00100000
00000000
00000000
10100000
00000000
00000000
01000000
00000000
00000000
01001000
00000000
00000000
00010000
00000000
00011000
00000000
,
00000010
00000000
00000100
00000010
00000200
00000000
00000301
00000000
,
00000010
00000000
00000000
00000011
00000000
00000000
00000100
00000000
00000000
00010100
00000000
00000000
00001000
00000000
00011000
00000000
,
02000000
00000000
00000000
03100000
,
20020000
00000000
00000000
00000000
,
00000000
00000000
00000000
30030000
,
10000000
00010000
10000000
00010000
,
00001000
00000000
00000010
00000100
00000010
00000000
00000200
00000000
00000000
00000000
00000301
00000000
00001001
00000000
00000000
00000000
,
00001100
00000000
00010100
00000000
00011000
00000000
00001000
01001000
,
00000000
01000000
00010000
01000000
00100000
10000000
00000000
00010000
,
00110000
00000000
00101000
00000000
00011000
00000000
00010000
00010010
,
00000000
00000000
00000010
00000000
00001000
00000000
00000010
00000000
00000100
00000000
00000001
00000000
00000000
00000000
00001000
00000100
,
00001000
00000010
00010000
00001000
00100000
00110000
00010000
01000000
,
00100000
10100000
00000000
11000000
00000000
01100000
00000000
00010000
,
01000000
00001000
00010000
00000100
00001000
00000010
00000100
00000001
,
00001001
00000000
00000000
00000000
00001100
00000000
00000000
00000000
00010100
00000000
00010000
00001000
02000000
00000000
00000000
00000000
,
03020000
00000000
20030000
00000000
30200000
00000000
01300000
01010000
,
00000000
00010000
00100000
01000000
00010000
00001000
00000000
00000010
,
00000012
00000000
00000203
00000000
00000320
00000000
00001030
00011000
,
00000000
00000000
00010000
00000000
01000000
00000000
00100000
00000000
10000000
00000000
01000000
00000000
00000000
00000000
00100000
01000000
,
00100000
00000000
00001000
00000000
00010000
00000000
00000100
00000000
00000010
00000000
00000001
00000000
00000100
00000000
00001000
00010000
,
00001000
00000000
00100000
00000000
01000000
00000000
10000000
00100000
10000000
00000000
00100000
00000000
00010000
00000000
00001000
00000000
,
00011000
00000100
00001100
00000000
00000011
00000000
00001001
00001000
,
00000100
00010000
00000100
00010000
00001000
01000000
00001000
01000000
00020000
00000000
00000000
00000000
20000000
00000000
30030000
00000000
,
10000000
00000000
00000000
01000000
00000000
00000000
00200000
00000000
00000000
00000000
00301000
00000000
00010000
00000000
00000100
00000000
,
00001000
00000100
00000000
00000100
00000000
00000100
00000010
00000000
00000001
00000000
00000000
00000100
00000000
00000000
00001000
00000000
,
00010000
00001000
00000000
00001000
00010000
00000000
00100000
00000000
10000000
00000000
00000000
01000000
00000000
00000000
00100000
00000000
,
00010000
01000000
00000000
01000000
00000000
01000000
00100000
00000000
10000000
00100000
10000000
00000000
01000000
00000000
00100000
00000000
,
00010000
00000000
00000000
01000000
00000000
00000000
00002000
00000000
00000000
00000000
00013000
00000000
00100000
00000000
01000000
00000000
,
00010000
00100000
00000000
00100000
00000000
00100000
00001000
00000000
00010000
00000000
00000000
00000100
00000000
00000000
00000010
00000000
,
00000001
00000100
00000000
00000100
00000010
00000000
00010000
00000000
00001000
00000000
00000000
01000000
00000000
00000000
00100000
00000000
,
10000000
01000000
00000000
01000000
00000000
01000000
00010000
00000000
00001000
00010000
00001000
00000000
00000010
00000000
00000001
00000000
,
00000101
00000000
00000000
00000100
00000000
00000000
00000020
00000000
00000000
00000000
00010030
00000000
00001000
00000000
00100000
00000000
,
01000000
10000000
00000000
10000000
00000000
10000000
00100000
00000000
00010000
00000000
00000000
00001000
00000000
00000000
00100000
00000000
,
01000000
00010000
00000000
00010000
00001000
00000000
00000010
00000000
00000001
00000000
00000000
00000100
00000000
00000000
00000010
00000000
,
00010000
00001000
00000000
00001000
00000000
00001000
00100000
00000000
01000000
10000000
01000000
00000000
00100000
00000000
00001000
00000000
,
00011000
00100000
00011000
00000010
,
00011000
01000000
00011000
00000100
,
00001000
00000100
00000000
00000120
00000000
00000000
00000031
00000000
00000001
00000100
00000001
00000100
00000010
00010000
00000010
00010000
,
00001000
00000000
00001000
00000000
00001000
00000000
00010000
00000000
00022000
00000000
00033000
00000000
00011000
00000000
00000000
01010000
,
00000000
00000000
10000000
00000000
01000000
00000000
00100000
00000000
00010000
00000000
01000000
00000000
01001000
00000000
00000000
00010100
,
00000000
00000000
00000010
00000000
00001000
00000000
00000100
00000000
00000010
00000000
00000001
00000000
00000100
00001000
00000100
00000000
,
00000001
00000000
00001000
00000000
00000100
00010000
00000100
00000000
00001000
00000000
00000001
00000000
00000101
00000000
00000000
00001100
,
00000000
00000000
00000010
00000000
00010000
00000000
00001000
00000000
00011000
00000000
00000000
00000000
00110000
00000000
00000000
10100000
,
00000000
00000000
01000000
00000000
00010000
00000000
00100000
00000000
01000000
00000000
10000000
00000000
11000000
00000000
00000000
00110000
,
00000000
00000000
01000000
00000000
00001000
00000000
00010000
00000000
00000100
00000000
00000010
00000000
00000011
00000000
00000000
00001100
,
00000000
00001001
00001000
00000010
00010000
00001000
00000100
00000101
,
00000000
00001010
00000000
00000000
00011000
00000000
00000000
00000000
00202000
00000000
00303000
00000000
01000000
00000000
00000000
00000000
,
01000000
00010000
00010000
00001000
,
00001000
00000010
00000010
00010000
,
00010000
00001000
00001000
00100000
,
00100000
00000000
01000000
00000000
01000000
00000000
10000000
00100000
,
10000000
00100000
00010000
00001000
00010000
00001000
00000100
00000001
,
00000100
00000000
00000001
00000000
00000010
00000000
00001000
00000000
00010000
00000000
01000000
00000000
10000000
00100000
10000000
00000000
,
00100000
01000000
00100000
00000000
01000000
00001000
01000000
00000000
00001000
00010000
00001000
00000000
00010000
00000100
00010000
00000100
,
00010000
00000000
00000010
00000000
00000100
00000001
00000100
00000001
00000020
00000000
00000000
00000000
00002030
00000000
00000000
00000000
,
00023000
00000000
00000000
00000000
00130000
10000000
00100000
10000000
02000000
00000000
00000000
00000000
00000000
00000000
00000000
00000000
,
03100000
00100000
00001000
00001000
00010000
00010000
00000100
00000100
,
00000020
00000000
00000000
00000000
00000031
00000100
00000001
00000000
00000100
00000000
00001000
00000000
00010000
00001000
00010000
00000000
,
00001000
00000000
00010000
00000000
00100000
10000000
00100000
00000000
10000000
00000000
01000000
00000000
00100000
00000000
00010000
00000000
,
01000000
00000000
00001000
00000000
00100000
00000000
01000000
00010000
00001000
00000000
00000010
00000000
00000001
00000000
00001000
00000000
,
00000010
00000000
00010000
00000000
00001000
00000000
00100000
01000000
00010000
00000000
00001000
00000000
00000100
00000000
00000001
00000000
,
00000020
00000000
00000000
00002030
00000000
00000000
00023000
00000000
00032000
00000000
00000000
00003200
00000000
00000000
00002300
00000000
,
00013000
00100000
01000000
00000000
00100000
10000000
01000000
00000000
10000000
01000000
00100000
00000000
01000000
00010000
00001000
00000000
,
00010000
00000100
00000010
00000000
00000001
00000000
00000100
00000000
00001000
00000000
00000100
00000000
00000010
00000000
00010000
00000000
,
00001000
00100000
01000000
00000000
10000000
00000000
00100000
00000000
00010000
00000000
00100000
00000000
01000000
00000000
00010000
00000000
,
00100000
01000000
10000000
00000000
00200000
00000000
00000000
00000000
00310000
00001000
00000100
00000000
00000002
00000000
00000000
00000000
,
00000013
00000100
00001000
00000000
00020000
00000000
00000000
00000000
01030000
00100000
10000000
00000000
02000000
00000000
00000000
00000000
,
03010000
00000000
00001000
00000000
00000010
00000000
00000001
00000000
00000100
00000010
00000100
00000010
00000100
00000000
00001000
00000000
,
00010000
00000000
00100000
00000000
10000000
00000000
01000000
00000000
00100000
01000000
00100000
01000000
00100000
00000000
00010000
00000000
,
00001000
00001000
00000010
00000010
00000100
00000100
00000001
00000001
,
00001000
00000100
00010000
00000000
00001000
00100000
00010000
00000000
00100000
01000000
10000000
00000000
00100000
00010000
00001000
00000000
,
00000020
00000000
00000031
00000100
00000000
00000010
00001000
00000000
00000100
00010000
00000000
00001000
,
00100000
00000000
00010000
01000000
00000000
00100000
10000000
00100000
01000000
00010000
01000000
00100000
,
10000000
00000000
10000000
01000000
00000000
01000000
00010000
00000000
00010000
00001000
00000000
00001000
,
00000010
00000000
00000010
00000001
00000000
00000001
00000100
00000000
00000100
00001000
00000000
00001000
,
00020000
00000000
00000000
00000000
,
00031000
00000000
01000000
00000000
00001000
00000000
00010000
00000000
00000010
00000000
00010000
00000000
00001000
00000000
00100000
00000000
00001000
00000000
00010000
00000000
00000000
00010000
00000000
00000000
,
00000000
00022000
00000000
00000000
00000000
00000000
00000000
00000000
,
00000000
00000000
00000000
00000000
,
00000000
00000000
00000000
00000000
,
00000000
00000000
00000000
00000000
00000000
00000000
00000000
00033000
;

//---------------dance-double - ----------------
#NOTEDATA:;
#CHARTNAME:;
#STEPSTYPE:dance-double;
#DESCRIPTION:;
#CHARTSTYLE:;
#DIFFICULTY:Challenge;
#METER:18;
#RADARVALUES:0.939728,1.144421,0.359793,0.359793,0.787471,969.000000,916.000000,53.000000,53.000000,0.000000,0.000000,0.000000,0.000000,0.000000,0.939728,1.144421,0.359793,0.359793,0.787471,969.000000,916.000000,53.000000,53.000000,0.000000,0.000000,0.000000,0.000000,0.000000;
#CREDIT:MILEN;
#DISPLAYBPM:207.000000;
#NOTES:
// measure 0
00000000
00000000
00000000
00000000
,  // measure 1
00000000
00000000
00000000
00000000
,  // measure 2
00000000
00000000
00000000
00000000
,  // measure 3
00000000
00000000
00000000
00000000
,  // measure 4
00000000
00000000
00000000
00000000
,  // measure 5
00022000
00000000
00000000
00033000
,  // measure 6
00010000
00001000
00010000
00001000
00010000
00001000
00010000
00001000
00010000
00000000
00001000
00000000
00022000
00000000
00033000
00000000
,  // measure 7
00010000
00000000
00001000
00000000
00100000
00000000
00010000
00000000
01000000
00000000
00000000
00100000
00000000
00000000
10000000
00000000
,  // measure 8
10000000
00000000
00010000
00000000
01000000
00000000
00001000
00000000
00010000
00000000
00000000
00000100
00000000
00000000
00000010
00000000
,  // measure 9
00000010
00000000
00000001
00000000
00001000
00000000
00000010
00000000
00010000
00000000
00000000
00001000
00000000
00000000
00011000
00000000
,  // measure 10
00010000
00000000
00100000
00000000
01000000
00000000
00100000
10000000
00100000
10000000
00010000
01000000
00010000
01000000
00100000
10000000
,  // measure 11
00020000
00000000
01030000
01000000
00001000
00010000
00001000
00000100
,  // measure 12
00000001
00000000
00000010
00000000
00000100
00000000
00001000
00000000
00000020
00000000
00000000
00000000
00010030
00001000
00010000
00001000
,  // measure 13
00100000
00000000
00000000
01000000
00000000
00000000
10000000
00000000
00100000
00000000
00010000
00000000
00100000
00000000
01000000
00000000
,  // measure 14
00100000
00000000
00010000
00000000
00001000
00000000
00000100
00000000
00000010
00001000
00000010
00001000
00000002
00000000
00000000
00000000
,  // measure 15
00000103
00000000
00000100
00000000
00001000
00000000
00010000
00000000
00100000
00000000
00000000
10000000
00000000
00000000
01000000
00000000
,  // measure 16
00100000
00000000
00010000
00000000
01000000
00000000
00001000
00000000
00010000
00000000
00000000
00000100
00000000
00000000
00000010
00000000
,  // measure 17
00000001
00000000
00000100
00000000
00001000
00010000
00001000
00010000
00100000
00000000
00000000
10000000
00000000
00000000
01000000
00000000
,  // measure 18
00000000
00100000
00000000
00000000
00010000
00000000
00000000
00001000
00000000
00000000
00000010
00000000
00000000
00000100
00000000
00000000
,  // measure 19
00000001
00000000
00000001
00000000
00001000
00000000
00001000
00000000
00000100
00000000
00000100
00000000
00010000
00000000
00001000
00100000
,  // measure 20
00001000
00000000
01000000
00000000
00100000
00000000
00100000
00000000
10000000
00000000
10000000
00000000
00010000
00100000
00010000
00100000
,  // measure 21
01000000
00000000
10000000
00000000
00100000
01000000
00100000
01000000
00010000
00000000
00100000
00000000
00001000
00010000
00001000
00010000
,  // measure 22
00000020
00000000
00000230
00000000
00002300
00023000
00230000
20300000
,  // measure 23
31000000
00000000
00100000
00000000
00010000
00100000
00010000
00000000
01000000
00000000
00000000
01000000
00000000
00000000
01000000
00000000
,  // measure 24
00100000
00000000
00010000
00000000
00001000
00010000
00001000
00000000
00010000
00000000
00000000
00010000
00000000
00000000
00010000
00000000
,  // measure 25
00000100
00000000
00000010
00000000
00000001
00001000
00000001
00000000
00000010
00000000
00000000
00000010
00000000
00000000
00000010
00000000
,  // measure 26
00000100
00000000
00001000
00000000
00000001
00000100
00000001
00000000
00000100
00000000
00000000
00000100
00000000
00000000
00000100
00000000
,  // measure 27
00000020
00000000
00000000
00020030
00000000
00000000
00230000
00000000
20300000
00000000
00000000
30200000
00000000
00000000
00320000
00000000
,  // measure 28
00030020
00000000
00000000
00020030
00000000
00000000
00230000
00000000
20300000
00000000
00000000
30200000
00000000
00000000
00310000
00000000
,  // measure 29
00001000
00001000
00000000
00100000
00010000
01000000
01100000
00000000
,  // measure 30
10000000
00000000
00000000
01000000
00000000
00000000
00010000
00000000
00000000
00001000
00000000
00000000
00000100
00000000
00000001
00000000
,  // measure 31
00001000
00000000
00000001
00000100
00000000
00000010
00000100
00000000
00000001
00000010
00000000
00000100
00010000
00000000
00001000
00010000
,  // measure 32
00001000
00000000
00100000
00010000
00000000
01000000
00100000
00000000
10000000
00010000
00000000
00100000
00001000
00000000
00010000
01000000
,  // measure 33
00010000
00000000
01000000
00100000
00000000
00010000
01000000
00000000
00001000
00010000
00000000
00000010
00001000
00000000
00000100
00000010
,  // measure 34
00000100
00000000
00000000
00000100
00000000
00000000
00000100
00000000
00001000
00000001
00001000
00000001
00000000
00000100
00000010
00000000
,  // measure 35
00010000
00000000
01000000
00100000
00000000
00001000
00010000
00000000
00000010
00001000
00000000
00000001
00000100
00000000
00000010
00000100
,  // measure 36
00000010
00000000
00000100
00000001
00000000
00001000
00000010
00000000
00010000
00001000
00000000
00100000
00010000
00000000
01000000
00100000
,  // measure 37
01000000
00000000
00010000
01000000
00000000
01000000
00100000
00000000
00100000
10000000
00000000
10000000
01000000
00000000
00010000
00000000
,  // measure 38
00022000
00000000
00003000
00000000
00001000
00001000
00031000
00000000
,  // measure 39
00001010
00000000
00000000
00011000
00000000
00000000
00001100
00000000
00000000
00011000
00000000
00000000
00110000
00000000
01100000
00000000
,  // measure 40
00100000
00000000
00010000
00000000
01000000
00010000
01000000
00000000
00010000
00000000
00000000
10000000
00000000
00000000
00010000
00000000
,  // measure 41
00110000
00000000
00000000
00011000
00000000
00000000
01010000
00000000
00000000
00011000
00000000
00000000
00001010
00000000
00000110
00000000
,  // measure 42
00000010
00000000
00001000
00000000
00000100
00001000
00000100
00000000
00001000
00000000
00000000
00000001
00000000
00000000
00001000
00000000
,  // measure 43
00001010
00000000
00000000
00001100
00000000
00000000
00011000
00000000
00000000
01010000
00000000
00000000
10010000
00000000
11000000
00000000
,  // measure 44
00100000
00000000
01000000
00000000
00100000
00010000
00100000
00000000
01000000
00000000
00000000
10000000
00000000
00000000
00010000
00000000
,  // measure 45
00110000
00000000
00000000
01010000
00000000
00000000
00011000
00000000
00000000
00001100
00000000
00000000
00001001
00000000
00000101
00000000
,  // measure 46
00000020
00000000
00000000
00000130
,  // measure 47
00002002
00000000
00000000
00000000
,  // measure 48
00000000
00000000
00000000
00003003
,  // measure 49
00000001
00001000
00000001
00001000
,  // measure 50
00010000
00000000
01000000
00100000
01000000
00000000
00200000
00000000
00000000
00000000
10300000
00000000
10010000
00000000
00000000
00000000
,  // measure 51
00010000
01000000
00010000
01000000
00001000
00010000
00001000
00010000
,  // measure 52
00000100
00001000
00000100
00001000
00000001
00000000
00001000
00000000
,  // measure 53
00000010
00010000
00000010
00010000
00001000
00100000
00001000
00100000
,  // measure 54
00010000
00000000
01000000
00000000
00010000
00000000
01000000
00000000
00100000
00000000
00000000
00000000
10000000
00000000
00010000
01000000
,  // measure 55
00010000
00100000
00010000
00100000
00001000
00010000
00001000
00010000
,  // measure 56
00000100
00000010
00000100
00000010
00000001
00000000
00000100
00000000
,  // measure 57
00001000
00010000
00001000
00010000
01000000
00100000
00010000
10000000
,  // measure 58
10100000
00000000
00000000
00000000
01100000
00000000
00000000
00000000
01010000
00000000
00010000
00100000
00002000
00000000
00000000
00000000
,  // measure 59
00013000
00001000
00000100
00000001
00000010
00000100
00001000
00000010
,  // measure 60
00010000
00001000
00100000
00010000
01000000
00000000
00100000
00000000
,  // measure 61
10000000
00010000
00100000
01000000
00010000
00001000
00000010
00000001
,  // measure 62
00001000
00000000
00000010
00000000
00000100
00000000
00000001
00000000
00001000
00000000
00000000
00000000
00000100
00000000
00000010
00000100
,  // measure 63
00000010
00000000
00000010
00000000
00000001
00000000
00000001
00000000
00000100
00000000
00000100
00000000
00001000
00000000
00010000
00001000
,  // measure 64
00010000
00000000
00010000
00000000
00100000
00000000
10000000
01000000
10000000
00000000
01000000
00000000
00010000
00000000
00001000
00000000
,  // measure 65
00011000
00011000
00011000
00000000
00101000
00000000
00010010
00000010
,  // measure 66
00001000
00000100
00001000
00000000
00000001
00000100
00000001
00000100
00000002
00000000
00000000
00000000
00000013
00000100
00000010
00000100
,  // measure 67
00001000
00000000
00000000
00000010
00000000
00000000
00010000
00000000
00000000
00000000
00001000
00000000
00010000
00000000
00100000
00000000
,  // measure 68
10000000
01000000
00000000
00100000
00000000
01000000
10000000
00000000
00100000
00000000
00000000
00010000
00000000
00000000
00001000
00000000
,  // measure 69
00010000
00100000
00010000
00000000
00001000
00000000
00000010
00000000
00000001
00000000
00000000
00000100
00000000
00000000
00000010
00000000
,  // measure 70
00001000
00000100
00000000
00010000
00000000
00001000
00100000
00000000
00010000
01000000
00010000
00000000
10000000
00000000
00100000
00000000
,  // measure 71
00010000
00000000
00000000
00001000
00000000
00000000
00100000
00000000
00000000
00000000
01000000
00000000
00010000
00000000
00001000
00000000
,  // measure 72
00000010
00000001
00000000
00000100
00000000
00000001
00000010
00000000
00000100
00000000
00000000
00010000
00000000
00000000
00001000
00000000
,  // measure 73
00010000
01000000
00010000
00000000
00001000
00000000
00000100
00000000
00000010
00000000
00000000
00001000
00000000
00000000
00000001
00000000
,  // measure 74
00000100
00001000
00000000
00010000
00000000
00001000
00000100
00000000
00000010
00000100
00000010
00000000
00000100
00000000
00000001
00000000
,  // measure 75
00001000
00000000
00000000
00000100
00000000
00000000
00010000
00000000
00000000
00000000
00100000
00000000
10000000
00000000
01000000
00000000
,  // measure 76
00100000
01000000
00000000
00010000
00000000
01000000
00100000
00000000
10000000
00000000
00000000
00100000
00000000
00000000
00010000
00000000
,  // measure 77
01000000
00100000
01000000
00000000
00001000
00000000
00010000
00000000
00000100
00000000
00000000
00000010
00000000
00000000
00000001
00000000
,  // measure 78
00000100
00000010
00000000
00001000
00000000
00000010
00000100
00000000
00000001
00001000
00000100
00000000
00010000
00000000
00001000
00000000
,  // measure 79
00021000
00030010
00012000
00103000
,  // measure 80
00021000
00030100
00012000
01003000
,  // measure 81
01100000
00000000
00100000
20000000
00000000
00000000
30010000
00000000
00010000
01000000
00010000
01000000
00001000
00010000
00001000
00010000
,  // measure 82
00001000
00000000
00001000
00000000
00001000
00000000
00001000
00000000
00022000
00000000
00033000
00000000
00010000
00000000
00001000
00010000
,  // measure 83
00001000
00000000
00000100
00000000
00000010
00000000
00001000
00000000
00000100
00000000
00000010
00000000
00000001
00000000
00000100
00000010
,  // measure 84
00000100
00000000
00000001
00000000
00001000
00000000
00000100
00000000
00010000
00000000
00001000
00000000
00100000
00010000
00100000
00000000
,  // measure 85
01000000
00000000
10000000
00000000
00100000
01000000
00100000
00000000
01000000
00000000
00010000
00000000
00100000
01000000
00000000
01000000
,  // measure 86
00010000
00000000
00001000
00000000
00010000
00000000
00001000
00000000
00011000
00000000
00010000
00000000
00000100
00000000
00000010
00000001
,  // measure 87
00000010
00000000
00000100
00000000
00001000
00000000
00000010
00000000
00010000
00000000
00001000
00000000
00100000
00000000
01000000
10000000
,  // measure 88
01000000
00000000
00010000
00000000
00001000
00000000
00010000
00000000
00000100
00000000
00000010
00000000
00000011
00000000
00000000
00001001
,  // measure 89
00000000
00001100
00000100
00010000
00001000
00200000
00000000
01000000
,  // measure 90
00000000
01000000
00000000
00000000
01300000
00000000
00000000
00000000
10010000
00000000
00000000
00000000
10000000
00000000
00000000
00000000
,  // measure 91
10000000
10000000
10000000
00010000
,  // measure 92
00010000
00010000
00010000
00001000
,  // measure 93
00001000
00001000
00001000
00000001
,  // measure 94
00000001
00000000
00000001
00000000
00000001
00000000
00000010
00001000
,  // measure 95
00000010
00001000
00010000
00100000
00010000
00100000
10000000
01000000
,  // measure 96
10000000
00000000
01000000
00000000
00010000
00000000
00001000
00000000
00010000
00000000
00001000
00000000
00000010
00000001
00000010
00000001
,  // measure 97
00000010
00000001
00000010
00000001
00000010
00000001
00000010
00000001
00000010
00000001
00000010
00000001
00000200
00000000
00000000
00000000
,  // measure 98
00000000
00000000
00000000
00000000
00000000
00000000
00000320
00000000
00000000
00000000
00010030
00001000
00200000
00000000
00000000
00320000
,  // measure 99
00000000
00000000
20030000
00000000
30100000
01000000
00010000
10000000
02000000
00000000
00000000
00000000
00000000
00000000
00000000
00000000
,  // measure 100
03100000
00100000
00010000
01000000
00001000
00010000
00100000
00010000
,  // measure 101
00001000
00000000
00000010
00000000
00000001
00000100
00000000
00000000
00000100
00001000
00000000
00000000
00001000
00010000
00000000
00000000
,  // measure 102
00010000
01000000
00000000
00000000
01000000
10000000
00100000
00000000
01000000
00000000
01010000
00000000
00001000
00000000
00011000
00000000
,  // measure 103
00000100
00000000
00001000
00000000
00000100
00000000
00000010
00000001
00000010
00000000
00001000
00000000
00010000
00000000
00100000
00000000
,  // measure 104
10000000
00000000
00100000
00000000
00010000
00000000
00001000
00010000
00001000
00000000
00100000
00000000
01000000
00000000
00010000
00000000
,  // measure 105
00001000
00000000
00001000
00000000
00000010
00000000
00000010
00000000
00000001
00000000
00000001
00000000
00000100
00001000
00000100
00001000
,  // measure 106
00010000
00001000
00010000
00000000
00001000
00100000
00001000
00000000
00100000
01000000
00100000
00000000
01000000
10000000
01000000
10000000
,  // measure 107
00100000
00010000
00100000
01000000
00100000
00010000
00001000
00000100
,  // measure 108
00000010
00000100
00001000
00000100
00000001
00000010
00000100
00001000
,  // measure 109
00000010
00010000
00001000
00010000
00002000
00000000
00000000
00000000
01003000
00001000
00010000
00001000
00020000
00000000
00000000
00000000
,  // measure 110
00030100
00010000
00001000
00010000
00002000
00000000
00000000
00000000
00103000
00001000
00010000
00001000
00020000
00000000
00000000
00000000
,  // measure 111
00130000
00000000
10000000
00000000
01000000
00000000
00100000
00000000
00010000
01000000
00010000
01000000
00001000
00000000
00010000
00000000
,  // measure 112
00000100
00000000
00000010
00000000
00000001
00000000
00000100
00000000
00001000
00010000
00001000
00010000
01000000
00000000
10000000
00000000
,  // measure 113
00100000
01000000
00100000
00000000
00010000
00000000
00001000
00000000
00000100
00000010
00000100
00000000
00001000
00000000
00010000
00000000
,  // measure 114
00000100
00000010
00000100
00000010
00000001
00000100
00000001
00000100
00000010
00010000
00000010
00010000
00001000
00100000
00001000
00100000
,  // measure 115
00020000
00000000
01030000
00100000
00000000
10000000
01000000
00000000
00010000
00001000
00000000
00000010
,  // measure 116
00000001
00000000
00000100
00001000
00000000
00010000
01000000
10000000
00100000
10000000
01000000
10000000
,  // measure 117
00100000
00000000
00010000
00001000
00000000
00000100
00000001
00000000
00000010
00000100
00000000
00001000
,  // measure 118
00010000
00000000
00100000
01000000
00000000
10000000
00100000
00000000
01000000
00010000
00000000
00100000
,  // measure 119
01000000
00010000
01000000
00010000
01000000
00010000
01000000
00010000
01000000
00010000
01000000
00010000
,  // measure 120
00001000
00000000
00000100
00000000
00000001
00000000
00000010
00000000
00000100
00000000
00001000
00000000
00000010
00000000
00000100
00000000
00001000
00000000
00010000
00000000
00000000
00001000
00000000
00000000
,  // measure 121
00000000
00022000
00000000
00000000
00000000
00000000
00000000
00000000
,  // measure 122
00000000
00000000
00000000
00000000
,  // measure 123
00000000
00000000
00000000
00000000
,  // measure 124
00000000
00000000
00000000
00000000
00000000
00000000
00000000
00033000
;
