#VERSION:0.83;
#TITLE:金野火織の金色提言;
#SUBTITLE:;
#ARTIST:DJ TECHNORCH feat. 宇宙★海月;
#TITLETRANSLIT:Konno Hiori no konjiki teigen;
#SUBTITLETRANSLIT:;
#ARTISTTRANSLIT:DJ TECHNORCH feat. Uchuu★Kurage;
#GENRE:VARIETY;
#ORIGIN:;
#CREDIT:MILEN;
#BANNER:Konno Hiori no konjiki teigen.png;
#BACKGROUND:Konno Hiori no konjiki teigen-bg.png;
#PREVIEWVID:;
#JACKET:Konno Hiori no konjiki teigen-jacket.png;
#CDIMAGE:;
#DISCIMAGE:;
#LYRICSPATH:;
#CDTITLE:;
#MUSIC:Konno Hiori no konjiki teigen.mp3;
#OFFSET:0.034000;
#SAMPLESTART:49.032665;
#SAMPLELENGTH:13.846664;
#SELECTABLE:YES;
#DISPLAYBPM:113.000000:225.000000;
#BPMS:0.000=112.500,
9.000=225.000,
344.000=112.500,
351.000=450.000,
353.000=225.000,
411.000=56.250;
#STOPS:9.000=0.267,
66.000=0.800,
135.000=0.800,
410.000=2.400;
#DELAYS:;
#WARPS:;
#TIMESIGNATURES:0.000=4=4;
#TICKCOUNTS:0.000=4;
#COMBOS:0.000=1;
#SPEEDS:0.000=1.000=0.000=0;
#SCROLLS:0.000=1.000;
#FAKES:;
#LABELS:0.000=Song Start;
#BGCHANGES:0.000=Konno Hiori no konjiki teigen.avi=1.000=0=0=0=StretchNoLoop====,
99999=-nosongbg-=1.000=0=0=0 // don't automatically add -songbackground-
;
#KEYSOUNDS:;
#ATTACKS:
;

//---------------dance-single - ----------------
#NOTEDATA:;
#CHARTNAME:;
#STEPSTYPE:dance-single;
#DESCRIPTION:;
#CHARTSTYLE:;
#DIFFICULTY:Hard;
#METER:16;
#RADARVALUES:0.805152,0.787027,0.562001,0.256915,0.148529,702.000000,632.000000,70.000000,32.000000,0.000000,0.000000,0.000000,0.000000,0.000000,0.805152,0.787027,0.562001,0.256915,0.148529,702.000000,632.000000,70.000000,32.000000,0.000000,0.000000,0.000000,0.000000,0.000000;
#CREDIT:MILEN;
#DISPLAYBPM:225.000000;
#NOTES:
// measure 0
0000
0000
0000
0000
,  // measure 1
0000
0000
0000
0000
,  // measure 2
0000
0000
0000
0000
1001
0000
1000
0010
,  // measure 3
1000
0010
0100
0000
0010
1000
0010
1000
,  // measure 4
0200
0000
0000
0000
0000
0310
0001
0010
,  // measure 5
0001
0000
0100
0001
0010
0001
0010
0100
,  // measure 6
2000
0001
0001
3001
0000
0001
0100
0001
,  // measure 7
0100
0010
1000
0010
1000
0001
0010
0100
,  // measure 8
2000
0000
0000
0000
0000
3010
0100
0001
,  // measure 9
0100
0001
1000
0010
1000
0010
0100
0001
,  // measure 10
1000
0000
0010
0100
0010
0000
0100
0000
0101
0000
0000
0000
1000
0000
0000
0000
,  // measure 11
0011
1000
0101
1000
,  // measure 12
0001
0010
0100
1000
1010
0000
0001
0000
,  // measure 13
1100
0001
1010
0001
,  // measure 14
1000
0100
0010
0001
0101
0000
0010
0000
,  // measure 15
1100
0010
0101
0010
,  // measure 16
1000
0100
0010
0001
1001
0000
1001
0001
,  // measure 17
0100
0000
0010
1000
0010
0000
1000
0000
0200
0000
0000
0000
0310
0000
0010
0000
,  // measure 18
0000
0010
0001
0100
0010
1000
0010
0100
,  // measure 19
0001
0100
0010
1000
0100
0010
0011
0000
,  // measure 20
0001
0100
0010
0010
1000
1000
0001
0010
,  // measure 21
0100
1000
1010
0000
0102
0000
0000
1003
,  // measure 22
0000
1000
0100
0001
0100
0010
0000
0011
,  // measure 23
0000
0001
0010
0100
0001
0100
1100
0000
,  // measure 24
1000
0010
0100
0010
1000
0001
0010
0100
,  // measure 25
2000
0001
3001
0000
1010
0000
0101
0000
,  // measure 26
0001
0010
0100
0010
0001
0100
0010
1000
,  // measure 27
0100
0000
1100
0000
1000
0100
0010
0000
,  // measure 28
0110
0000
0100
0010
0001
0100
0010
1000
,  // measure 29
0001
0010
0200
0000
0000
0000
0310
0100
,  // measure 30
1000
0000
0010
0000
0100
0001
0100
0000
0010
0000
2000
0000
0000
0000
3002
0000
,  // measure 31
0000
0103
0010
1000
0001
0010
0210
0000
,  // measure 32
1300
0000
0120
0000
0031
0000
0110
1000
,  // measure 33
0001
0100
0020
0000
0000
0000
0130
0000
,  // measure 34
1010
0000
0000
0000
0101
0000
0000
0000
0001
0000
0010
0001
0010
0000
0100
0000
,  // measure 35
0000
0000
0100
0000
1000
0000
0010
0000
0100
0001
0000
0000
0001
1000
0000
0000
,  // measure 36
1100
0000
0000
0000
0011
0000
0000
0000
0010
0000
0100
1000
0100
0000
0010
0000
,  // measure 37
0000
0010
0001
0100
0110
0000
0110
0000
,  // measure 38
0101
0000
0000
0000
1010
0000
0000
0000
1000
0000
0100
0010
0100
0000
0010
0000
,  // measure 39
0000
0000
0010
0000
0001
0000
0100
0000
0010
1000
0000
0000
1000
0001
0000
0000
,  // measure 40
0011
0000
0000
0000
1100
0000
0000
0000
0100
0000
0010
0001
0010
0000
0100
0000
,  // measure 41
1000
0000
1000
0000
0010
0000
0100
0001
0200
0000
0000
0000
0320
0000
0000
0000
,  // measure 42
1030
0000
0000
0000
1100
0000
0000
0000
0100
0000
0010
0001
0010
0000
1000
0000
,  // measure 43
0000
0000
1000
0000
0010
0000
0100
0000
1000
0010
0000
0000
0010
0100
0000
0000
,  // measure 44
0101
0000
0000
0000
1010
0000
0000
0000
1000
0000
0100
0001
0100
0000
0010
0000
,  // measure 45
0000
0010
0001
0100
0110
0000
0210
0000
,  // measure 46
0301
0000
0000
0000
0011
0000
0000
0000
0010
0000
0100
1000
0100
0000
0001
0000
,  // measure 47
0000
0000
0001
0000
0100
0000
0010
0000
0001
0100
0000
0000
0100
0010
0000
0000
,  // measure 48
1010
0000
0101
0100
0010
1000
0100
0010
,  // measure 49
0001
0100
0010
0010
1010
0000
0102
0000
,  // measure 50
0013
0000
0000
0000
1100
0000
0000
0000
1000
0000
0010
0001
0010
0000
0100
0000
,  // measure 51
0000
0000
0100
0000
0001
0000
0010
0000
0100
1000
0000
0000
1000
0010
0000
0000
,  // measure 52
0102
0000
0000
0000
2003
0000
0000
0000
3010
0000
0010
0100
0001
0000
0010
0000
,  // measure 53
0001
0100
1000
0100
1000
0100
0010
1000
,  // measure 54
1001
0000
0010
0000
0010
0001
0100
0000
,  // measure 55
0010
0000
0010
1000
0000
0010
0100
0000
,  // measure 56
1001
0000
0010
0000
0010
1000
0100
0000
,  // measure 57
0010
0000
0010
0001
0000
0010
0100
0000
,  // measure 58
1001
0000
0010
0000
0010
1000
0001
0000
,  // measure 59
0001
0000
0100
1000
0000
0100
0010
0000
,  // measure 60
1001
0000
0100
0000
0100
0001
1000
0000
,  // measure 61
1010
0011
1100
0101
,  // measure 62
0001
1000
0001
1000
0010
0100
0010
0100
,  // measure 63
0001
1000
0001
1000
0010
0000
0010
0000
,  // measure 64
1000
0001
1000
0001
0100
0010
0100
0010
,  // measure 65
1000
0001
1000
0001
0100
0000
0100
0000
,  // measure 66
0010
1000
0010
1000
0001
0100
0001
0100
,  // measure 67
0010
1000
0010
1000
0001
0000
0001
0000
,  // measure 68
0010
0001
0010
0001
0100
1000
0100
1000
,  // measure 69
0010
0000
0001
0000
0100
0000
1000
0000
0010
0100
0010
0000
0100
0010
0100
0000
,  // measure 70
0020
0000
0000
0000
,  // measure 71
0000
0000
0000
0000
,  // measure 72
0000
0000
0000
0000
,  // measure 73
0000
0000
0000
0030
,  // measure 74
0001
0010
0100
1000
0100
0010
0001
0000
,  // measure 75
0011
0110
2200
3300
,  // measure 76
1000
0010
0100
0001
0100
0010
1000
0000
,  // measure 77
1010
0000
0010
0000
0100
0000
0001
0010
0001
0000
1000
0010
1000
0000
0100
0000
,  // measure 78
0010
0001
0100
0000
0100
0010
1000
0000
,  // measure 79
1000
0100
0010
0000
0010
0001
0100
0000
,  // measure 80
0100
0010
1000
0000
1000
0001
0010
0000
,  // measure 81
0010
0100
0010
0100
1000
0001
1000
0001
,  // measure 82
0100
0010
1000
0001
0010
0100
0001
0100
,  // measure 83
1000
0010
0001
0010
0100
0001
1000
0100
,  // measure 84
0010
0001
0100
0010
1000
0001
0010
0100
,  // measure 85
1100
0000
0011
0000
2002
0000
0000
3003
,  // measure 86
0220
0000
0000
0000
0000
0000
0000
0000
0000
0000
0000
0000
0000
0330
0000
0100
,  // measure 87
0001
0000
1000
0000
0010
0000
0100
0000
0001
0000
1000
0000
0010
0000
0100
0000
0001
0000
1000
0010
1000
0000
0001
0000
0200
0000
0000
0000
0000
0000
0000
0000
,  // measure 88
0000
0000
0310
0000
0010
0010
0000
0010
,  // measure 89
1000
0100
0010
0001
0010
0100
1000
0100
,  // measure 90
0010
0001
0100
0010
1010
0000
1000
0100
,  // measure 91
0010
0010
0001
0001
1000
0010
0100
0001
,  // measure 92
0011
0000
2100
0000
0000
3001
0000
0001
,  // measure 93
0100
1000
0100
0010
0000
1010
0000
0001
,  // measure 94
0010
0100
1000
0100
0101
0000
0001
0010
,  // measure 95
0100
0010
0001
1000
0010
0100
0002
1000
,  // measure 96
1003
0000
0110
0000
0010
1000
0100
0001
,  // measure 97
0100
0010
0001
0100
1000
0100
0010
1000
,  // measure 98
0010
0001
0010
0100
0001
0010
1000
0010
,  // measure 99
0100
1000
0100
0001
0100
0010
0001
0100
,  // measure 100
0010
1000
0010
0000
0100
0001
0100
0000
0010
0000
1000
0000
0100
0000
0001
0000
,  // measure 101
0100
0010
0001
1000
0010
0001
1000
0100
,  // measure 102
0001
1000
0100
0010
2002
3003
0220
0000
,  // measure 103
0000
0000
0000
0330
0000
0000
0000
0000
0000
0000
0000
0000
0000
0000
0000
0000
;

//---------------dance-double - ----------------
#NOTEDATA:;
#CHARTNAME:;
#STEPSTYPE:dance-double;
#DESCRIPTION:;
#CHARTSTYLE:;
#DIFFICULTY:Hard;
#METER:15;
#RADARVALUES:0.773038,0.787027,0.674401,0.224800,0.032114,674.000000,590.000000,84.000000,28.000000,0.000000,0.000000,0.000000,0.000000,0.000000,0.773038,0.787027,0.674401,0.224800,0.032114,674.000000,590.000000,84.000000,28.000000,0.000000,0.000000,0.000000,0.000000,0.000000;
#CREDIT:MILEN;
#DISPLAYBPM:225.000000;
#NOTES:
00000000
00000000
00000000
00000000
,
00000000
00000000
00000000
00000000
,
00000000
00000000
00000000
00000000
00011000
00000000
00001000
00100000
,
00001000
00100000
00010000
00000000
00100000
00001000
00100000
00001000
,
00020000
00000000
00000000
00000000
00000000
00030100
00010000
00000100
,
00010000
00000000
00001000
00010000
00000100
00010000
00000100
00001000
,
00000010
00000100
00000001
00001001
00000000
00001000
00000100
00001000
,
00000100
00010000
00001000
00010000
00001000
00100000
00010000
01000000
,
00200000
00000000
00000000
00000000
00000000
10300000
00010000
01000000
,
00010000
01000000
00001000
00010000
00001000
00010000
00000100
00001000
,
00000010
00000100
00000001
00001000
00001100
00000000
00010000
00000000
,
00011000
01000000
01010000
10000000
,
00100000
01000000
00010000
00000000
00110000
00000000
00001000
00000000
,
00011000
00000010
00001010
00000001
,
00000100
00000010
00001000
00000000
00001100
00000000
00010000
00000000
,
00010100
01000000
01001000
10000000
,
00010000
00100000
01000000
00000000
01100000
00000000
10010000
10000000
,
00010000
01000000
00001000
00010000
00000200
00000000
00000310
00000010
,
00000000
00000010
00000001
00001000
00000010
00010000
00001000
00010000
,
00000010
00001000
00000100
00010000
00001000
00100000
01000000
00000000
,
01000000
10000000
00100000
00010000
00100000
01000000
00010000
00100000
,
00001000
00010000
00000100
00000000
00002100
00000000
00000000
00003010
,
00000000
00000010
00000100
00000001
00000100
00001000
00000000
00011000
,
00000000
00010000
00100000
01000000
00010000
01000000
10000000
00000000
,
10000000
01000000
00010000
00100000
01000000
00010000
00001000
00100000
,
00010000
10000000
10010000
00000000
10100000
00000000
01010000
00000000
,
00010000
00100000
01000000
00100000
00001000
00010000
00000100
00000010
,
00000001
00000000
00000101
00000000
00000100
00001000
00010000
00000000
,
00011000
00000000
00001000
00100000
01000000
00100000
00010000
10000000
,
00100000
01000000
00020000
00000000
00000000
00000000
00130000
00001000
,
00010000
00000100
00000010
00000001
00000100
00002000
00000000
00023000
,
00000000
00130000
10000000
01000000
00100000
00001000
00021000
00000000
,
00030010
00012000
00103000
00011000
,
00001000
00000100
00000002
00000000
00000000
00000000
00001003
00000000
,
00001100
00000000
00000011
00000000
00000001
00000100
00000100
00001000
,
00000000
00000001
00000100
00000010
00010010
00000000
00011000
00000000
,
00101000
00000000
01100000
00000000
10000000
00100000
00100000
00010000
,
00000000
10000000
00100000
01000000
01010000
00000000
00110000
00000000
,
00101000
00000000
00010010
00000000
00010000
00001000
00001000
00000010
,
00000000
00000100
00000001
00000010
00000110
00000000
00001100
00000000
,
00010100
00000000
00011000
00000000
00001000
00010000
00010000
01000000
,
00100000
10000000
01000000
00100000
00110000
00000000
11000000
00000000
,
01010000
00000000
10100000
00000000
10000000
01000000
01000000
00010000
,
00000000
10000000
01000000
00100000
00101000
00000000
00011000
00000000
,
00010010
00000000
00000110
00000000
00000001
00000010
00000010
00001000
,
00000000
00000001
00000010
00000100
00001100
00000000
00001010
00000000
,
00010010
00000000
00101000
00000000
00001000
00010000
00010000
00100000
,
00000000
01000000
10000000
00100000
01100000
00000000
01010000
00000000
,
01001000
00000000
00011000
00000000
00010000
00001000
00001000
00000100
,
00000010
00000001
00000100
00000010
00001010
00000000
00000101
00000000
,
00001100
00000000
00000011
00000000
00000001
00000100
00000100
00010000
,
00000000
00001000
00100000
01000000
11000000
00000000
00110000
00000000
,
01010000
00000000
10100000
00000000
10000000
01000000
01000000
00001000
,
00010000
00000100
00000010
00000001
00000010
00000001
00000100
00001000
,
00012000
00000000
01000000
00000000
01000000
01000000
01000000
00000000
,
01000000
00000000
00000000
01000000
00000000
00000000
01003000
00000000
,
00021000
00000000
00000100
00000000
00000100
00000100
00000100
00000000
,
00000100
00000000
00000000
00000100
00000000
00000000
00030100
00000000
,
00012000
00000000
00100000
00000000
00100000
00100000
00100000
00000000
,
00100000
00000000
00000000
00100000
00000000
00000000
00103000
00000000
,
00021000
00000000
00000010
00000000
00000010
00000010
00030010
00000000
,
00010010
00101000
00010100
01001000
,
00001000
00010000
00001000
00010000
00100000
01000000
00100000
01000000
,
00001000
00010000
00001000
00010000
00100000
00000000
00100000
00000000
,
00010000
00001000
00010000
00001000
00000010
00000100
00000010
00000100
,
00010000
00001000
00010000
00001000
00000010
00000000
00000010
00000000
,
00000001
00000100
00000001
00000100
00000010
00001000
00000010
00001000
,
00000100
00010000
00000100
00010000
00001000
00000000
00001000
00000000
,
00010000
00100000
00010000
00100000
10000000
01000000
10000000
01000000
,
00010000
00001000
00000010
00000001
00000100
00001000
00010000
00001000
,
00022000
00000000
00000000
00000000
,
00000000
00000000
00000000
00000000
,
00000000
00000000
00000000
00000000
,
00000000
00000000
00000000
00033000
,
00010000
00001000
00100000
01000000
10000000
00100000
01000000
00000000
,
01100000
01001000
00022000
00033000
,
00001000
00010000
00000100
00000010
00000001
00000100
00000010
00000000
,
00001000
00000100
00010000
00001000
00001000
00100000
00100000
01000000
,
10000000
00100000
00010000
00000000
00100000
10000000
01000000
00000000
,
10000000
00100000
00010000
00000000
00001000
00000100
00000001
00000000
,
00000010
00000001
00000100
00000000
00001000
00000100
00000001
00000000
,
00000010
00000100
00000010
00000100
00001000
00000001
00001000
00000001
,
00000100
00001000
00010000
00100000
10000000
00100000
01000000
00010000
,
01000000
00100000
10000000
01000000
00100000
00001000
00010000
00000100
,
00001000
00000100
00000010
00000001
00000010
00000100
00010000
00001000
,
01001000
00000000
00010100
00000000
00022000
00000000
00000000
00033000
,
00022000
00000000
00000000
00000000
00000000
00000000
00000000
00000000
00000000
00000000
00000000
00000000
00000000
00033000
00000000
00001000
,
00010000
00000000
01000000
00000000
10000000
00000000
00100000
00000000
00010000
00000000
00001000
00000000
00000100
00000000
00000001
00000000
00000010
00000000
00001000
00010000
00001000
00000000
00010000
00000000
00002000
00000000
00000000
00000000
00000000
00000000
00000000
00000000
,
00000000
00000000
00013000
00000000
00100000
00100000
00000000
00100000
,
10000000
00010000
00100000
00001000
00010000
00001000
00100000
00010000
,
01000000
00001000
00010000
00000010
00000100
00000000
00000100
00000001
,
00000010
00001000
00000010
00000100
00001000
00000010
00010000
00001000
,
01000000
00000000
01020000
00000000
00000000
00130000
00000000
00100000
,
01000000
10000000
01000000
00010000
00000000
00011000
00000000
00001000
,
00000010
00000100
00001000
00000100
00000001
00000000
00000001
00000100
,
00001000
00000010
00000100
00001000
00010000
00000010
00001000
00000001
,
00001001
00000000
00000011
00000000
00000010
00001000
00010000
00001000
,
00010000
01000000
10000000
00100000
01000000
00010000
00100000
01000000
,
00010000
00001000
00010000
00001000
00000010
00000100
00001000
00000010
,
00000001
00000010
00000100
00001000
00000100
00001000
00010000
01000000
,
10000000
00000000
10010000
00000000
00010000
01000000
00100000
10000000
,
01000000
00010000
00001000
00000010
00000001
00001000
00000100
00000001
,
00001000
00000010
00000100
00010000
00022000
00033000
00022000
00000000
,
00000000
00000000
00000000
00033000
00000000
00000000
00000000
00000000
00000000
00000000
00000000
00000000
00000000
00000000
00000000
00000000
;

//---------------dance-single - ----------------
#NOTEDATA:;
#CHARTNAME:;
#STEPSTYPE:dance-single;
#DESCRIPTION:;
#CHARTSTYLE:;
#DIFFICULTY:Beginner;
#METER:7;
#RADARVALUES:0.227094,0.330778,0.056200,0.056200,0.000000,198.000000,191.000000,7.000000,7.000000,0.000000,0.000000,0.000000,0.000000,0.000000,0.227094,0.330778,0.056200,0.056200,0.000000,198.000000,191.000000,7.000000,7.000000,0.000000,0.000000,0.000000,0.000000,0.000000;
#CREDIT:MILEN;
#DISPLAYBPM:225.000000;
#NOTES:
0000
0000
0000
0000
,
0000
0000
0000
0000
,
0000
0000
1000
0000
,
1000
0000
1000
1000
,
1000
0000
0001
0000
,
0001
0000
0001
0001
,
0001
0000
1000
0000
,
1000
0000
1000
0001
,
1000
0000
0001
0000
,
0001
0000
0001
1000
,
0001
0000
0100
0000
,
0010
0000
1000
0000
,
0001
0000
0100
0000
,
0010
0000
1000
0000
,
0001
0000
0100
0000
,
0100
0000
0010
0000
,
0010
0000
0110
0010
,
0010
0010
0010
0010
,
0000
0000
0000
1000
,
0000
0000
0000
0100
,
0000
0000
0000
0010
,
0000
0000
0000
0001
,
0000
0000
0000
0100
,
0000
0000
0000
0010
,
0000
0000
0000
1000
,
0000
0000
0000
0001
,
0000
0000
0000
0010
,
0000
0000
0000
0100
,
0000
0000
0000
1000
,
0000
0000
0000
0010
,
0000
0100
0000
0001
,
0000
0100
0000
0010
,
0000
1000
0000
0010
,
0000
0100
0100
0100
,
0001
0000
1000
0000
,
0001
0000
1000
0000
,
0001
0000
1000
0000
,
0001
1000
0001
0000
,
0100
0000
0010
0000
,
0100
0000
0010
0000
,
0100
0000
0010
0000
,
0100
0010
0100
0100
,
0010
0000
1000
0000
,
0010
0000
1000
0000
,
0010
0000
1000
0000
,
0010
1000
0010
0000
,
0100
0000
0001
0000
,
0100
0000
0001
0000
,
0100
0000
0001
0000
,
0100
0001
0100
0100
,
0010
0000
1000
0000
,
0001
0000
0100
0000
,
0010
0000
1000
0000
,
0001
0100
0010
1000
,
1001
0000
0000
0000
,
0100
0000
0000
0000
,
0010
0000
0000
0000
,
0100
0000
0000
0000
,
1001
0000
0000
0000
,
0010
0000
0000
0000
,
0100
0000
0000
0000
,
0010
0000
0010
0000
,
0010
0000
1000
0000
,
0100
0000
0010
0000
,
0001
0000
1000
0000
,
0010
0000
0100
0000
,
0001
0000
0010
0000
,
0100
0000
1000
0000
,
0010
0100
0001
0000
,
0100
0010
1000
0000
,
2002
0000
0000
0000
,
0000
0000
0000
0000
,
0000
0000
0000
0000
,
0000
0000
0000
3003
,
1000
0000
0000
0000
,
0001
0000
0000
0000
,
1000
0000
0001
0000
,
1000
0001
2002
3003
,
1000
0000
0010
0000
,
0100
0000
0001
0000
,
1000
0000
0100
0000
,
0010
0000
0001
0000
,
0100
0000
0010
0000
,
1000
0000
0001
0000
,
0010
0000
0100
0000
,
1000
1000
1000
0000
,
2002
0000
0000
0000
,
3003
0000
0000
0000
,
0000
1001
0010
0000
,
0010
0000
1000
0000
,
1000
0000
0100
0000
,
0100
0000
0001
0000
,
0001
0000
1000
0000
,
1000
0000
0010
0000
,
0010
0000
0001
0000
,
0001
0000
0100
0000
,
0100
0000
0010
0000
,
1000
0000
0001
0000
,
0010
0000
0100
0000
,
1000
0000
0010
0000
,
0001
0000
1000
0000
,
0100
0000
0001
0000
,
0010
0010
0020
0000
,
0030
0000
0000
0000
;

//---------------dance-single - ----------------
#NOTEDATA:;
#CHARTNAME:;
#STEPSTYPE:dance-single;
#DESCRIPTION:;
#CHARTSTYLE:;
#DIFFICULTY:Easy;
#METER:10;
#RADARVALUES:0.377343,0.454819,0.152543,0.216772,0.000000,329.000000,310.000000,19.000000,27.000000,0.000000,0.000000,0.000000,0.000000,0.000000,0.377343,0.454819,0.152543,0.216772,0.000000,329.000000,310.000000,19.000000,27.000000,0.000000,0.000000,0.000000,0.000000,0.000000;
#CREDIT:MILEN;
#DISPLAYBPM:113.000000:225.000000;
#NOTES:
0000
0000
0000
0000
,
0000
0000
0000
0000
,
0000
0000
1000
1000
,
0010
0010
1000
0010
,
1000
0000
0001
0001
,
0100
0100
0001
0100
,
0001
0000
1000
1000
,
0100
0100
1000
0100
,
1000
0000
0001
0001
,
0010
0010
0001
0010
,
0002
2003
3010
0010
,
0100
0001
0100
0010
,
0100
0000
0010
0010
,
1000
0010
0100
0010
,
1000
0000
0001
0001
,
1000
0001
1000
0010
,
0100
0010
0110
1000
,
1000
0001
0001
1000
,
0100
0010
0000
0010
,
0001
0100
0000
0001
,
0010
0100
0000
0100
,
1000
0010
0000
0100
,
0001
1000
0000
0010
,
1000
0001
0000
0100
,
0010
1000
0001
0100
,
0100
0100
0000
0010
,
1000
0100
0000
0100
,
0010
0001
0000
0010
,
0001
0100
0000
0100
,
0010
1000
0000
0001
,
0010
0100
0000
1000
,
0010
0100
0000
0001
,
1000
0010
0100
0001
,
0001
0001
1000
1001
,
0010
1000
0200
0300
,
0010
0001
0200
0300
,
0010
1000
0200
0300
,
0010
0001
0011
0011
,
0001
0100
0020
0030
,
1000
0100
0020
0030
,
0001
0100
0020
0030
,
1000
0100
1100
1100
,
0100
0010
0001
0100
,
0010
1000
0100
0010
,
0001
0100
0010
1000
,
0100
0010
1001
1001
,
1000
0010
1000
0001
,
0010
0001
1000
0100
,
1000
0001
0100
0001
,
1000
0010
0200
0320
,
0130
0001
0010
0100
,
0010
0001
0100
0010
,
1000
0100
0010
0100
,
1000
0010
0110
0110
,
2000
0000
0000
3000
,
0002
0000
0000
0003
,
0200
0000
0000
0300
,
0020
0000
0000
0030
,
2000
0000
0000
3000
,
0200
0000
0000
0300
,
0020
0000
0000
0030
,
0001
1000
0001
1001
,
1000
0000
0010
0000
,
0001
0100
1000
0000
,
0001
0000
0010
0000
,
1000
0100
0001
1000
,
1001
0000
0010
0000
,
1001
0000
0100
0000
,
1001
0010
0100
0010
,
1001
0100
0010
0100
,
0020
0000
0000
0000
,
0000
0000
0000
0000
,
0000
0000
0000
0000
,
0000
0000
0000
0030
,
1000
0000
0001
0000
,
1000
0001
2000
3000
,
0001
1000
0001
1000
,
0001
1000
2002
3003
,
0001
0000
0100
0000
,
0010
0000
1000
0000
,
0010
0000
0100
0000
,
0001
0000
0100
0000
,
0010
1000
0010
1000
,
0100
0001
0100
0001
,
0010
1000
0100
0001
,
0010
1000
0100
0010
,
0220
0000
0000
0330
,
0100
0000
0100
0000
0100
0100
0010
0000
,
0000
0010
0001
0010
,
0100
0000
0100
1000
,
0010
0000
1000
0100
,
0010
0000
0010
0001
,
0100
0000
0010
1000
,
0001
0000
0100
0001
,
1000
0000
0010
0100
,
0001
1000
0010
0010
,
0220
0330
0100
0001
,
1000
0010
0100
0001
,
0010
0100
1000
0001
,
0100
0010
1000
0100
,
0010
0001
1000
1000
,
0010
0010
0001
0001
,
0100
0100
2002
0000
,
3003
0000
0000
0000
;

//---------------dance-single - ----------------
#NOTEDATA:;
#CHARTNAME:;
#STEPSTYPE:dance-single;
#DESCRIPTION:;
#CHARTSTYLE:;
#DIFFICULTY:Medium;
#METER:14;
#RADARVALUES:0.648021,0.745604,0.208743,0.329172,0.028100,565.000000,539.000000,26.000000,41.000000,0.000000,0.000000,0.000000,0.000000,0.000000,0.648021,0.745604,0.208743,0.329172,0.028100,565.000000,539.000000,26.000000,41.000000,0.000000,0.000000,0.000000,0.000000,0.000000;
#CREDIT:MILEN;
#DISPLAYBPM:113.000000:225.000000;
#NOTES:
// measure 0
0000
0000
0000
0000
,  // measure 1
0000
0000
0000
0000
,  // measure 2
0000
0000
1000
0100
,  // measure 3
1000
0000
0001
0000
1000
0100
1000
0100
,  // measure 4
1000
0000
0001
0100
,  // measure 5
0001
0000
1000
0000
0001
0100
0001
0100
,  // measure 6
0001
0000
1000
0010
,  // measure 7
1000
0000
0001
0000
1000
0010
1000
0010
,  // measure 8
1000
0000
0001
0010
,  // measure 9
0001
0000
1000
0000
0001
0010
0001
0010
,  // measure 10
0002
2003
3001
0001
,  // measure 11
1000
0000
1000
0000
0010
0100
0010
0100
,  // measure 12
0001
1000
0001
1000
0001
0000
0001
0000
,  // measure 13
1000
0000
1000
0000
0100
0010
0100
0010
,  // measure 14
0001
1000
0001
1000
0001
0000
0001
0000
,  // measure 15
1000
0000
1000
0000
0010
0100
0001
1000
,  // measure 16
0010
0100
0001
1000
1001
0000
0100
0000
,  // measure 17
0100
0000
0100
0000
0100
0010
0002
0000
,  // measure 18
0103
0000
2000
0000
3100
0000
0001
0100
,  // measure 19
0001
1000
0100
1000
0001
0000
2000
0000
,  // measure 20
3010
0000
0002
0000
0013
0000
1000
0010
,  // measure 21
1000
0001
0020
0000
0230
0000
2300
0000
,  // measure 22
3010
0000
0002
0000
0103
0000
1000
0010
,  // measure 23
1000
0001
0100
0001
1000
0000
0002
0000
,  // measure 24
0013
0000
2000
0000
3100
0000
0001
0010
,  // measure 25
0001
1000
0200
0000
0320
0000
0031
0100
,  // measure 26
0010
0000
0001
0100
0010
0000
0001
0100
,  // measure 27
0010
1000
0100
0000
0110
0000
1000
0010
,  // measure 28
0100
0000
1000
0010
0100
0000
1000
0010
,  // measure 29
0100
0001
0010
0000
0110
0000
0001
0100
,  // measure 30
1000
0000
0001
0100
1000
0000
0001
0010
,  // measure 31
0100
1000
0001
0000
1001
0000
1000
0010
,  // measure 32
0001
0000
1000
0010
0001
0000
1000
0100
,  // measure 33
0010
0001
1000
0000
1001
0000
0110
0000
,  // measure 34
1000
0000
0001
0000
0100
0010
0100
0001
,  // measure 35
0000
0100
0010
0000
0100
0001
0010
0001
,  // measure 36
0100
0000
0010
0000
1000
0100
1000
0010
,  // measure 37
0000
0100
0001
1000
1010
0000
0101
0000
,  // measure 38
0001
0000
0010
0000
0100
0010
0100
1000
,  // measure 39
0000
0010
0100
0000
0001
1000
0100
0010
,  // measure 40
0001
0000
0100
0000
0010
1000
0010
0001
,  // measure 41
0010
0100
0001
1000
1100
0000
0011
0000
,  // measure 42
0001
0000
1000
0000
0010
0100
0010
1000
,  // measure 43
0000
0010
0100
0000
0010
1000
0100
1000
,  // measure 44
0010
0000
0100
0000
0001
0010
0001
0100
,  // measure 45
0000
0010
1000
0001
0101
0000
1010
0000
,  // measure 46
1000
0000
0001
0000
0100
0010
1000
0010
,  // measure 47
0000
0100
0001
0000
1000
0010
0100
0001
,  // measure 48
1000
0000
0001
0010
0100
1000
0010
0010
,  // measure 49
0000
0100
0001
1000
1001
0000
0110
0000
,  // measure 50
0010
0000
0100
0000
0010
1000
0100
0010
,  // measure 51
0000
0100
0001
0000
0100
0010
0001
0100
,  // measure 52
0020
0000
2030
0000
3001
0100
0010
1000
,  // measure 53
0010
0100
0001
0010
0100
1000
1001
0000
,  // measure 54
0001
0000
0001
0000
0100
0010
0000
0000
,  // measure 55
1000
0000
0010
0100
0000
0010
0110
0000
,  // measure 56
1000
0000
1000
0000
0010
0100
0000
0000
,  // measure 57
0001
0000
0100
0010
0000
0100
0110
0000
,  // measure 58
0001
0000
0001
0000
1000
0010
0000
0000
,  // measure 59
0001
0000
0100
1000
0000
1000
1010
0000
,  // measure 60
1000
0000
1000
0000
0100
0001
0000
0000
,  // measure 61
0011
0110
1100
1001
,  // measure 62
0001
0100
0010
1000
,  // measure 63
0001
0000
0100
0000
1000
1000
0001
0000
,  // measure 64
1000
0010
0100
0001
,  // measure 65
1000
0000
0010
0000
0001
0001
1000
0000
,  // measure 66
0010
0100
0001
1000
,  // measure 67
0100
0000
0010
0000
0001
0001
0001
0000
,  // measure 68
1000
1000
1000
0000
0010
0010
0010
0000
,  // measure 69
0100
0100
0100
0001
1000
0010
0100
0002
,  // measure 70
2000
0000
0000
0000
,  // measure 71
0000
0000
0000
0000
,  // measure 72
0000
0000
0000
0000
,  // measure 73
0000
0000
0000
3003
,  // measure 74
1000
0100
0010
0001
,  // measure 75
0100
0010
0100
0010
0200
0000
0300
0000
,  // measure 76
0001
0010
0100
1000
0010
0100
0001
1000
,  // measure 77
0100
0010
2002
3003
,  // measure 78
0001
0100
0010
0000
0001
0100
1000
0000
,  // measure 79
0001
0100
0010
0000
0001
0100
1000
0000
,  // measure 80
1000
0010
0100
0000
1000
0010
0001
0000
,  // measure 81
1000
0010
0100
0000
1000
0010
0001
0000
,  // measure 82
0100
1000
0100
0001
1000
0000
0100
0000
,  // measure 83
0010
0001
0010
1000
0010
0000
0100
0000
,  // measure 84
1000
0010
0001
0010
0100
0001
0100
0010
,  // measure 85
1000
0010
0100
1000
0100
0001
0010
0100
,  // measure 86
0220
0000
0000
0000
0000
0000
0000
0000
0000
0000
0000
0000
0330
0000
0000
0010
,  // measure 87
0001
0010
0000
0100
0010
0100
0000
1000
0100
1000
0100
0010
0002
0000
0000
0000
,  // measure 88
0000
1003
2000
3010
,  // measure 89
0002
0000
0103
0000
1000
0010
0001
0010
,  // measure 90
1000
0100
0010
0000
0002
0000
0103
0000
,  // measure 91
2000
0000
3010
0000
0001
0010
1000
0100
,  // measure 92
0002
0023
2030
3100
,  // measure 93
0002
0000
0013
0000
1000
0100
0001
0100
,  // measure 94
1000
0010
0100
0000
0002
0000
0013
0000
,  // measure 95
2000
0000
3100
0000
0001
0010
1000
0100
,  // measure 96
0002
0000
0023
0000
0130
1000
0100
0010
,  // measure 97
0100
0001
0100
0000
0010
1000
0010
0100
,  // measure 98
0010
0001
0010
0000
0001
0100
1000
0000
,  // measure 99
0001
0010
1000
0000
1000
0100
0001
1000
,  // measure 100
0010
0001
0200
0000
0310
1000
0100
0001
,  // measure 101
0100
0010
1000
0010
0001
0100
1000
0001
,  // measure 102
0010
1000
0100
0010
2002
3003
0220
0000
,  // measure 103
0000
0000
0000
0330
0000
0000
0000
0000
0000
0000
0000
0000
0000
0000
0000
0000
;

//---------------dance-double - ----------------
#NOTEDATA:;
#CHARTNAME:;
#STEPSTYPE:dance-double;
#DESCRIPTION:;
#CHARTSTYLE:;
#DIFFICULTY:Easy;
#METER:11;
#RADARVALUES:0.365874,0.496166,0.160572,0.184657,0.000000,319.000000,299.000000,20.000000,23.000000,0.000000,0.000000,0.000000,0.000000,0.000000,0.365874,0.496166,0.160572,0.184657,0.000000,319.000000,299.000000,20.000000,23.000000,0.000000,0.000000,0.000000,0.000000,0.000000;
#CREDIT:MILEN;
#DISPLAYBPM:113.000000:225.000000;
#NOTES:
00000000
00000000
00000000
00000000
,
00000000
00000000
00000000
00000000
,
00000000
00000000
00001000
00001000
,
00100000
00100000
00001000
00100000
,
00001000
00000000
00010000
00010000
,
00000010
00000010
00010000
00000010
,
00010000
00000000
00001000
00001000
,
01000000
01000000
00001000
01000000
,
00001000
00000000
00010000
00010000
,
00000100
00000100
00010000
00000100
,
00020000
00032000
00103000
00100000
,
00010000
01000000
00001000
00010000
,
00000100
00000000
00000100
00000100
,
00001000
00000010
00010000
00001000
,
00100000
00000000
00100000
00100000
,
00010000
01000000
00001000
00010000
,
00000010
00001000
00001001
00000001
,
00000001
00001000
00001000
00000100
,
00000010
00000001
00000000
00000100
,
00001000
00010000
00000000
00001000
,
00010000
01000000
00000000
10000000
,
00100000
01000000
00000000
00010000
,
00100000
01000000
00000000
00010000
,
00001000
00000010
00000000
00001000
,
00010000
00100000
00010000
00001000
,
00000010
00000011
00000000
00000001
,
00000100
00000010
00000000
00001000
,
00000100
00010000
00000000
00001000
,
00100000
00010000
00000000
01000000
,
00100000
10000000
00000000
00010000
,
00100000
01000000
00000000
00010000
,
00001000
00000010
00000000
00000001
,
00000100
00001000
00010000
00100000
,
10000000
01000000
00100000
10010000
,
00010000
00000000
01000000
00000000
,
00001000
00000000
00010000
00000000
,
00000100
00000000
00000010
00000000
,
00000001
00001000
00001001
00001001
,
00000001
00000000
00000100
00000000
,
00001000
00000000
00010000
00000000
,
00100000
00000000
10000000
00000000
,
01000000
00100000
01100000
01100000
,
01000000
00010000
00001000
00010000
,
01000000
00010000
00001000
00010000
,
00001000
00000010
00001000
00010000
,
00001000
00000010
00000110
00000110
,
00000100
00000010
00000001
00000000
,
00001000
00000100
00000010
00000000
,
00001000
00010000
00100000
10000000
,
01000000
00010000
00002000
00023000
,
00030100
00000010
00000001
00000100
,
00000010
00000100
00000001
00000010
,
00000100
00010000
00001000
00100000
,
01000000
10000000
10010000
10010000
,
02000000
00000000
00000000
03000000
,
00002000
00000000
00000000
00003000
,
00020000
00000000
00000000
00030000
,
00000200
00000000
00000000
00000300
,
00002000
00000000
00000000
00003000
,
00000020
00000000
00000000
00000030
,
00020000
00000000
00000000
00030000
,
00001000
00100000
00010000
10010000
,
10000000
00000000
00100000
00000000
,
01000000
00000000
00001000
00000000
,
00000100
00000000
00010000
00000000
,
00100000
00000000
00001000
00000000
,
00000010
00000000
00000001
00000000
,
00000100
00000000
00000010
00000000
,
00010000
00001000
00010000
00011000
,
00011000
00010000
00001000
00010000
,
00022000
00000000
00000000
00000000
,
00000000
00000000
00000000
00000000
,
00000000
00000000
00000000
00000000
,
00000000
00000000
00000000
00033000
,
00001000
00000000
00010000
00000000
,
00001000
00010000
00022000
00033000
,
00001000
00010000
00001000
00010000
,
00001000
00010000
00022000
00033000
,
00001000
00000000
00100000
00000000
,
01000000
00000000
10000000
00000000
,
00100000
00000000
00010000
00000000
,
00001000
00000000
00000100
00000000
,
00000001
00000010
00000001
00000010
,
00001000
00010000
00001000
00010000
,
01000000
10000000
00100000
00010000
,
00001000
00000100
00000001
00000010
,
00000220
00000000
00000000
00000330
,
00000001
00000000
00001000
00000000
00010000
00010000
01000000
00000000
,
00000000
01000000
00100000
10000000
,
01000000
00000000
01000000
00010000
,
00001000
00000000
00001000
00000010
,
00000001
00000000
00000001
00000100
,
00000010
00000000
00000010
00010000
,
00001000
00000000
00001000
00100000
,
01000000
00000000
01000000
10000000
,
00100000
00010000
00001000
00010000
,
00022000
00033000
00001000
00100000
,
00010000
01000000
00001000
00010000
,
00000100
00001000
00000010
00010000
,
00001000
00000100
00000001
00000010
,
00001000
00010000
01000000
10000000
,
00100000
00010000
00001000
00000100
,
00000010
00000100
00002002
00000000
,
00003003
00000000
00000000
00000000
;

//---------------dance-double - ----------------
#NOTEDATA:;
#CHARTNAME:;
#STEPSTYPE:dance-double;
#DESCRIPTION:;
#CHARTSTYLE:;
#DIFFICULTY:Medium;
#METER:14;
#RADARVALUES:0.606731,0.745604,0.184657,0.329172,0.028100,529.000000,506.000000,23.000000,41.000000,0.000000,0.000000,0.000000,0.000000,0.000000,0.606731,0.745604,0.184657,0.329172,0.028100,529.000000,506.000000,23.000000,41.000000,0.000000,0.000000,0.000000,0.000000,0.000000;
#CREDIT:MILEN;
#DISPLAYBPM:113.000000:225.000000;
#NOTES:
00000000
00000000
00000000
00000000
,
00000000
00000000
00000000
00000000
,
00000000
00000000
00001000
01000000
,
00001000
00000000
00010000
00000000
00001000
01000000
00001000
01000000
,
00001000
00000000
00010000
00000100
,
00010000
00000000
00001000
00000000
00010000
00000100
00010000
00000100
,
00010000
00000000
00001000
00100000
,
00001000
00000000
00010000
00000000
00001000
00100000
00001000
00100000
,
00001000
00000000
00010000
00000010
,
00010000
00000000
00001000
00000000
00010000
00000010
00010000
00000010
,
00020000
00032000
00103000
00100000
,
01000000
00000000
01000000
00000000
10000000
00100000
10000000
00100000
,
00010000
00001000
00010000
00001000
00010000
00000000
00000100
00000000
,
00000010
00000000
00000010
00000000
00000001
00000100
00000001
00000100
,
00001000
00010000
00001000
00010000
00001000
00000000
01000000
00000000
,
00100000
00000000
00100000
00000000
10000000
01000000
00010000
00001000
,
00000010
00000001
00000100
00000010
00000110
00000000
00001000
00000000
,
00000001
00001000
00000001
00002000
,
00003100
00000000
00000002
00000000
00000103
00000000
00000100
00001000
,
00010000
00000000
00001000
00010000
01000000
00000000
20000000
00000000
,
30100000
00000000
00020000
00000000
00130000
00000000
00100000
01000000
,
10000000
02000000
03020000
00032000
,
00103000
00000000
00020000
00000000
00030010
00000000
00000010
00001000
,
00000100
00000000
00000010
00000001
00000100
00000000
00002000
00000000
,
01003000
00000000
00020000
00000000
00030100
00000000
00000100
00001000
,
00000010
00000000
00020000
00000000
00032000
00000000
00103000
01000000
,
10000000
00000000
00010000
00100000
01000000
00000000
10000000
00100000
,
00010000
00001000
00010000
00000000
00011000
00000000
00000100
00000010
,
00000001
00000000
00001000
00000100
00000010
00000000
00000001
00000100
,
00001000
00010000
00001000
00000000
00011000
00000000
00100000
01000000
,
10000000
00000000
00100000
00010000
00001000
00000000
00100000
01000000
,
10000000
00100000
00010000
00000000
00011000
00000000
00000100
00000010
,
00000001
00000000
00000100
00001000
00010000
00000000
00000100
00000010
,
00000001
00000100
00001000
00000000
00011000
00000000
00011000
00000000
,
00010000
00000000
01000000
00000000
10000000
01000000
00100000
00010000
,
00000000
00001000
00010000
00000000
00100000
00010000
00001000
00000010
,
00000001
00000000
00000010
00000000
00001000
00000100
00000010
00001000
,
00000000
00001000
00010000
00100000
10000000
00000000
11000000
00000000
,
01000000
00000000
00010000
00000000
00001000
00010000
00100000
01000000
,
00000000
00100000
00010000
00000000
00001000
00010000
00001000
00000100
,
00000001
00000000
00000010
00000000
00000100
00000001
00000100
00000010
,
00000001
00000100
00001000
00000000
00001100
00000000
00011000
00000000
,
00001000
00000000
00000100
00000000
00000001
00000100
00000010
00001000
,
00000000
00010000
00001000
00000000
00000010
00001000
00010000
00100000
,
10000000
00000000
00100000
00000000
00010000
01000000
00100000
00010000
,
00000000
00010000
00001000
00000010
00000001
00000000
00000101
00000000
,
00000100
00000000
00001000
00000000
00010000
00001000
00000010
00000100
,
00000000
00000010
00001000
00000000
00010000
00001000
00010000
01000000
,
10000000
00000000
00100000
00000000
01000000
10000000
01000000
00100000
,
10000000
01000000
00010000
00000000
01010000
00000000
00011000
00000000
,
00001000
00000000
00100000
00000000
01000000
00100000
00010000
01000000
,
00000000
10000000
01000000
00000000
00010000
01000000
00100000
00010000
,
00002000
00000000
00003020
00000000
00000031
00000100
00001000
00000100
,
00000010
00001000
00000100
00000010
00000001
00000100
00001000
00000000
,
00011000
00010000
00100000
10000000
,
00100000
00010000
00100000
10000000
,
00100000
00010000
00001000
00000100
,
00000001
00000100
00001000
00000100
,
00000001
00000100
00001000
00010000
,
00100000
10000000
01000000
00010000
,
00001000
00000010
00000001
00000100
,
00001100
00011000
01010000
10010000
,
10000000
01000000
00100000
00010000
,
01000000
00001000
00010000
00011000
,
00000100
00001000
00000010
00000100
,
00000001
00001000
00000010
00000110
,
00000001
00000100
00001000
00010000
,
00100000
10000000
01000000
00100000
,
00010000
00001000
00000100
00000010
,
00000001
00000100
00001000
00010000
00100000
10000000
01000000
00020000
,
00002000
00000000
00000000
00000000
,
00000000
00000000
00000000
00000000
,
00000000
00000000
00000000
00000000
,
00000000
00000000
00000000
00033000
,
00001000
00100000
01000000
10000000
,
00100000
00010000
00001000
00000010
00000002
00000000
00000003
00000000
,
00000100
00001000
00000100
00001000
00010000
00100000
00010000
00100000
,
10000000
00010000
20020000
30030000
,
10000000
00010000
00001000
00010000
,
10000000
00010000
00001000
00010000
,
00001000
00000001
00001000
00010000
,
00001000
00000001
00001000
00010000
,
00001000
00010000
01000000
00000000
00010000
00000000
00001000
00000000
,
00010000
00001000
00000010
00000000
00001000
00000000
00010000
00000000
,
00100000
10000000
00100000
10000000
01000000
00010000
01000000
00010000
,
00001000
00000100
00001000
00000100
00000001
00000010
00000001
00000010
,
00022000
00000000
00000000
00000000
00000000
00000000
00000000
00000000
00000000
00000000
00000000
00000000
00033000
00000000
00000000
00010000
,
00000010
00010000
00000000
00001000
00100000
00001000
00000000
00010000
00000100
00010000
00000000
00001000
02000000
00000000
00000000
00000000
,
00000000
03100000
00020000
00130000
,
20000000
00000000
30100000
00000000
00100000
00010000
00001000
00000000
,
00010000
00001000
00000010
00000000
00000002
00000000
00000103
00000000
,
00002000
00000000
00003100
00000000
00000100
00000010
00000001
00000000
,
00000020
00002030
00023000
00030100
,
00002000
00000000
01003000
00000000
01000000
00010000
00100000
00000000
,
01000000
10000000
00100000
00000000
00020000
00000000
00030010
00000000
,
00002000
00000000
00103000
00000000
00100000
00010000
01000000
00000000
,
00002000
00000000
00023000
00000000
00030100
00000010
00000001
00000000
,
00001000
00000100
00000001
00000000
00001000
00000010
00000001
00000000
,
00001000
00000100
00000010
00000000
00001000
00010000
01000000
00000000
,
00010000
00001000
00000100
00000000
00001000
00010000
00100000
00000000
,
00010000
00001000
00000020
00000000
00000031
00000100
00001000
00000100
,
00001000
00010000
00001000
00010000
01000000
00010000
01000000
00010000
,
01000000
10000000
00100000
00010000
00022000
00033000
00022000
00000000
,
00000000
00000000
00000000
00033000
00000000
00000000
00000000
00000000
00000000
00000000
00000000
00000000
00000000
00000000
00000000
00000000
;
