#TITLE:恋文2000;
#SUBTITLE:;
#ARTIST:Linda AI-CUE;
#TITLETRANSLIT:Koibumi2000;
#SUBTITLETRANSLIT:;
#ARTISTTRANSLIT:;
#GENRE:VARIETY;
#CREDIT:MUINELIM;
#BANNER:Koibumi2000.png;
#BACKGROUND:Koibumi2000-bg.png;
#LYRICSPATH:;
#CDTITLE:;
#MUSIC:Koibumi2000.ogg;
#OFFSET:0.112000;
#SAMPLESTART:20.888000;
#SAMPLELENGTH:11.839996;
#SELECTABLE:YES;
#BPMS:0.000000=200;
#STOPS:
;
#BGCHANGES:;
#KEYSOUNDS:;
#ATTACKS:;

//---------------dance-single - ----------------
#NOTES:
     dance-single:
     :
     Beginner:
     4:
     0.164752,0.243153,0.080648,0.088713,0.000000,143.000000,133.000000,10.000000,11.000000,0.000000,0.000000,0.164752,0.243153,0.080648,0.088713,0.000000,143.000000,133.000000,10.000000,11.000000,0.000000,0.000000:
0000
0000
0000
0000
,
0000
0000
0000
0000
,
0000
0000
0000
0000
,
0000
0000
0000
0000
,
0000
0000
1001
0000
,
0000
0000
0000
0000
,
0000
0000
1001
0000
,
0000
0000
0200
0000
,
0000
0300
0100
0000
,
0000
0000
0001
0000
,
0000
0000
1000
0000
,
0000
0000
0010
0000
,
0000
0000
0100
0000
,
0000
0000
0001
0000
,
0000
0000
1000
0000
,
0000
0000
0010
0000
,
0000
0000
0220
0000
,
0330
0000
1000
0000
,
1000
0000
1000
0000
,
0000
0000
0001
0000
,
0001
0000
0001
0000
,
0000
0000
0100
0000
,
0100
0000
0100
0000
,
0000
0000
0010
0000
,
0010
0000
0010
0000
,
0000
0000
1000
0000
,
1000
0000
1000
0000
,
0000
0000
0010
0000
,
0010
0000
0010
0000
,
0000
0000
0100
0000
,
0100
0000
0100
0000
,
0000
0000
0001
0000
,
0001
0000
0001
0000
,
0000
0000
1001
0000
,
0000
0000
1001
0000
,
0000
0000
1001
0000
,
0000
0000
1001
0000
,
0000
0000
1000
0000
,
1000
0000
0001
0000
,
0001
0000
1000
0000
,
0001
0000
1000
0000
,
0001
0000
1000
0000
,
0000
0000
0100
0000
,
0000
0000
0001
0000
,
0000
0000
0010
0000
,
0000
0000
1000
0000
,
0000
0000
0100
0000
,
0000
0000
0001
0000
,
0000
0000
0010
0000
,
0000
0000
1000
0000
,
0000
0000
0010
0000
,
0000
0000
0001
0000
,
0000
0000
0100
0000
,
0000
0000
1000
0000
,
0000
0000
0010
0000
,
0000
0000
0001
0000
,
0000
0000
0100
0000
,
0000
0000
2000
0000
,
0000
0000
3000
0000
,
0000
0002
0000
0000
,
0000
0003
0000
0000
,
0200
0300
0100
0000
,
0001
0000
0100
0000
,
0001
0000
0100
0000
,
0001
0000
0100
0000
,
0010
0000
1000
0000
,
0010
0000
1000
0000
,
0010
0000
1000
1000
,
1000
0000
0001
0000
,
0100
0000
0000
0000
,
0001
0000
1000
0000
,
0010
0000
0000
0000
,
1000
0000
0001
0000
,
0010
0000
0000
0000
,
0001
0000
1000
0000
,
0100
0000
0000
0000
,
1000
0000
0001
0000
,
1000
0000
0001
0000
,
0010
0000
0100
0000
,
0010
0000
0100
0000
,
0020
0000
0030
0000
,
0001
0000
0001
0000
,
0100
0000
0000
0000
,
1000
0000
1000
0000
,
0010
0000
0000
0000
,
0001
0000
0001
0000
,
0100
0000
0000
0000
,
1000
0000
1000
0000
,
0010
0000
0000
0000
,
0001
0000
0010
0000
,
0100
0000
0100
0000
,
1000
0000
0100
0000
,
0010
0000
0010
0000
,
0001
0000
0100
0000
,
0010
0000
1000
0000
,
0010
0000
0100
0000
,
0001
0000
1000
0000
,
2002
0000
0000
0000
,
3003
0000
0000
2002
,
0000
0000
0000
3003
,
0000
0000
1001
0000
;

//---------------dance-single - ----------------
#NOTES:
     dance-single:
     :
     Hard:
     14:
     0.725830,0.852094,0.419368,0.411304,0.040324,630.000000,578.000000,52.000000,51.000000,0.000000,0.000000,0.725830,0.852094,0.419368,0.411304,0.040324,630.000000,578.000000,52.000000,51.000000,0.000000,0.000000:
0000
0000
0000
0000
,
0000
0000
0000
0000
,
0000
0000
0000
0000
,
0000
0000
0000
0000
,
0000
0000
0000
0000
1001
1001
0000
0000
,
0000
0000
0000
0000
,
0000
0000
0000
0000
0110
0110
0000
0000
,
0000
0000
0000
0000
0010
1000
0100
0010
,
0001
0100
0020
0000
1030
0100
1000
0100
,
1000
0100
1000
0000
0001
0100
0001
0100
,
0001
0100
0001
0000
1000
0010
1000
0010
,
1000
0010
1000
0000
0001
0010
0001
0010
,
0001
0010
0001
0000
0100
0010
0100
0010
,
1000
0001
0100
0000
0010
0100
0010
0100
,
0001
1000
0010
0000
0100
0001
0100
0001
,
0010
0100
1000
0000
0010
1000
0010
1000
,
0100
0010
0001
1000
2002
0000
3003
0000
,
0010
0100
0010
0100
0010
0000
0000
0000
1000
0000
0100
0000
0010
0000
0000
0000
,
0001
0100
0010
0000
1000
0100
0010
0000
,
0001
0100
0010
1000
0001
0010
0100
0000
,
1000
0010
0100
0000
0001
0010
0100
0000
,
1000
0010
0100
0001
1000
0100
0010
0000
,
0001
1000
0100
0000
1000
0001
0010
0000
,
0001
1000
0100
0010
0001
0100
0010
0000
,
1000
0001
0100
0000
0001
1000
0010
0000
,
1000
0001
0010
0100
1000
0010
0100
0010
,
1000
0100
0010
0000
0001
0100
0010
0100
,
0001
0010
0100
0000
1000
0010
0100
0001
,
0100
0010
1000
0000
0001
0100
0010
1000
,
0010
0100
0001
1000
0100
0010
0100
1000
,
0010
0100
0001
0000
0010
0100
0010
0001
,
0100
0010
1000
0000
0001
0010
0100
1000
,
0010
0100
0001
0000
1000
0100
0010
0001
,
1000
0010
1000
0000
0001
0100
0001
0000
1000
0000
0100
0000
0000
0000
0100
0000
,
1000
0000
1010
0000
0001
0010
0000
0010
,
0001
0000
0101
0000
1000
0010
0000
0010
,
1000
0000
1100
0000
0001
0100
0000
0100
,
0001
0000
0011
0000
1000
0100
0010
0100
,
1000
0000
0110
0000
0001
0010
0100
0010
,
0001
0000
0110
0000
1000
0100
0001
0100
,
1000
0000
0101
0000
0001
0010
1000
0010
,
0001
1010
2000
0100
,
0001
0010
0100
0001
,
0010
3100
0002
0010
,
1000
0100
0010
1000
,
0100
0013
0200
0001
,
0010
1000
0001
0010
,
1000
0301
0020
1000
,
0100
0001
1000
0100
,
0001
1030
0002
0103
,
2000
3010
0200
0301
,
0020
1030
0002
0013
,
2000
3100
0020
0031
,
0200
0000
1300
0000
0001
1000
0020
0000
,
1030
0001
0200
0000
0310
1000
0002
0000
,
0103
0001
2000
0000
3010
1000
0200
0000
,
0310
0001
0200
0000
0310
1000
0100
0010
,
0001
0010
0100
1000
1010
1010
0000
0001
,
0000
0101
0000
1000
0000
1100
1000
0100
,
0010
0000
0011
0011
0000
1000
0000
1100
,
0000
0001
0000
0101
0100
0010
1000
0000
,
1001
0002
0000
0203
0000
0320
0000
2030
,
0000
3100
0010
0001
0200
0000
0310
0020
,
0000
2030
0000
3002
0000
0023
0000
0130
,
1000
0010
0100
0000
0110
0020
0000
2030
,
0000
3002
0000
0203
0000
0310
1000
0100
,
0020
0000
0031
0002
0000
0203
0000
2300
,
0000
3020
0000
0031
0100
0010
1000
0001
,
1001
0010
0001
0010
1000
0010
0001
0010
,
1000
0010
0001
0010
1000
0010
0001
0010
,
1000
0100
0001
0100
1000
0010
0001
0010
,
2000
0000
0000
0000
0000
3100
0010
0001
,
0201
0000
1300
0100
0020
0000
0031
0010
,
0200
0000
1300
0100
0020
0000
0130
0100
,
0001
0010
0100
0001
0100
0010
1000
0010
,
0100
1000
0010
0100
0010
0020
0030
0000
,
0102
1003
2100
3001
,
0012
1003
2100
3001
,
0101
0011
1010
1100
,
1001
0010
0100
1000
0001
0010
0100
1000
,
2002
0000
3003
1001
,
1000
0010
0100
0000
1000
0100
0010
0000
,
1000
0010
0100
1000
0100
0010
1000
0000
,
0001
0100
0010
0000
0001
0010
0100
0000
,
0001
0100
0010
0001
0010
0100
0001
0000
,
1000
0010
0001
0000
1000
0100
0001
0000
,
1000
0010
0001
0010
0100
0001
0010
0000
,
0001
0100
1000
0000
0001
0010
1000
0000
,
0001
0100
1000
0100
0010
1000
0100
0010
,
0011
0001
0100
0001
0100
0010
1000
0100
,
1100
1000
0010
1000
0100
0010
0001
0100
,
0101
0001
0010
0001
0010
0100
1000
0010
,
1010
1000
0100
1000
0010
0100
0001
0010
,
0100
1000
0100
0000
1000
0100
1000
0000
0100
0000
0010
0000
0001
0000
1000
0000
,
0010
0100
0010
0000
0100
0010
0100
0000
0001
0000
1000
0000
0100
0000
0010
0000
,
0001
0100
0001
0000
0100
0001
0100
0000
0010
0000
1000
0000
0001
0000
0010
0000
,
0100
1000
0010
0001
1000
0100
0001
0010
,
0110
0110
0000
1100
0000
0011
0000
1001
,
0000
1000
0010
0001
0100
0000
1001
1001
,
0000
0101
0000
1010
0000
1100
0000
0100
,
0001
0010
1000
0000
1001
0110
0000
0000
;

//---------------dance-double - ----------------
#NOTES:
     dance-double:
     :
     Hard:
     14:
     0.698179,0.770942,0.370980,0.411304,0.008065,606.000000,560.000000,46.000000,51.000000,0.000000,0.000000,0.698179,0.770942,0.370980,0.411304,0.008065,606.000000,560.000000,46.000000,51.000000,0.000000,0.000000:
00000000
00000000
00000000
00000000
,
00000000
00000000
00000000
00000000
,
00000000
00000000
00000000
00000000
,
00000000
00000000
00000000
00000000
,
00000000
00000000
00000000
00000000
01001000
01001000
00000000
00000000
,
00000000
00000000
00000000
00000000
,
00000000
00000000
00000000
00000000
00010100
00010100
00000000
00000000
,
00000000
00000000
00000000
00000000
00000100
00001000
00000010
00010000
,
00001000
01000000
00020000
00000000
10030000
01000000
10000000
00000000
,
00010000
01000000
00010000
00000000
10000000
01000000
10000000
00000000
,
00010000
01000000
00010000
00000000
00001000
00000100
00001000
00000000
,
00000001
00000100
00000001
00000000
00001000
00000100
00001000
00000000
,
00000001
00000100
00000001
00000000
00000001
00000010
00000001
00000000
,
00001000
00000010
00001000
00000000
00000001
00000010
00000001
00000000
,
00001000
00000010
00001000
00000000
00010000
00100000
00010000
00000000
,
10000000
00100000
10000000
00000000
00010000
00100000
00010000
10000000
,
00100000
10000000
00010000
01000000
02200000
00000000
03300000
00000000
,
00010000
10000000
00010000
10000000
00010000
00000000
00000000
00000000
01000000
00000000
00001000
00000000
00010000
00000000
00000000
00000000
,
00001000
01000000
00010000
00000000
01000000
00001000
00010000
00000000
,
00001000
01000000
00010000
01000000
00001000
00010000
00000100
00000000
,
00001000
00000100
00010000
00000000
00001000
00010000
00000100
00000000
,
00001000
00000100
00010000
00001000
00010000
00000100
00001000
00000000
,
00000100
00000010
00000001
00000000
00001000
00000100
00000010
00000000
,
00000100
00000010
00000001
00001000
00000010
00000100
00000001
00000000
,
00001000
00000010
00010000
00000000
00001000
01000000
00010000
00000000
,
10000000
01000000
00100000
00010000
01000000
00100000
10000000
00100000
,
01000000
00010000
01000000
00000000
00001000
00010000
00000100
00010000
,
00001000
01000000
00001000
00000000
00010000
00000100
00001000
00000100
,
00000010
00000001
00000010
00000000
00000001
00001000
00000010
00001000
,
00000001
00000100
00000001
00001000
00000100
00000010
00000001
00001000
,
00000100
00010000
00001000
00000000
00100000
00010000
10000000
01000000
,
00100000
00010000
10000000
00000000
00100000
01000000
00001000
00010000
,
00000100
00001000
00000001
00000000
00000100
00000010
00010000
00001000
,
00100000
00100000
00010000
00010000
10000000
01000000
00000000
01000000
,
00010000
00000000
00011000
00000000
00001000
00000010
00000000
00000010
,
00000001
00000000
00000101
00000000
00000100
00001000
00000000
00001000
,
00010000
00000000
00110000
00000000
00100000
10000000
00000000
10000000
,
01000000
00000000
01010000
00000000
00010000
00001000
00000010
00000001
,
00000100
00000000
00001100
00000000
00001000
00010000
01000000
10000000
,
00100000
00000000
00110000
00000000
00010000
00001000
00000100
00000001
,
00000010
00000000
00001010
00000000
00001000
00010000
00100000
10000000
,
01000000
01010000
00020000
00001000
,
00000010
00001000
00000100
00001000
,
01000000
00031000
00002000
00010000
,
00100000
00010000
01000000
00010000
,
00000100
00013000
02000000
10000000
,
00100000
00010000
00001000
00100000
,
00010000
03001000
00000020
00000001
,
00000100
00001000
00010000
00000100
,
00001000
00010030
00200000
00301000
,
00000200
00010300
02000000
03001000
,
00000020
00010030
00002000
00103000
,
00020000
00030100
00002000
01003000
,
00020000
00000000
00030010
00000000
00010000
00001000
00100000
00000000
,
00001000
00010000
00000010
00000000
00010000
00001000
01000000
00000000
,
00001000
00010000
00000100
00000000
00010000
00001000
00000010
00000000
,
00001000
00010000
00100000
00000000
00010000
00001000
00000100
00000000
,
00001000
00010000
01000000
10000000
10100000
10100000
00000000
00010000
,
00000000
00011000
00000000
00000100
00000000
00000101
00000001
00001000
,
00000001
00000000
00000011
00000011
00000000
00001000
00000000
00011000
,
00000000
01000000
00000000
11000000
10000000
00010000
10000000
00000000
,
01100000
20000000
00000000
32000000
00000000
03200000
00000000
00302000
,
00000000
00013000
00001000
00010000
00000200
00000000
00000310
00000020
,
00000000
00000032
00000000
00000203
00000000
00002300
00000000
00013000
,
00001000
00010000
00000010
00000000
00000110
00002000
00000000
00003002
,
00000000
00000203
00000000
00002300
00000000
00013000
00001000
00010000
,
00200000
00000000
10300000
20000000
00000000
32000000
00000000
03200000
,
00000000
00320000
00000000
01030000
00001000
00010000
00000100
00001000
,
00001001
00000001
00000100
00001000
00000100
00000001
00000100
00001000
,
00010000
00100000
10000000
00100000
00010000
00100000
10000000
01000000
,
00010000
00001000
00000010
00000001
00000100
00001000
00010000
00100000
,
20000000
00000000
00000000
00000000
00000000
31000000
00100000
00010000
,
02010000
03001000
00021000
00030100
,
00000120
00000000
00000031
00000000
00000201
00000000
00001300
00001000
,
00010000
00100000
00010000
00001000
00000010
00001000
00010000
01000000
,
00010000
00001000
00000100
00001000
00010000
00200000
00300000
00000000
,
20100000
31000000
01020000
00031000
,
00001020
00000031
00000201
00001300
,
00001000
00010000
00100000
01000000
00001000
00010000
00000010
00000100
,
00001000
00010000
00100000
01000000
00001000
00010000
00000010
00000100
,
00000220
00000000
00000330
00001001
,
00000001
00000100
00000001
00000000
00001000
00000100
00001000
00000000
,
00010000
00100000
00010000
00100000
00010000
00100000
00010000
00000000
,
10000000
01000000
10000000
00000000
00010000
01000000
00010000
00000000
,
00001000
00000010
00001000
00000010
00001000
00000010
00001000
00000000
,
00000001
00000100
00000010
00000000
00000100
00000010
00001000
00000000
,
00010000
01000000
00100000
10000000
00100000
01000000
00010000
00000000
,
10000000
01000000
00100000
00000000
01000000
00100000
00010000
00000000
,
00001000
00000100
00000010
00000001
00000010
00000100
00001000
00000000
,
00000101
00000001
00001000
00000100
00010000
01000000
10000000
00000000
,
10100000
10000000
00010000
00100000
00001000
00000010
00000001
00000000
,
00001100
00001000
00000001
00000100
00001000
01000000
00010000
00000000
,
00110000
00010000
10000000
01000000
00010000
00000100
00001000
00000000
,
00000002
00000103
00002000
00003100
00000001
00000010
00000100
00010000
,
00002000
00103000
00020000
00030010
00001000
00010000
00100000
01000000
,
00020000
00130000
20000000
30100000
00010000
01000000
00100000
10000000
,
01000000
00010000
00001000
00000010
00000001
00000100
00001000
00010000
,
00010010
00010010
00000000
00001000
00000000
00101000
00000000
00010000
,
00000000
00001000
00000100
00000001
00000010
00001000
00101000
00101000
,
00000000
00010000
00000000
00010010
00000000
00001000
00000000
00010000
,
01000000
10000000
00100000
00010000
00011000
00011000
00000000
00000000
;

//---------------dance-single - ----------------
#NOTES:
     dance-single:
     :
     Easy:
     8:
     0.308766,0.445780,0.161296,0.112907,0.000000,268.000000,248.000000,20.000000,14.000000,0.000000,0.000000,0.308766,0.445780,0.161296,0.112907,0.000000,268.000000,248.000000,20.000000,14.000000,0.000000,0.000000:
0000
0000
0000
0000
,
0000
0000
0000
0000
,
0000
0000
0000
0000
,
0000
0000
0000
0000
,
0000
0000
1001
0000
,
0000
0000
0000
0000
,
0000
0000
1001
0000
,
0000
0000
0200
0300
,
0100
0100
0001
1000
,
0100
0000
1000
0001
,
0100
0000
0001
1000
,
0100
0000
1000
0001
,
0100
0001
1000
0001
,
0010
0000
0001
1000
,
0010
0000
1000
0001
,
0010
0000
0001
1000
,
0010
1000
0001
1000
,
0100
1001
0001
0000
,
0001
0000
0100
0000
,
0100
0000
1000
0000
,
1000
0000
0010
0000
,
0010
0000
0001
0000
,
0100
0000
1000
0000
,
0010
0000
0001
0000
,
0100
0000
1000
0000
,
0010
0000
0001
0010
,
0001
0000
0100
0001
,
0100
0000
0010
1000
,
0010
0000
1000
0100
,
1000
0000
0001
1000
,
0001
0000
0100
0010
,
0100
0000
0001
1000
,
0001
0000
0100
0010
,
0100
0001
1001
0000
,
0010
0010
2000
3000
,
0010
0010
0002
0003
,
0100
0100
2000
3000
,
0100
0100
0002
0003
,
0010
0100
2000
3000
,
0100
0010
0002
0003
,
0100
0010
0200
0300
,
0010
0100
0110
0000
,
0000
0000
1000
1000
,
0000
0000
0110
0000
,
0000
0000
0001
0001
,
0000
0000
0110
0000
,
0000
1000
0010
0001
,
0000
0000
0110
0000
,
0000
0001
0100
1000
,
0000
0000
1001
0000
,
0010
0010
0001
0100
,
0000
0000
1001
0000
,
0100
0100
1000
0010
,
0000
0000
1001
0000
,
0001
0100
0100
1000
,
0000
0000
1001
0000
,
1000
0010
0010
0001
,
0000
0110
2000
0000
,
0000
0000
0000
0000
,
3000
0002
0000
0000
,
0000
0000
0000
0003
,
1000
0000
0001
0000
,
0100
0000
0010
0000
,
1000
0000
0001
0000
,
0100
0000
0010
0000
,
1000
1000
0100
0000
,
0001
0001
0010
0000
,
2000
3000
0002
0003
,
1000
0010
0100
0000
,
0001
0100
0010
0000
,
1000
0010
0100
0001
,
2000
0000
3000
0001
,
0001
0010
0100
0000
,
1000
0100
0010
0000
,
0001
0010
0100
1000
,
0010
0100
0010
0010
,
1000
0000
0100
0000
,
0001
0000
0010
0000
,
1000
0100
0001
0010
,
1000
0100
0001
0010
,
0200
0000
0000
0310
,
0010
0000
1000
0000
,
0010
0000
1000
0000
,
0100
0000
0001
0000
,
0100
0000
0001
0000
,
0010
0000
1000
0000
,
0100
0000
0001
0000
,
0010
0000
1000
0000
,
0100
0000
0001
0000
,
0010
1000
0100
0000
,
0010
1000
0100
0000
,
0010
0001
0100
0000
,
0010
0001
0100
0000
,
0001
1000
0100
1000
,
0001
0010
0001
1000
,
0010
0100
0001
1000
,
0010
0001
0100
1000
,
1001
0000
1001
0000
,
1001
0100
0010
0110
,
0000
0110
0000
0110
,
0001
1000
1001
0000
;

//---------------dance-double - ----------------
#NOTES:
     dance-double:
     :
     Easy:
     9:
     0.307614,0.405255,0.129036,0.056453,0.000000,267.000000,251.000000,16.000000,7.000000,0.000000,0.000000,0.307614,0.405255,0.129036,0.056453,0.000000,267.000000,251.000000,16.000000,7.000000,0.000000,0.000000:
00000000
00000000
00000000
00000000
,
00000000
00000000
00000000
00000000
,
00000000
00000000
00000000
00000000
,
00000000
00000000
00000000
00000000
,
00000000
00000000
00011000
00000000
,
00000000
00000000
00000000
00000000
,
00000000
00000000
00011000
00000000
,
00000000
00000000
02000000
03000000
,
00001000
00010000
00000100
00001000
,
00000001
00000000
00000100
00000001
,
00001000
00000000
00000100
00001000
,
00000001
00000000
00000100
00000001
,
00001000
00000100
00010000
00001000
,
01000000
00000000
00001000
00010000
,
00000100
00000000
00010000
00001000
,
01000000
00000000
00001000
00010000
,
00000100
00010000
00001000
01000000
,
00001000
00011000
00100000
00000000
,
00100000
00000000
10000000
00000000
,
10000000
00000000
01000000
00000000
,
01000000
00000000
00010000
00000000
,
00010000
00000000
00001000
00000000
,
00000010
00000000
00000001
00000000
,
00000100
00000000
00001000
00000000
,
00010000
00000000
00100000
00000000
,
10000000
00000000
01000000
00100000
,
01000000
00000000
00010000
00001000
,
00010000
00000000
00001000
00010000
,
00001000
00000000
00000010
00000100
,
00000010
00000000
00000001
00000100
,
00001000
00000000
00010000
01000000
,
10000000
00000000
10000000
00100000
,
00010000
00000000
00001000
00000010
,
00000001
00001000
00001001
00000000
,
00000001
00000100
00000001
00000000
,
00001000
00000100
00001000
00000000
,
00010000
01000000
00010000
00000000
,
10000000
01000000
10000000
00000000
,
10000000
00100000
10000000
00000000
,
00010000
00100000
00010000
00000000
,
00001000
00000010
00001000
00000000
,
00000001
00000010
00000001
00000000
,
00000100
00000000
00001000
00001000
,
00001000
00000000
00000100
00000000
,
00001000
00000000
00010000
00010000
,
00010000
00000000
00001000
00000000
,
00010000
00000000
00100000
00100000
,
00100000
00000000
00010000
00000000
,
00100000
00000000
10000000
10000000
,
10000000
00000000
01000000
00000000
,
00010000
00001000
00010000
00011000
,
00000000
00000000
00000010
00000000
,
00001000
00010000
00001000
00011000
,
00000000
00000000
00100000
00000000
,
00001000
00010000
00001000
00011000
,
00000000
00000000
00000100
00000000
,
00010000
00001000
00010000
00011000
,
00000000
00011000
02000000
00000000
,
00000000
00000000
03000000
00000000
,
00000000
00000200
00000000
00000000
,
00000000
00000300
00000000
00000000
,
00010000
00000000
00001000
00000000
,
00000010
00000000
00000001
00000000
,
00000100
00000000
00001000
00000000
,
00010000
00000000
00100000
00000000
,
10000000
00000000
01000000
00000000
,
00010000
00000000
00001000
00000000
,
00022000
00000000
00000000
00033000
,
00001000
00010000
01000000
00000000
,
00010000
00001000
00000010
00000000
,
00001000
00010000
00100000
10000000
,
02000000
00000000
03000000
00010000
,
00010000
00001000
00000100
00000000
,
00001000
00010000
00100000
00000000
,
00010000
00001000
00000010
00000001
,
00000100
00001000
00010000
00001000
,
00011000
00000000
01000000
00000000
,
00001000
00000000
00010000
00000000
,
00000010
00001000
00000100
00010000
,
00001000
00100000
00010000
01000000
,
00200000
00000000
00000000
10300000
,
10000000
00000000
01000000
00000000
,
00100000
00000000
00010000
00000000
,
00001000
00000000
00000100
00000000
,
00000010
00000000
00000001
00000000
,
00000100
00000000
00000010
00000000
,
00001000
00000000
00010000
00000000
,
01000000
00000000
00100000
00000000
,
10000000
00000000
01000000
00000000
,
00010000
00001000
00100000
00000000
,
00001000
00010000
00000010
00000000
,
00010000
00001000
01000000
00000000
,
00001000
00010000
00000100
00000000
,
00010000
00001000
00000010
00001000
,
00010000
01000000
00010000
00001000
,
00000100
00001000
00010000
00100000
,
00010000
00001000
00000010
00000001
,
00001001
00000000
00000110
00000000
,
00001000
00010000
00100000
01100000
,
00000000
10010000
00000000
01000000
,
00100000
00010000
00011000
00000000
;

//---------------dance-single - ----------------
#NOTES:
     dance-single:
     :
     Medium:
     11:
     0.591033,0.649214,0.322591,0.201619,0.000000,513.000000,473.000000,40.000000,25.000000,0.000000,0.000000,0.591033,0.649214,0.322591,0.201619,0.000000,513.000000,473.000000,40.000000,25.000000,0.000000,0.000000:
0000
0000
0000
0000
,
0000
0000
0000
0000
,
0000
0000
0000
0000
,
0000
0000
0000
0000
,
0000
0000
0000
0000
1000
1000
0000
0000
,
0000
0000
0000
0000
,
0000
0000
0000
0000
0001
0001
0000
0000
,
0000
0000
0000
0000
0100
0010
0100
0000
,
0010
0100
0020
0000
1030
0000
1000
0000
,
0010
0010
1000
0100
,
1000
1100
0001
0001
,
0100
0100
0001
0010
,
0001
0011
1000
0100
,
1000
1010
0001
0010
,
0001
0101
1000
0110
,
0001
0000
0110
0000
1000
0001
1000
0001
,
1000
0001
1000
0000
2002
0000
3003
0000
,
0010
0100
0010
0000
1000
0100
0010
0000
,
0001
0000
0010
0000
0001
0100
0010
0000
,
1000
0000
0010
0000
1000
0010
0100
0000
,
0001
0000
0100
0000
0001
0010
0100
0000
,
1000
0000
0100
0000
1000
0001
0100
0000
,
0001
0000
0100
0000
0001
1000
0010
0000
,
1000
0000
0010
0000
1000
0001
0010
0000
,
0001
0000
0010
0000
0001
1000
0100
0000
,
1000
0000
0100
0000
1000
0010
1000
0000
,
0001
0010
0001
0000
1000
0010
1000
0000
,
0001
0000
0010
0000
0001
0100
0001
0000
,
1000
0100
1000
0000
0001
0100
0001
0000
,
1000
0000
0100
0000
1000
0010
1000
0000
,
0010
0100
0010
0000
0100
0001
0100
0000
,
0001
0000
1000
0000
0001
0010
0001
0000
,
0010
0100
0010
0000
0100
1000
0100
0000
,
1000
0000
0001
0000
0100
0010
0000
0100
,
0010
0000
1000
0000
0010
0100
0000
0010
,
0100
0000
0001
0000
0100
0010
0000
1000
,
0010
0000
0001
0000
0010
0100
0000
0001
,
0100
0000
1000
0000
0100
0001
0000
0010
,
0001
0000
1000
0000
0010
1000
0000
0100
,
1000
0000
0001
0000
0100
0001
0000
0010
,
1000
0000
0001
0000
0100
1000
0000
0010
,
0001
0000
1000
0000
0010
0100
0001
0000
,
0100
0010
1000
0100
,
0010
0000
0011
0000
0100
0010
1000
0000
,
0010
0100
0001
0010
,
0100
0000
1100
0000
0010
0001
1000
0000
,
0001
0100
0010
1000
,
0001
0000
0101
0000
0100
1000
0001
0000
,
1000
0010
0100
0001
,
1000
1010
0020
0130
,
2000
0000
3001
0000
0001
0100
0010
0000
,
1000
0010
0100
0000
0002
0000
1003
0000
,
0200
0000
0310
0000
0010
1000
0100
0000
,
0010
0001
0100
0000
0002
0000
0010
0000
,
1000
0103
2000
0010
,
0001
0000
3100
0000
0100
0010
0001
0000
,
1000
0100
0010
0000
0001
0100
0001
0100
,
0010
1000
0010
1000
0001
0001
0000
0010
,
0000
0100
0000
1000
0000
0010
0100
0001
,
0100
0000
0010
0010
0000
1000
0000
0100
,
0000
0010
0000
0001
0100
0001
1000
0000
,
0100
0100
0000
1000
0000
0110
0000
0001
,
0000
0010
0001
0000
1001
0000
0010
0010
,
0000
0001
0000
0110
0000
1000
0000
0100
,
1000
0000
1001
0000
0001
0001
0000
0010
,
0000
1001
0000
0100
0000
1000
0001
0000
,
1001
0000
1000
1000
0000
0010
0000
1001
,
0000
0100
0001
0100
0010
1000
0010
0100
,
0001
0010
0001
0000
0010
1000
0010
0000
,
1000
0100
1000
0000
0100
0001
0100
0000
,
0001
0010
0100
0010
0100
1000
0100
0000
,
0220
0000
0000
0330
0000
0001
0100
0001
,
2000
0000
0000
3010
0100
0000
0000
0000
,
0002
0000
0000
0103
0010
0000
2000
0000
,
3001
0100
0010
0000
1000
0010
0100
0000
,
0001
0100
0010
1000
0100
0100
0000
0000
,
0002
0023
0230
2300
,
3002
0203
0320
2030
,
3001
0010
0100
0000
1000
0100
0010
0000
,
0001
0100
0010
1000
0100
0010
0001
0000
,
2002
0000
0000
3003
,
1100
0001
0101
1000
,
1100
0001
0101
1000
,
0011
1000
1010
0001
,
0011
1000
1010
0001
,
0110
1000
0110
0001
,
0110
1000
0110
0001
,
1001
0100
1001
0010
,
1001
0100
1001
0010
,
1000
0100
0010
0000
0001
0100
1000
0000
,
1000
0100
0010
0000
0001
0100
1000
0000
,
1000
0010
0001
0000
0001
0010
0100
0000
,
1000
0010
0001
0000
0001
0010
0100
0000
,
1000
0010
0100
0001
1000
0010
0100
0000
,
0001
0010
0100
1000
0001
0010
0100
0000
,
1000
0010
0100
0001
1000
0100
0010
0001
,
0100
0100
0010
0010
1000
0001
0200
0000
,
0310
0010
0000
1000
0000
1100
0000
0001
,
0000
0010
0100
1000
0001
0000
0010
0010
,
0000
0001
0000
0101
0000
1000
0000
0010
,
0100
0001
1000
0000
1001
1001
0000
0000
;

//---------------dance-double - ----------------
#NOTES:
     dance-double:
     :
     Medium:
     11:
     0.578360,0.649214,0.330656,0.290332,0.000000,502.000000,461.000000,41.000000,36.000000,0.000000,0.000000,0.578360,0.649214,0.330656,0.290332,0.000000,502.000000,461.000000,41.000000,36.000000,0.000000,0.000000:
// measure 0
00000000
00000000
00000000
00000000
,  // measure 1
00000000
00000000
00000000
00000000
,  // measure 2
00000000
00000000
00000000
00000000
,  // measure 3
00000000
00000000
00000000
00000000
,  // measure 4
00000000
00000000
00000000
00000000
00001000
00001000
00000000
00000000
,  // measure 5
00000000
00000000
00000000
00000000
,  // measure 6
00000000
00000000
00000000
00000000
00010000
00010000
00000000
00000000
,  // measure 7
00000000
00000000
00000000
00000000
00001000
01000000
00001000
00000000
,  // measure 8
00010000
00000010
00020000
00000000
00031000
00000000
00001000
00000000
,  // measure 9
00010000
00010000
00000100
00001000
,  // measure 10
00000010
00010010
00010000
00010000
,  // measure 11
00001000
00001000
00100000
00010000
,  // measure 12
01000000
01001000
00001000
00010000
,  // measure 13
00000100
00010100
00010000
00001000
,  // measure 14
00100000
00101000
00000010
00011000
,  // measure 15
01000000
00000000
00011000
00000000
00001000
00010000
00001000
00010000
,  // measure 16
00001000
00010000
00001000
00000000
00022000
00000000
00033000
00000000
,  // measure 17
00010000
00001000
00010000
00000000
00000100
00001000
00000100
00000000
,  // measure 18
00000010
00000000
00000100
00000000
00000010
00000001
00000010
00000000
,  // measure 19
00000100
00000000
00000010
00000000
00000100
00010000
00000100
00000000
,  // measure 20
00010000
00000000
00001000
00000000
00100000
00001000
00100000
00000000
,  // measure 21
01000000
00000000
00100000
00000000
01000000
10000000
01000000
00000000
,  // measure 22
00100000
00000000
01000000
00000000
00100000
00010000
00100000
00000000
,  // measure 23
00001000
00000000
01000000
00000000
00001000
01000000
00001000
00000000
,  // measure 24
00010000
00000000
00000010
00000000
00010000
00000010
00010000
00000000
,  // measure 25
00001000
00000000
00010000
00000000
00100000
10000000
00100000
00000000
,  // measure 26
00010000
00000000
00100000
00000000
10000000
00100000
10000000
00000000
,  // measure 27
00100000
00000000
00010000
00000000
00001000
00000010
00001000
00000000
,  // measure 28
00000010
00000000
00000001
00000000
00000010
00001000
00000010
00000000
,  // measure 29
00000001
00000000
00000100
00000000
00001000
00000100
00001000
00000000
,  // measure 30
00000100
00000000
00000001
00000000
00000100
00001000
00000100
00000000
,  // measure 31
00001000
00000000
00010000
00000000
01000000
10000000
01000000
00000000
,  // measure 32
00010000
00000000
01000000
00000000
10000000
01000000
10000000
00000000
,  // measure 33
01000000
00000000
00010000
00000000
00001000
00010000
00000000
00001000
,  // measure 34
00010000
00000000
00000010
00000000
00010000
00001000
00000000
00010000
,  // measure 35
00001000
00000000
01000000
00000000
00001000
00010000
00000000
00001000
,  // measure 36
00000010
00000000
00001000
00000000
00010000
00001000
00000000
00010000
,  // measure 37
00100000
00000000
00010000
00000000
00001000
01000000
00000000
00001000
,  // measure 38
00010000
00000000
00001000
00000000
00010000
00000010
00000000
00010000
,  // measure 39
00001000
00000000
00010000
00000000
01000000
00010000
00000000
00001000
,  // measure 40
00010000
00000000
00001000
00000000
00000010
00001000
00000000
00010000
,  // measure 41
00001000
00000000
00010000
00000000
00100000
10000000
01000000
00000000
,  // measure 42
00010000
00001000
00000100
00000001
,  // measure 43
00000010
00000000
00000011
00000000
00000010
00000001
00000100
00000000
,  // measure 44
00001000
00010000
00100000
10000000
,  // measure 45
01000000
00000000
11000000
00000000
01000000
10000000
00010000
00000000
,  // measure 46
01000000
00001000
00010000
00000010
,  // measure 47
00000100
00000000
00000101
00000000
00000100
00000001
00001000
00000000
,  // measure 48
00000010
00010000
00001000
01000000
,  // measure 49
00100000
10100000
20000000
32000000
,  // measure 50
03020000
00000000
00031000
00000000
00001000
01000000
00001000
00000000
,  // measure 51
00010000
00000100
00010000
00000000
00002000
00000000
00003020
00000000
,  // measure 52
00000032
00000000
00001003
00000000
00001000
00000010
00001000
00000000
,  // measure 53
00000001
00000010
00000001
00000000
00000200
00000000
00002300
00000000
,  // measure 54
00023000
00230000
00320000
00032000
,  // measure 55
00003020
00002030
00023000
02030000
,  // measure 56
13000000
01000000
00100000
00000000
01000000
00010000
00001000
00000000
,  // measure 57
00010000
00000100
00001000
00000100
00000010
00000010
00000000
00000001
,  // measure 58
00000000
00000100
00000000
00001000
00000000
00010000
00001000
00010000
,  // measure 59
00100000
00000000
10000000
10000000
00000000
01000000
00000000
00010000
,  // measure 60
00000000
00001000
00000000
00100000
00010000
00100000
01000000
00000000
,  // measure 61
00010000
00010000
00000000
00001000
00000000
00011000
00000000
00000100
,  // measure 62
00000000
00001000
00000001
00000000
00001001
00000000
00000010
00000010
,  // measure 63
00000000
00010000
00000000
00011000
00000000
00001000
00000000
00100000
,  // measure 64
01000000
00000000
01100000
00000000
10000000
10000000
00000000
00100000
,  // measure 65
00000000
00110000
00000000
00010000
00000000
00001000
00001000
00000000
,  // measure 66
01001000
00000000
00010000
00010000
00000000
00001000
00000000
00001100
,  // measure 67
00000000
00000100
00000001
00000100
00000010
00001000
00000010
00000100
,  // measure 68
00000001
00000010
00001000
00000000
00000010
00001000
00010000
00000000
,  // measure 69
00001000
00010000
00100000
00000000
00010000
00100000
10000000
00000000
,  // measure 70
10000000
01000000
00010000
00001000
00010000
00001000
00000010
00000000
,  // measure 71
00000220
00000000
00000000
00000330
00000000
00000001
00001000
00000001
,  // measure 72
00000200
00000000
00000000
00001300
00010000
00000000
00000000
00000000
,  // measure 73
02000000
00000000
00000000
03010000
00001000
00000000
00020000
00000000
,  // measure 74
00031000
00010000
00000010
00000000
00010000
00001000
01000000
00000000
,  // measure 75
00001000
00010000
00100000
01000000
00010000
00010000
00000000
00000000
,  // measure 76
20000000
32000000
03020000
00032000
,  // measure 77
00003020
00000032
00002003
00003200
,  // measure 78
00000310
00000001
00000100
00000000
00000100
00001000
00010000
00000000
,  // measure 79
00010000
00100000
00010000
00001000
00010000
00100000
10000000
00000000
,  // measure 80
20020000
00000000
00000000
30030000
,  // measure 81
01010000
00001000
00011000
01000000
,  // measure 82
01010000
00001000
00011000
00000000
,  // measure 83
00001100
00010000
00011000
00000100
,  // measure 84
00001100
00010000
00011000
00000000
,  // measure 85
00110000
00001000
00010100
00100000
,  // measure 86
00110000
00001000
00010100
00000000
,  // measure 87
00001010
00010000
01001000
00000010
,  // measure 88
00001010
00010000
01001000
00000000
,  // measure 89
10000000
01000000
00010000
00000000
00010000
01000000
10000000
00000000
,  // measure 90
10000000
01000000
00010000
00000000
00010000
00001000
00000010
00000000
,  // measure 91
00000001
00000100
00001000
00000000
00001000
00000100
00000001
00000000
,  // measure 92
00000001
00000100
00001000
00000000
00001000
00010000
00100000
00000000
,  // measure 93
10000000
01000000
00100000
00010000
00100000
00001000
00010000
00000000
,  // measure 94
00001000
00010000
00000100
00001000
00000100
00000010
00000001
00000000
,  // measure 95
00001000
00000010
00010000
00001000
00100000
00010000
01000000
00001000
,  // measure 96
00020000
00000000
00032000
00000000
00013000
00001000
00011000
00000000
,  // measure 97
00000100
00000100
00000000
00000010
00000000
00001001
00000000
00000001
,  // measure 98
00000000
00000100
00001000
00010000
00100000
00000000
01000000
01000000
,  // measure 99
00000000
00100000
00000000
10010000
00000000
10000000
00000000
00100000
,  // measure 100
00010000
00001000
00000100
00000000
00000110
00000110
00000000
00000000
;
