#VERSION:0.83;
#TITLE:Knight Rider;
#SUBTITLE:;
#ARTIST:USAO;
#TITLETRANSLIT:;
#SUBTITLETRANSLIT:;
#ARTISTTRANSLIT:;
#GENRE:VARIETY;
#ORIGIN:;
#CREDIT:MUINELIM;
#BANNER:Knight Rider.png;
#BACKGROUND:Knight Rider-bg.png;
#PREVIEWVID:;
#JACKET:Knight Rider-jacket.png;
#CDIMAGE:;
#DISCIMAGE:;
#LYRICSPATH:;
#CDTITLE:;
#MUSIC:Knight Rider.ogg;
#OFFSET:-0.075000;
#SAMPLESTART:90.055008;
#SAMPLELENGTH:12.000000;
#SELECTABLE:YES;
#DISPLAYBPM:100.000000:200.000000;
#BPMS:0.000=200.000,
106.000=100.000,
122.000=400.000,
123.000=200.000,
218.000=100.000,
234.000=200.000,
329.000=400.000,
331.000=200.000;
#STOPS:40.000=0.600,
122.000=0.150,
262.000=0.300;
#DELAYS:;
#WARPS:;
#TIMESIGNATURES:0.000=4=4;
#TICKCOUNTS:0.000=4;
#COMBOS:0.000=1;
#SPEEDS:0.000=1.000=0.000=0;
#SCROLLS:0.000=1.000;
#FAKES:;
#LABELS:0.000=Song Start;
#BGCHANGES:;
#KEYSOUNDS:;
#ATTACKS:
;

//---------------dance-single - ----------------
#NOTEDATA:;
#CHARTNAME:;
#STEPSTYPE:dance-single;
#DESCRIPTION:;
#CHARTSTYLE:;
#DIFFICULTY:Hard;
#METER:16;
#RADARVALUES:0.829835,1.342775,0.386247,0.393820,0.443048,767.000000,716.000000,51.000000,52.000000,0.000000,0.000000,0.000000,0.000000,0.000000,0.829835,1.342775,0.386247,0.393820,0.443048,767.000000,716.000000,51.000000,52.000000,0.000000,0.000000,0.000000,0.000000,0.000000;
#CREDIT:MILEN;
#NOTES:
0000
0000
0000
0000
,
0000
0000
0000
0000
,
0000
0000
0000
0000
,
2020
0000
0000
3030
,
0202
0000
0000
0303
,
0022
0000
0000
0033
,
2200
0000
3300
1001
,
0120
1030
0210
0301
,
0021
0130
1200
0310
,
0010
0000
0001
0000
0010
0000
0100
0000
1000
0000
0010
0000
0100
0001
0100
0001
,
2000
3000
0010
0010
0110
0100
0001
0010
,
0100
1000
0010
0000
0100
0010
1000
0100
,
0010
0001
0100
0000
0010
1000
0001
0010
,
0100
1000
0010
0000
0100
0001
1000
0100
,
0010
0000
0001
0000
0100
0010
0100
0010
1000
0000
0001
0000
0010
0000
0100
0000
,
0001
0100
1000
0100
0010
1000
0010
0001
,
0010
0100
1000
0010
0220
0000
0330
0000
,
2002
0000
3003
0000
0001
0010
0100
1000
,
0010
0100
0010
0100
0002
0000
0000
0000
1003
0000
0100
0000
0001
0000
1000
0000
,
0000
0010
0001
1000
0000
0100
0001
1000
,
0010
0000
0010
0000
0100
0010
0100
0010
0001
0000
0100
0000
1000
0000
0001
0000
,
0000
0010
1000
0001
0000
0100
1000
0001
,
0010
0000
0010
0000
0100
0010
0100
0000
1000
0000
0100
0000
0110
0000
0000
0000
,
0001
0010
1000
0000
0001
0100
1000
0000
,
1000
0010
0001
0000
1000
0100
0001
0010
,
0100
0000
1000
0000
0010
0000
0100
0000
0001
0100
0001
0000
1000
0010
1000
0000
,
0200
0000
0000
0000
0000
0000
0000
0000
0310
0000
0000
0000
0000
0000
0000
0000
0001
0000
0010
0000
0100
0000
0000
0000
1000
0000
0100
0000
0010
0000
0001
0010
,
0001
0000
0000
0000
0011
0000
0000
0000
1010
0000
0000
0000
1001
0000
0000
0000
0001
0000
0100
0000
0010
0000
0000
0000
1000
0000
0010
0000
0100
0001
0100
0001
,
1000
0000
0100
0000
0010
0000
0001
0010
0001
0000
1000
0000
0001
0010
0001
0000
1000
0000
0100
0000
0010
0000
0100
0000
0000
0000
1000
0000
0010
0000
0100
0001
,
0100
0000
0010
0000
1000
0000
0000
0000
0001
0000
0010
0000
0100
0000
0000
0000
0010
0000
0001
0000
0100
0000
0010
0000
0000
0000
1000
0000
0001
0000
0010
0100
,
0010
0000
1000
0000
0100
0000
0001
1000
1001
0000
0000
0000
1001
0000
0001
0000
,
0010
1000
0010
0001
0010
1000
0010
0001
,
0100
0000
0010
0000
1000
0100
1000
0000
0200
0000
0000
0000
0310
0000
0001
0000
,
0010
0000
0100
0000
1000
0000
0010
0100
0010
0000
0000
0000
0001
0000
0010
0100
,
0010
0000
1000
0000
0100
0010
0100
0000
1000
0000
0010
0000
0001
0000
0010
0000
,
1000
0100
0010
0001
0100
1000
0100
0001
,
0010
0100
1000
0010
0100
0100
0001
0001
,
1000
1000
0010
0010
0200
0000
0001
0000
,
0320
0000
1000
1000
0130
0000
1001
0000
,
0001
0010
1000
0000
0100
0000
1001
0000
,
0001
0010
1000
0000
0100
0001
0010
0100
,
1000
0010
0001
0000
0100
0001
0010
0100
,
1000
0000
0010
0000
0001
0000
0010
0100
0010
0000
0100
0000
1001
0000
0000
0000
,
0001
0100
1000
0000
0010
0000
1001
0000
,
0001
0100
1000
0000
0010
0001
0100
0010
,
1000
0100
0001
0000
0010
0001
0100
0010
,
1000
0001
1000
0000
1001
0000
0000
0000
2020
0000
3030
0000
0202
0000
0303
0000
,
0001
0010
0100
0010
0001
0100
0010
0001
,
0010
0100
0001
0010
1100
0000
0100
1000
,
0010
0100
1000
0100
0010
1000
0100
1000
,
0010
0100
1000
0100
0011
0000
1001
0000
,
1000
0010
1010
0000
1001
0000
0101
0000
,
0100
0000
0010
0000
0110
0000
1000
0001
1000
0000
1000
0000
0100
0000
0100
0000
,
0010
0000
0010
0000
0001
0000
0001
0000
0100
0010
0100
0010
0100
0010
0100
0020
,
0200
0000
0000
0000
0000
0000
0330
0000
0110
0100
0000
0001
0000
0010
0000
0100
,
1000
0000
0010
0000
1000
0000
0001
0000
0000
0000
0100
0000
0010
1000
0010
0000
1000
0000
0100
0000
0000
0000
0010
0000
0000
0000
0001
0000
0100
0000
0010
0000
,
0100
0000
0001
0000
0000
0000
1000
0000
0100
0000
0010
0000
0001
0100
0001
0000
1000
0000
0000
0000
0000
0000
1010
0000
0000
0000
0001
0000
0010
0000
1000
0000
,
0010
0000
0100
0000
1000
0000
0010
0000
0000
0000
0001
0000
0010
0100
0010
0000
1000
0000
0100
0000
0010
0000
1000
0000
0000
0000
0010
0000
0001
0000
0100
0000
,
1000
0000
0100
0000
0010
0000
1000
0000
0000
0000
0001
0000
0010
0100
0010
0100
2000
0000
0000
0000
0000
0000
0000
0000
0010
0000
0000
0000
0000
0000
0000
0000
,
0000
0010
3002
0100
,
0000
0100
0023
1000
,
0000
1000
0230
0001
,
0000
0301
0120
0031
,
0210
1300
2010
3001
,
0102
0000
1003
0000
1000
0100
0010
0001
,
0100
0000
0010
0000
1000
0001
1000
0001
2000
0000
3000
0000
0001
0100
0010
1000
,
0001
0100
0010
1000
0001
0000
0001
0000
0000
0000
0110
0000
0000
0000
1000
0000
,
0100
0010
1000
0010
0001
0100
0000
1000
,
0100
0010
1000
1000
0000
0110
0000
0001
,
0010
0100
0001
0100
1000
0010
0000
0100
,
0220
0330
0001
1000
1001
0001
0100
1000
,
0001
0000
0010
0000
1000
0000
0100
0000
0010
0001
0010
0000
0100
0000
0010
0000
,
0100
1000
0100
0000
0020
0000
0000
0000
0001
0000
0000
0000
0230
0000
0000
0000
,
1300
0000
1000
0010
0100
0000
0000
0000
0101
0000
0000
0000
0001
1000
0002
0000
,
1000
1003
0001
0100
1000
0100
0001
0010
,
1000
0010
0001
0100
1000
0001
0010
1000
,
0100
0001
0100
1000
0010
0001
0010
1000
,
0100
0000
0010
0100
0010
0000
0001
0000
0010
0000
0100
0010
0100
0000
1000
0000
,
0010
0010
0110
0000
1001
0000
1000
0010
,
0001
0000
1000
0000
0100
0000
0001
0000
0010
0100
0010
0000
0100
0000
1000
0000
,
0100
1000
0100
0000
0020
0000
0000
0000
0000
0000
0031
0000
0200
0000
0000
0000
,
0310
0000
1000
0100
0020
0000
0000
0000
0001
0000
0000
0000
0031
0100
0010
0000
,
1001
0000
0220
0000
0330
0000
0100
0001
,
0010
0100
0010
1000
0001
0100
0010
0100
,
1000
0010
0001
1000
0100
0001
1000
0010
,
0100
0010
0001
1000
0100
0010
0100
0001
,
0010
0000
0100
0000
1000
0000
0010
0100
0001
0000
0010
0000
0001
0100
0010
0000
,
1000
0000
0100
0000
0010
0001
0100
0000
0010
0000
1000
0000
0001
0010
0100
0000
,
0010
0000
0100
0000
1000
0100
0010
0000
0012
0000
0000
0000
0000
0000
0000
0000
,
0203
0000
0000
0000
0000
0000
0000
0000
0320
0000
0000
0000
1030
0100
1000
0100
,
0010
0000
0010
0000
0001
0100
0010
1000
0002
0000
0000
0000
0103
0000
0100
0000
,
0000
0110
1000
0010
0001
0010
1000
0100
,
0000
0010
0001
0100
1000
0100
0001
0010
,
0000
0100
1000
0010
0001
1000
0100
0010
,
0000
0100
1010
0001
0010
0100
1000
0010
,
0001
0100
0010
0001
0100
0010
1000
0100
,
0001
0000
0010
0000
0100
0000
0001
0000
1000
0100
0010
0000
0001
0000
0100
0000
,
0001
0010
0100
0000
1000
0000
0010
0000
1000
0100
1000
0100
0010
0001
0010
0001
,
0100
0100
0200
0300
1001
0000
0000
0000
;

//---------------dance-double - ----------------
#NOTEDATA:;
#CHARTNAME:;
#STEPSTYPE:dance-double;
#DESCRIPTION:;
#CHARTSTYLE:;
#DIFFICULTY:Hard;
#METER:16;
#RADARVALUES:0.819016,1.305476,0.348379,0.363526,0.424114,757.000000,711.000000,46.000000,48.000000,0.000000,0.000000,0.000000,0.000000,0.000000,0.819016,1.305476,0.348379,0.363526,0.424114,757.000000,711.000000,46.000000,48.000000,0.000000,0.000000,0.000000,0.000000,0.000000;
#CREDIT:MILEN;
#NOTES:
00000000
00000000
00000000
00000000
,
00000000
00000000
00000000
00000000
,
00000000
00000000
00000000
00000000
,
02002000
00000000
00000000
03003000
,
00020200
00000000
00000000
00030300
,
00202000
00000000
00000000
00303000
,
00020020
00000000
00030030
00011000
,
02000000
03001000
00000200
00010300
,
00200000
00301000
00000020
00010030
,
00010000
00000000
00000100
00000000
00010000
00000000
00001000
00000000
01000000
00000000
00001000
00000000
00010000
00001000
00010000
00001000
,
00020000
00030000
00001000
00001000
00011000
00010000
00000100
00001000
,
00000100
00010000
00001000
00000000
00010000
00001000
01000000
00010000
,
01000000
00001000
00010000
00000000
00001000
00010000
00000010
00001000
,
00000010
00010000
00001000
00000000
00010000
00001000
00100000
00010000
,
00100000
00000000
00001000
00000000
00010000
00000100
00010000
00000100
00001000
00000000
00000010
00000000
00000100
00000000
00000001
00000000
,
00000100
00000010
00001000
00000100
00010000
00001000
00100000
00010000
,
01000000
00100000
10000000
00100000
02200000
00000000
03300000
00000000
,
20020000
00000000
30030000
00000000
10000000
01000000
00100000
00010000
,
01000000
00001000
01000000
00001000
00020000
00000000
00000000
00000000
00031000
00000000
00010000
00000000
01000000
00000000
10000000
00000000
,
00000000
10000000
00100000
00010000
00000000
00001000
00000100
00000001
,
00000010
00000000
00000100
00000000
00001000
00000010
00001000
00000010
00010000
00000000
00001000
00000000
00000100
00000000
00000001
00000000
,
00000000
00000001
00000010
00001000
00000000
00010000
01000000
10000000
,
00100000
00000000
01000000
00000000
00010000
00100000
00010000
00000000
00100000
00000000
00001000
00000000
00011000
00000000
00000000
00000000
,
00010000
00001000
00000010
00000000
00001000
00010000
00100000
00000000
,
00010000
00001000
00000100
00000000
00001000
00010000
01000000
10000000
,
00100000
00000000
01000000
00000000
00010000
00000000
00100000
00000000
00001000
00010000
00001000
00000000
00010000
00001000
00010000
00000000
,
00000200
00000000
00000000
00000000
00000000
00000000
00000000
00000000
00000310
00000000
00000000
00000000
00000000
00000000
00000000
00000000
00000010
00000000
00000001
00000000
00000100
00000000
00000000
00000000
00000010
00000000
00001000
00000000
00000100
00000000
00010000
00001000
,
00010000
00000000
00000000
00000000
00011000
00000000
00000000
00000000
00101000
00000000
00000000
00000000
00010010
00000000
00000000
00000000
00010000
00000000
00001000
00000000
00100000
00000000
00000000
00000000
01000000
00000000
10000000
00000000
00100000
01000000
00100000
00000000
,
01000000
00000000
00010000
00000000
00100000
00000000
00001000
00010000
00001000
00000000
00000010
00000000
00001000
00010000
00001000
00000000
00100000
00000000
00010000
00000000
01000000
00000000
00001000
00000000
00000000
00000000
00010000
00000000
00000100
00000000
00001000
00000100
,
00001000
00000000
00000001
00000000
00000010
00000000
00000000
00000000
00000001
00000000
00001000
00000000
00000100
00000000
00000000
00000000
00000010
00000000
00000001
00000000
00000100
00000000
00001000
00000000
00000000
00000000
00010000
00000000
00100000
00000000
10000000
01000000
,
10000000
00000000
01000000
00000000
00010000
00000000
00001000
00010000
00011000
00000000
00000000
00000000
00011000
00000000
00001000
00000000
,
00100000
10000000
00100000
00001000
00100000
10000000
00100000
00001000
,
00010000
00000000
00000100
00000000
00000010
00000001
00000010
00000000
00000002
00000000
00000000
00000000
00000103
00000000
00001000
00000000
,
00010000
00000000
00001000
00000000
00000100
00000000
00000010
00000100
00000010
00000000
00000000
00000000
00001000
00000000
00000100
00000010
,
00000100
00000000
00000001
00000000
00000100
00000010
00000100
00000000
00001000
00000000
00000010
00000000
00000001
00000000
00000010
00000000
,
00010000
00000010
00000001
00000010
00010000
00001000
00100000
01000000
,
10000000
00100000
01000000
00010000
10000000
10000000
01000000
01000000
,
00100000
00100000
00001000
00001000
00020000
00000000
00000010
00000000
,
00032000
00000000
00100000
00100000
00013000
00000000
00011000
00000000
,
00010000
01000000
10000000
00000000
00100000
00000000
00011000
00000000
,
00001000
00000100
00000001
00000000
00000010
00001000
00010000
00001000
,
00000010
00001000
00010000
00000000
00100000
00010000
00001000
00010000
,
00100000
00000000
00010000
00000000
00001000
00000000
00000010
00000100
00000010
00000000
00000001
00000000
00001001
00000000
00000000
00000000
,
00001000
00010000
01000000
00000000
00100000
00000000
10010000
00000000
,
00010000
00001000
00000100
00000000
00000001
00000100
00000010
00000001
,
00000100
00001000
00010000
00000000
00100000
10000000
01000000
00100000
,
00001000
00010000
00001000
00000000
00011000
00000000
00000000
00000000
01001000
00000000
00000000
00000000
00010010
00000000
00000000
00000000
,
00010000
00001000
00000100
00000001
00000100
00001000
00010000
00001000
,
00000100
00000001
00000100
00001000
00011000
00000000
00010000
00100000
,
10000000
00100000
00010000
00001000
00010000
00100000
10000000
00100000
,
00010000
00001000
00010000
00100000
01100000
00000000
10010000
00000000
,
10000000
01000000
01010000
00000000
00011000
00000000
00001010
00000000
,
00000010
00000000
00000001
00000000
00000101
00000000
00001000
00000100
00001000
00000000
00000100
00000000
00000010
00000000
00000001
00000000
,
00000100
00000000
00001000
00000000
00010000
00000000
00100000
00000000
10000000
00000000
01000000
00000000
00010000
00001000
00010000
00002000
,
00020000
00000000
00000000
00000000
00000000
00000000
00033000
00000000
00011000
00000100
00000000
00000010
00000000
00000001
00000000
00000100
,
00001000
00000000
00010000
00000000
00001000
00000000
00000100
00000000
00000000
00000000
00010000
00000000
01000000
00100000
01000000
00000000
00100000
00000000
10000000
00000000
00000000
00000000
01000000
00000000
00000000
00000000
00010000
00000000
00001000
00000000
00000010
00000000
,
00001000
00000000
00010000
00000000
00000000
00000000
00100000
00000000
00001000
00000000
00000010
00000000
00000100
00000001
00000100
00000000
00001000
00000000
00000000
00000000
00000000
00000000
00011000
00000000
00000000
00000000
00010000
00000000
00100000
00000000
10000000
00000000
,
01000000
00000000
00100000
00000000
01000000
00000000
00010000
00000000
00000000
00000000
00001000
00000000
00010000
00001000
00010000
00000000
00000100
00000000
00000010
00000000
00000001
00000000
00000100
00000000
00000000
00000000
00001000
00000000
00000100
00000000
00000010
00000000
,
00010000
00000000
00001000
00000000
01000000
00000000
10000000
00000000
00000000
00000000
01000000
00000000
00100000
00000000
00010000
00001000
00020000
00000000
00000000
00000000
00000000
00000000
00000000
00000000
00000010
00000000
00000000
00000000
00000000
00000000
00000000
00000000
,
00000000
00000010
00032000
00100000
,
00000000
00100000
00023000
00000100
,
00000000
00000100
00032000
01000000
,
00000000
01003000
00012000
00003010
,
00021000
00130000
00012000
00003100
,
00021000
00000000
01030000
00000000
01000000
10000000
00100000
00010000
,
00001000
00000000
00000100
00000000
00000001
00001000
00000001
00001000
00000002
00000000
00000003
00000000
00000100
00000010
00000100
00000010
,
00010000
00001000
00010000
00001000
01000000
00000000
01000000
00000000
00000000
00000000
01100000
00000000
00000000
00000000
00100000
00000000
,
10000000
01000000
00010000
01000000
10000000
00100000
00000000
00010000
,
00001000
00000100
00000010
00000010
00000000
00000110
00000000
00000100
,
00000001
00000010
00001000
00000010
00000001
00000100
00000000
00001000
,
00022000
00033000
00010000
00001000
00011000
00010000
01000000
10000000
,
01000000
00000000
00010000
00000000
00001000
00000000
00000010
00000000
00000001
00000100
00000001
00000000
00001000
00000000
00000010
00000000
,
00010000
00001000
00010000
00000000
00200000
00000000
00000000
00000000
10000000
00000000
00000000
00000000
02300000
00000000
00000000
00000000
,
03010000
00000000
00010000
00100000
00001000
00000000
00000000
00000000
00011000
00000000
00000000
00000000
00010000
00000100
00002000
00000000
,
00000001
00003001
00000001
00000100
00001000
00000100
00000010
00010000
,
00001000
01000000
00100000
00010000
00100000
10000000
01000000
00100000
,
00010000
01000000
00001000
00010000
00000010
00001000
00000100
00000010
,
00000001
00000000
00000100
00000010
00000100
00000000
00001000
00000000
00010000
00000000
00100000
01000000
00100000
00000000
10000000
00000000
,
00010000
01000000
01100000
00000000
10010000
00000000
10000000
01000000
,
00010000
00000000
00001000
00000000
00000010
00000000
00000001
00000000
00000010
00000100
00000010
00000000
00001000
00000000
00010000
00000000
,
01000000
00100000
01000000
00000000
20000000
00000000
00000000
00000000
00000000
00000000
30100000
00000000
00020000
00000000
00000000
00000000
,
00031000
00000000
00001000
00000100
00000020
00000000
00000000
00000000
00000001
00000000
00000000
00000000
00001030
00000100
00010000
00000000
,
00011000
00000000
00022000
00000000
00033000
00000000
00001000
00010000
,
00100000
00010000
00001000
00000010
00001000
00010000
01000000
00010000
,
00001000
00000100
00001000
00010000
00000100
00000010
00000001
00001000
,
00000100
00000010
00001000
00010000
01000000
00100000
00010000
10000000
,
01000000
00000000
00100000
00000000
00001000
00000000
00010000
00000100
00010000
00000000
00001000
00000000
00000010
00000100
00000010
00000000
,
00000001
00000000
00000100
00000000
00001000
00010000
00001000
00000000
00010000
00000000
00100000
00000000
10000000
01000000
10000000
00000000
,
01000000
00010000
00001000
00000010
00000210
00000000
00000000
00000000
,
00020300
00000000
00000000
00000000
00000000
00000000
00000000
00000000
00032000
00000000
00000000
00000000
00103000
01000000
00100000
01000000
,
10000000
00000000
00100000
00000000
00010000
00001000
00010000
00001000
00020000
00000000
00000000
00000000
00030010
00000000
00000010
00000000
,
00000000
00000110
00000001
00000010
00001000
00010000
00100000
10000000
,
00000000
01000000
10000000
00100000
00010000
00001000
00000100
00000001
,
00000000
00000010
00000100
00010000
00001000
00100000
01000000
10000000
,
00000000
00100000
01100000
00010000
10000000
01000000
00010000
00001000
,
00100000
01000000
00010000
00001000
00000010
00000100
00010000
00001000
,
00000010
00000000
00000001
00000000
00000100
00000000
00001000
00000000
00010000
00000100
00001000
00000000
00000100
00000000
00010000
00000000
,
00001000
00100000
00010000
00000000
01000000
00000000
00100000
00000000
10000000
01000000
10000000
00010000
01000000
00010000
00100000
00001000
,
00010000
00010000
00020000
00000000
00030010
00000000
00000000
00000000
;

//---------------dance-single - ----------------
#NOTEDATA:;
#CHARTNAME:;
#STEPSTYPE:dance-single;
#DESCRIPTION:;
#CHARTSTYLE:;
#DIFFICULTY:Beginner;
#METER:5;
#RADARVALUES:0.241269,0.335694,0.098455,0.000000,0.000000,223.000000,210.000000,13.000000,0.000000,0.000000,0.000000,0.000000,0.000000,0.000000,0.241269,0.335694,0.098455,0.000000,0.000000,223.000000,210.000000,13.000000,0.000000,0.000000,0.000000,0.000000,0.000000,0.000000;
#CREDIT:MILEN;
#DISPLAYBPM:100.000000:200.000000;
#NOTES:
0000
0000
0000
0000
,
0000
0000
0000
0000
,
0000
0000
0000
0000
,
0100
0000
0000
0000
,
0100
0000
0000
0000
,
0100
0000
0000
0000
,
0100
0000
0000
0100
,
0100
0000
0100
0000
,
0010
0000
0010
0000
,
1000
0000
0001
0000
,
1001
0000
1000
0000
,
1000
0000
0010
0000
,
0010
0000
0100
0000
,
0100
0000
0001
0000
,
0001
0000
1000
0000
,
0100
0000
0010
0000
,
0001
0000
0100
0000
,
0010
0000
0100
0100
,
0100
0100
0001
0000
,
1000
0000
0001
0000
,
1000
0000
0100
0000
,
0010
0000
0100
0000
,
0010
0000
0001
0000
,
1000
0000
0100
0000
,
0010
0000
0100
0000
,
0100
0000
0010
0010
,
0010
0000
1001
0000
,
0001
0100
0010
0000
,
1000
0010
0100
0000
,
0001
0100
0010
1000
,
0001
0100
0100
0000
,
0100
0000
0100
0000
,
0100
0000
0010
0000
,
0010
0000
0010
0000
,
1000
0000
0001
0000
,
0010
0000
0100
0000
,
1000
0000
0010
0010
,
0010
0100
0010
0000
,
0000
1001
1001
0000
,
0001
0000
0100
0000
,
0001
0000
0010
0000
,
0001
0000
0100
0000
,
0100
0000
1000
0000
,
0010
0000
1000
0000
,
0100
0000
1000
0000
,
0010
0000
0010
0000
,
0001
0000
1000
0000
,
0010
0000
0100
0000
,
0001
0000
1000
0000
,
0010
0000
0100
0000
,
0010
0000
1000
0000
,
0001
0000
0100
0000
,
0010
0000
1000
0000
,
0001
0000
0100
0000
,
0010
0000
0110
0000
,
1000
0100
0010
0000
,
0001
0010
0100
0000
,
1000
0010
0001
0100
,
1000
0001
1001
0000
,
0000
0000
1001
0000
,
0000
0000
1001
0000
,
0000
0000
1001
0000
,
0000
0000
1000
0000
,
0001
0000
1000
0000
,
0001
0000
1000
1000
,
0001
0001
1001
0000
,
0000
1000
0000
0100
,
0000
1000
0000
0100
,
0000
0010
0000
0001
,
0000
0010
0000
0001
,
0000
1000
0000
0010
,
0000
1000
0000
0010
,
0000
0100
0000
0001
,
0000
0100
0000
0001
,
0000
0100
0100
0100
,
0000
0010
0000
1000
,
0000
0010
0010
0010
,
0000
0100
0000
0001
,
0000
1000
1000
1000
,
0000
0100
0000
0010
,
0000
0001
0001
0001
,
0000
0010
0000
0100
,
0000
1001
0000
0000
,
0000
1000
0000
0010
,
0000
0010
0000
0001
,
0000
0100
0000
0100
,
0000
1000
0000
0010
,
0100
0010
0000
1000
,
0001
1000
0001
0000
,
1000
0000
0010
0010
,
0100
0010
0000
0110
,
0000
1000
0000
0001
,
0000
1000
0000
0001
,
0000
1000
0000
0001
,
0000
1000
0010
0000
,
0001
0000
0100
0000
,
1000
0000
0010
0000
,
0001
0000
0100
0100
,
0100
0000
1001
0000
;

//---------------dance-single - ----------------
#NOTEDATA:;
#CHARTNAME:;
#STEPSTYPE:dance-single;
#DESCRIPTION:;
#CHARTSTYLE:;
#DIFFICULTY:Easy;
#METER:9;
#RADARVALUES:0.353789,0.447592,0.128749,0.121175,0.000000,327.000000,310.000000,17.000000,16.000000,0.000000,0.000000,0.000000,0.000000,0.000000,0.353789,0.447592,0.128749,0.121175,0.000000,327.000000,310.000000,17.000000,16.000000,0.000000,0.000000,0.000000,0.000000,0.000000;
#CREDIT:MILEN;
#DISPLAYBPM:100.000000:200.000000;
#NOTES:
0000
0000
0000
0000
,
0000
0000
0000
0000
,
0000
0000
0000
0000
,
2000
0000
0000
3000
,
0002
0000
0000
0003
,
2000
0000
0000
3000
,
0002
0000
0000
0003
,
2000
3000
0002
0003
,
2000
3000
0002
0003
,
1000
0001
1000
0001
,
1001
0000
1000
0010
,
1000
0000
0001
0010
,
0001
0000
1000
0100
,
1000
0000
0001
0100
,
0001
0000
1000
0010
,
1000
0010
1000
0001
,
1000
0001
0100
0001
,
0100
0001
1000
0001
,
1000
1001
0010
0100
,
0001
0000
0100
0010
,
1000
0000
0010
0100
,
0001
0000
0100
0010
,
1000
0000
0010
0100
,
0001
0100
0010
1000
,
0010
0100
0001
1000
,
0001
1000
0010
0100
,
0010
0000
1001
1000
,
0100
1000
1001
0001
,
0010
0001
1001
0010
,
0100
0000
0010
0000
1000
1000
1000
0000
,
0001
0001
0001
0000
0100
0000
0000
0000
,
0100
0010
1000
0010
,
0100
0000
0010
0000
,
0100
0001
0010
0001
,
0100
0000
0001
0000
,
1000
0100
0010
0100
,
1000
0000
0001
0000
,
0010
0100
0010
0001
,
0010
0100
1001
1000
,
0100
0000
1000
0001
,
0010
0000
0001
1000
,
0010
0000
1000
0001
,
0100
0000
0001
0010
,
0100
0000
1000
0010
,
0100
0000
0001
0100
,
0010
0000
1000
0100
,
0010
0110
0001
0100
,
0000
0100
1000
0010
,
0000
0010
0001
0100
,
0000
0100
1000
0010
,
0100
0010
1000
0100
,
0000
0100
0001
0010
,
0000
0010
1000
0100
,
0010
0100
1000
0010
,
0220
0330
1000
1000
,
0010
1000
0001
0000
0100
0000
0100
0000
,
0010
1000
0100
0000
0010
0000
0010
0000
,
0001
0100
1000
0000
0010
0000
0010
0000
,
0001
1000
0010
0100
0001
0000
1000
0000
,
0000
0010
1000
0001
,
0000
0100
0001
1000
,
0000
0010
1000
0001
,
0000
0100
0110
0000
,
1010
0000
0101
0000
,
1001
0000
0001
0010
,
0100
1000
0220
0000
,
0330
0100
0010
0001
,
0000
1000
0100
0010
,
0000
0001
0010
0100
,
0000
0010
0100
1000
,
1001
0010
0100
1000
,
0000
0001
0010
0100
,
0000
1000
0100
0010
,
0001
0010
0100
1000
,
0001
0100
0010
1000
,
0010
0100
0010
1000
,
0000
0010
0100
0001
,
0100
0010
0100
0001
,
0000
1000
0100
0001
,
0100
1000
0100
0001
,
0000
0100
0010
0002
,
0003
0010
0100
2000
,
3000
1001
0000
0001
,
0100
0001
0010
0001
,
0100
0100
0000
1000
,
0010
1000
0100
1000
,
0010
0010
0000
0001
,
1000
0100
0000
1000
,
0001
0010
0000
0001
,
2000
0000
3020
0030
,
0100
0100
0101
1000
,
0000
0010
0000
0001
,
0000
0100
0000
1000
,
0000
0010
0000
0001
,
0000
0100
0100
1000
,
0010
1000
0001
0100
,
0001
1000
0100
1000
,
0001
0010
0001
0100
,
0010
0100
1001
0000
;

//---------------dance-double - ----------------
#NOTEDATA:;
#CHARTNAME:;
#STEPSTYPE:dance-double;
#DESCRIPTION:;
#CHARTSTYLE:;
#DIFFICULTY:Easy;
#METER:9;
#RADARVALUES:0.354871,0.484891,0.136322,0.151469,0.000000,328.000000,310.000000,18.000000,20.000000,0.000000,0.000000,0.000000,0.000000,0.000000,0.354871,0.484891,0.136322,0.151469,0.000000,328.000000,310.000000,18.000000,20.000000,0.000000,0.000000,0.000000,0.000000,0.000000;
#CREDIT:MILEN;
#DISPLAYBPM:100.000000:200.000000;
#NOTES:
00000000
00000000
00000000
00000000
,
00000000
00000000
00000000
00000000
,
00000000
00000000
00000000
00000000
,
00002000
00000000
00000000
00003000
,
00020000
00000000
00000000
00030000
,
00002000
00000000
00000000
00003000
,
00020000
00000000
00000000
00030000
,
00002000
00003000
00020000
00030000
,
00002000
00003000
00020000
00030000
,
00001000
00010000
00001000
00010000
,
00011000
00000000
00001000
00010000
,
00000100
00000000
00010000
00001000
,
00100000
00000000
00001000
00010000
,
00000010
00000000
00010000
00001000
,
01000000
00000000
00001000
00010000
,
00001000
00010000
01000000
00100000
,
01000000
00100000
00001000
00010000
,
00001000
00010000
00000100
00000010
,
00000100
00000110
00000001
00000100
,
00001000
00000000
00000100
00001000
,
00010000
00000000
00001000
00010000
,
00100000
00000000
00010000
00100000
,
10000000
00000000
01000000
00100000
,
01000000
00010000
00001000
00010000
,
00000010
00000100
00000010
00010000
,
00001000
00010000
00100000
01000000
,
00100000
00000000
10010000
00010000
,
01000000
00001000
00011000
00010000
,
00000010
00001000
00001001
00000001
,
00000100
00000000
00001000
00000000
00010000
00010000
00010000
00000000
,
00001000
00001000
00001000
00000000
00011000
00000000
00000000
00000000
,
00010000
00000100
00001000
00000100
,
00010000
00000000
00001000
00000000
,
00000010
00000001
00000010
00000100
,
00000010
00000000
00001000
00000000
,
00010000
01000000
10000000
01000000
,
00010000
00000000
00001000
00000000
,
00100000
01000000
00100000
00010000
,
00100000
01000000
11000000
10000000
,
00100000
00000000
00100000
00010000
,
00001000
00000000
00010000
00001000
,
00000010
00000000
00000010
00000001
,
00000100
00000000
00000001
00000100
,
00001000
00000000
00000100
00001000
,
00010000
00000000
00001000
00010000
,
01000000
00000000
01000000
10000000
,
00100000
01100000
01000000
00010000
,
00000000
00100000
01000000
00010000
,
00000000
00001000
00000010
00000100
,
00000000
00001000
00000010
00000100
,
00000001
00000100
00000010
00001000
,
00000000
00000100
00000010
00001000
,
00000000
00010000
01000000
00100000
,
00010000
00100000
01000000
10000000
,
20020000
30030000
00010000
00010000
,
01000000
00001000
00010000
00000000
00000100
00000000
00000100
00000000
,
00001000
00000010
00000100
00000000
00000001
00000000
00000001
00000000
,
00000010
00001000
00010000
00000000
00100000
00000000
00100000
00000000
,
10000000
01000000
00100000
00001000
00020000
00000000
00001000
00000000
,
00000000
00031000
00002000
01000000
,
00000000
01003000
00020000
00000010
,
00000000
00030010
00002000
00010000
,
00000000
00013000
00010100
00000000
,
01001000
00000000
00010010
00000000
,
00101000
00000000
00001000
00010000
,
00001000
00010000
00022000
00000000
,
00033000
00001000
00010000
01000000
,
00000000
00010000
00001000
00000100
,
00000000
00001000
00010000
00100000
,
00000000
00010000
00001000
00000010
,
00001001
00000001
00000100
00001000
,
00000000
00010000
00100000
10000000
,
00000000
01000000
00010000
00001000
,
00010000
00001000
00000100
00000001
,
00000001
00000010
00000100
00000010
,
00001000
00000010
00000100
00010000
,
00000000
00001000
00100000
01000000
,
00010000
01000000
00100000
01000000
,
00000000
10000000
00100000
00010000
,
00001000
00000100
00000001
00001000
,
00000000
00000001
00000010
00002000
,
00003000
00010000
00100000
20000000
,
30000000
10010000
00000000
00010000
,
01000000
00010000
00100000
00001000
,
00010000
00000100
00000000
00001000
,
00000010
00001000
00000100
00010000
,
00001000
00100000
00000000
00010000
,
01000000
00001000
00000000
00010000
,
00000010
00001000
00000000
00000001
,
00000020
00000000
00002030
00003000
,
00010000
00010000
00011000
01000000
,
00000000
00100000
00000000
00010000
,
00000000
00001000
00000000
00000100
,
00000000
00000010
00000000
00010000
,
00000000
00001000
00001000
00010000
,
00000010
00010000
00001000
00100000
,
00001000
00010000
00000100
00010000
,
00001000
01000000
00001000
00010000
,
00001000
00010000
00011000
00000000
;

//---------------dance-single - ----------------
#NOTEDATA:;
#CHARTNAME:;
#STEPSTYPE:dance-single;
#DESCRIPTION:;
#CHARTSTYLE:;
#DIFFICULTY:Medium;
#METER:13;
#RADARVALUES:0.630761,0.969782,0.371100,0.212057,0.128749,583.000000,534.000000,49.000000,28.000000,0.000000,0.000000,0.000000,0.000000,0.000000,0.630761,0.969782,0.371100,0.212057,0.128749,583.000000,534.000000,49.000000,28.000000,0.000000,0.000000,0.000000,0.000000,0.000000;
#CREDIT:MILEN;
#DISPLAYBPM:100.000000:200.000000;
#NOTES:
// measure 0
0000
0000
0000
0000
,  // measure 1
0000
0000
0000
0000
,  // measure 2
0000
0000
0000
0000
,  // measure 3
2000
0000
0000
0000
,  // measure 4
3020
0000
0000
0000
,  // measure 5
0230
0000
0000
0000
,  // measure 6
0302
0000
0000
1003
,  // measure 7
1001
0000
0110
0000
,  // measure 8
1001
0000
0110
0000
,  // measure 9
0010
0000
0100
0000
0001
1000
0001
1000
,  // measure 10
0002
0000
0103
0010
0100
0010
0000
1000
,  // measure 11
0000
0001
0000
0010
0000
0100
0000
1000
,  // measure 12
0000
0010
0000
0100
0001
0100
0000
0010
,  // measure 13
0000
1010
0000
1000
0001
0000
0100
0000
,  // measure 14
0110
0000
0010
1000
0010
1000
0000
0100
,  // measure 15
0000
0010
0000
0001
0000
0100
0000
0010
,  // measure 16
0000
1000
0000
0001
0010
0001
0010
0100
,  // measure 17
1000
0100
1000
0010
0100
0001
1000
0010
,  // measure 18
0100
0010
0110
0000
1000
0000
0101
0000
,  // measure 19
1000
0000
0101
0000
1000
0100
0010
0000
,  // measure 20
0100
0010
0001
0000
0001
0000
1100
0000
,  // measure 21
0001
0000
1100
0000
0001
0010
0100
0000
,  // measure 22
0010
0100
1000
0000
1000
0010
0100
0001
,  // measure 23
0100
0010
1000
0000
0001
0010
0100
1000
,  // measure 24
0100
0010
0001
0000
1000
0010
0100
0000
,  // measure 25
0001
0100
0010
0000
1000
0001
0010
0100
,  // measure 26
1000
0000
0010
0000
0100
0000
0000
0000
0110
0000
0000
0000
0001
0010
0100
0010
,  // measure 27
0000
0100
0000
1000
0010
0000
0100
0000
0101
0000
1010
0000
0000
1000
0100
0010
,  // measure 28
0100
0000
1000
0100
0010
0001
0010
0000
0001
0000
1001
0000
0000
1000
0010
0100
,  // measure 29
0001
0000
0110
0000
0000
0001
0010
0100
1000
0000
0110
0000
0010
0100
0001
0000
,  // measure 30
0100
0000
0010
0000
0100
0010
1000
0001
0100
0000
0000
0000
0110
0000
0000
0000
,  // measure 31
1000
0010
0001
0100
,  // measure 32
1000
0000
0001
0000
0100
0010
1000
0010
,  // measure 33
0100
0001
0010
0100
1000
0000
0010
0100
,  // measure 34
0001
1000
0200
0000
0310
0000
0110
0000
,  // measure 35
0001
0100
1000
0000
0100
0000
0110
0000
,  // measure 36
0001
0100
1000
0000
0100
0010
0100
0010
,  // measure 37
1000
0001
0010
0100
1000
0000
0010
0000
,  // measure 38
0101
0000
1000
0100
0010
0000
0001
0000
,  // measure 39
0010
0000
0001
0100
0010
0000
1000
0010
,  // measure 40
0100
0000
0001
0100
1000
0000
0100
0000
,  // measure 41
0010
0000
0001
0010
0100
0010
0001
0010
,  // measure 42
1000
1100
0010
0001
,  // measure 43
0100
0000
1000
0100
0010
0000
0100
0001
,  // measure 44
0010
0000
0001
0010
0100
0000
1000
0010
,  // measure 45
0100
1000
0100
0010
0100
0000
0001
0000
,  // measure 46
1000
0100
0010
0001
0100
0000
0110
0000
,  // measure 47
0001
1000
0010
0001
,  // measure 48
0100
0000
1000
0000
0010
0100
0001
0000
,  // measure 49
0100
0010
1000
0000
0001
0010
0100
0001
,  // measure 50
0100
1000
0100
0010
0001
0000
0101
0000
,  // measure 51
1000
1100
0001
0011
,  // measure 52
1000
0000
1010
0000
0001
0010
0100
1000
,  // measure 53
0100
0001
1000
0010
0001
0010
0100
1000
,  // measure 54
0020
0000
0000
0000
0000
0000
0000
0000
0130
0001
0000
1000
0000
0100
0010
0100
,  // measure 55
0010
0001
0100
1000
0000
0000
0000
0000
0100
0010
0000
0010
0000
1000
0001
0010
,  // measure 56
0100
1000
0000
0100
0000
0000
0000
0000
1100
0000
0000
0011
0000
0001
0100
1000
,  // measure 57
0100
0010
0100
0001
0000
0000
1000
0000
1000
0000
0100
0000
0001
0000
1000
0000
,  // measure 58
0010
0000
0001
0000
0100
0010
1000
0001
0200
0000
0000
0000
0010
0000
0000
0000
,  // measure 59
0000
0310
2000
0001
,  // measure 60
0000
3001
0020
0100
,  // measure 61
0000
0130
0002
1000
,  // measure 62
0000
1003
1010
0000
,  // measure 63
0011
0000
1100
0000
,  // measure 64
0101
0000
0000
0000
0001
0010
0001
0010
,  // measure 65
0100
1000
0100
1000
0020
0000
0130
0001
,  // measure 66
1000
0100
0010
0001
0000
0101
0000
1000
,  // measure 67
0100
0010
1000
0010
0001
0100
0000
0000
,  // measure 68
0001
0010
0100
1000
0000
1010
0000
0001
,  // measure 69
0010
0100
0001
0100
1000
0010
0000
0010
,  // measure 70
0101
1000
0110
0001
,  // measure 71
1100
0010
1001
0100
,  // measure 72
0011
0000
2000
0000
0000
3010
0100
0100
,  // measure 73
0002
2003
3020
0032
,  // measure 74
0100
0103
1000
0100
0010
0001
1000
0010
,  // measure 75
0100
0000
0001
0010
0100
1000
0001
0100
,  // measure 76
0010
0000
1000
0100
0001
1000
0010
0001
,  // measure 77
1000
0000
0001
0100
1000
0001
0010
1000
,  // measure 78
0001
0000
0010
0100
1000
0010
0001
0010
,  // measure 79
1000
0100
0001
1000
0010
0001
0100
1000
,  // measure 80
0100
0001
0020
0000
0000
0130
2000
0000
,  // measure 81
3200
0302
0023
1030
,  // measure 82
1001
0000
0110
0000
0000
0000
0010
1000
,  // measure 83
0100
0000
1000
0010
0100
0000
1000
0100
,  // measure 84
0001
0100
1000
0100
0010
0000
0100
0001
,  // measure 85
0010
0000
0001
0100
0010
0000
0001
0010
,  // measure 86
1000
0010
0001
0010
0100
0000
1001
0000
,  // measure 87
0010
0101
1000
0110
,  // measure 88
0001
1010
0220
0330
,  // measure 89
2002
0000
3003
0000
0001
0010
1000
0001
,  // measure 90
0100
1000
0010
0100
0020
0000
1030
0100
,  // measure 91
0000
0100
0001
0000
0010
0000
0100
0000
,  // measure 92
0001
1000
0010
0100
,  // measure 93
1000
0010
0001
1000
,  // measure 94
0100
0000
0110
0000
1000
0100
0001
0000
,  // measure 95
1000
0010
0001
0000
0001
0100
1000
0000
,  // measure 96
0001
0010
1000
0000
1000
0100
0010
0100
,  // measure 97
0001
1000
0010
0100
0010
0001
0100
1000
,  // measure 98
0001
0010
2000
0000
3001
0000
0000
0000
;

//---------------dance-double - ----------------
#NOTEDATA:;
#CHARTNAME:;
#STEPSTYPE:dance-double;
#DESCRIPTION:;
#CHARTSTYLE:;
#DIFFICULTY:Medium;
#METER:13;
#RADARVALUES:0.631843,0.969782,0.386247,0.204483,0.128749,584.000000,533.000000,51.000000,27.000000,0.000000,0.000000,0.000000,0.000000,0.000000,0.631843,0.969782,0.386247,0.204483,0.128749,584.000000,533.000000,51.000000,27.000000,0.000000,0.000000,0.000000,0.000000,0.000000;
#CREDIT:MILEN;
#DISPLAYBPM:100.000000:200.000000;
#NOTES:
00000000
00000000
00000000
00000000
,
00000000
00000000
00000000
00000000
,
00000000
00000000
00000000
00000000
,
02000000
00000000
00000000
00000000
,
03002000
00000000
00000000
00000000
,
00023000
00000000
00000000
00000000
,
00030200
00000000
00000000
00001300
,
00001001
00000000
00000110
00000000
,
00011000
00000000
01100000
00000000
,
10010000
00000000
10000000
00000000
01000000
00010000
01000000
00010000
,
00002000
00000000
00013000
00000100
00001000
00000100
00000000
00000010
,
00000000
00000010
00000000
00000001
00000000
00000001
00000000
00000100
,
00000000
00000100
00000000
00001000
00010000
00001000
00000000
00100000
,
00000000
00110000
00000000
00010000
01000000
00000000
00100000
00000000
,
10100000
00000000
10000000
01000000
10000000
00010000
00000000
00100000
,
00000000
00100000
00000000
00001000
00000000
00001000
00000000
00010000
,
00000000
00010000
00000000
00000100
00000010
00000100
00000010
00000001
,
00000100
00000001
00000100
00001000
00010000
00100000
10000000
01000000
,
00100000
01000000
01100000
00000000
10000000
00000000
01010000
00000000
,
10000000
00000000
01010000
00000000
00010000
00100000
00001000
00000000
,
00010000
00000100
00001000
00000000
00000001
00000000
00001100
00000000
,
00000001
00000000
00001100
00000000
00001000
00000010
00010000
00000000
,
00001000
01000000
00010000
00000000
00100000
01000000
10000000
00100000
,
00010000
00001000
00010000
00000000
00000100
00000010
00000001
00000100
,
00001000
00010000
00001000
00000000
00100000
01000000
10000000
00000000
,
00010000
00100000
01000000
00000000
00010000
00001000
00010000
00000100
,
00000010
00000000
00000001
00000000
00000100
00000000
00000000
00000000
00001001
00000000
00000000
00000000
00001000
00000010
00001000
00000010
,
00000000
00010000
00000000
00001000
00100000
00000000
00010000
00000000
01010000
00000000
10100000
00000000
00000000
10000000
01000000
00100000
,
01000000
00000000
00010000
00001000
00000100
00000010
00000100
00000000
00000001
00000000
00001001
00000000
00000000
00001000
00000010
00010000
,
00001000
00000000
00011000
00000000
00000000
00100000
00010000
00100000
01000000
00000000
11000000
00000000
10000000
00100000
00010000
00000000
,
00001000
00000000
00010000
00000000
00000100
00001000
00000100
00000010
00000001
00000000
00000000
00000000
00001001
00000000
00000000
00000000
,
00001000
00000010
00010000
00001000
,
01000000
00000000
00010000
00000000
10000000
01000000
00100000
01000000
,
00010000
00001000
00010000
00000100
00000010
00000000
00000001
00000100
,
00001000
00010000
00200000
00000000
10300000
00000000
11000000
00000000
,
01000000
00010000
00001000
00000000
00010000
00000000
00011000
00000000
,
00001000
00000010
00000001
00000000
00001000
00000100
00000010
00000001
,
00000100
00000010
00001000
00000100
00000010
00000000
00000001
00000000
,
00000101
00000000
00001000
00000100
00000010
00000000
00001000
00000000
,
00010000
00000000
00100000
10000000
01000000
00000000
00100000
00010000
,
01000000
00000000
10000000
01000000
00010000
00000000
00100000
00000000
,
01000000
00000000
00010000
00001000
00010000
00100000
00010000
00001000
,
00000010
00000011
00001000
00000100
,
00000010
00000000
00001000
00010000
00100000
00000000
00010000
00001000
,
00000010
00000000
00001000
00010000
01000000
00000000
00010000
00001000
,
00000100
00001000
00010000
01000000
10000000
00000000
00100000
00000000
,
01000000
00010000
00100000
01000000
00010000
00000000
00011000
00000000
,
00001000
00000010
00001000
00010000
,
00100000
00000000
00010000
00000000
00001000
00000010
00000001
00000000
,
00001000
00000100
00000001
00000000
00000100
00000010
00000001
00000100
,
00001000
00010000
00100000
01000000
00100000
00000000
10100000
00000000
,
00010000
01001000
00001000
00010100
,
00000010
00000000
00000110
00000000
00000001
00000100
00001000
00010000
,
00001000
00010000
00100000
10000000
01000000
00010000
00001000
00000010
,
00000002
00000000
00000000
00000000
00000000
00000000
00000000
00000000
00001003
00000010
00000000
00010000
00000000
00001000
00100000
00001000
,
00100000
00010000
01000000
00100000
00000000
00000000
00000000
00000000
10000000
01000000
00000000
01000000
00000000
00010000
00001000
00010000
,
00001000
00000100
00000000
00000001
00000000
00000000
00000000
00000000
00000011
00000000
00000000
00001010
00000000
00001000
00010000
00100000
,
00010000
00001000
00010000
00100000
00000000
00000000
10000000
00000000
01000000
00000000
00100000
00000000
00001000
00000000
00010000
00000000
,
00000100
00000000
00000010
00000000
00000001
00000100
00000001
00000100
00002000
00000000
00000000
00000000
00010000
00000000
00000000
00000000
,
00000000
00013000
00020000
00000010
,
00000000
00030010
00002000
01000000
,
00000000
01003000
00020000
00001000
,
00000000
00031000
00011000
00000000
,
00010100
00000000
00011000
00000000
,
00101000
00000000
00000000
00000000
00001000
00010000
00001000
00010000
,
00001000
00000010
00000001
00000000
00001001
00000000
00001000
00000100
,
00010000
00000100
00010000
00001000
00000000
01001000
00000000
01000000
,
00010000
00100000
01000000
00100000
01000000
10000000
00000000
00000000
,
00100000
00010000
00001000
00010000
00000000
00010100
00000000
00000100
,
00001000
00000010
00000100
00000010
00000100
00000001
00000000
00001000
,
00001010
00010000
00010100
00001000
,
01001000
00010000
00110000
01000000
,
11000000
00000000
00200000
00000000
00000000
01300000
00010000
00010000
,
00200000
00302000
00023000
00030200
,
00000310
00000010
00000001
00001000
00000100
00000010
00000001
00000100
,
00001000
00000000
00010000
00100000
10000000
01000000
00100000
00010000
,
01000000
00000000
00001000
00010000
00100000
00010000
00001000
00000010
,
00001000
00000000
00010000
01000000
00010000
00001000
00000100
00001000
,
00010000
00000000
00100000
10000000
01000000
00100000
00010000
01000000
,
00100000
00010000
00001000
00000100
00000010
00001000
00000100
00000010
,
00000001
00000100
00002000
00000000
00000000
00013000
00200000
00000000
,
20300000
32000000
03020000
00031000
,
00011000
00000000
00011000
00000000
00000000
00000000
00010000
00001000
,
01000000
00000000
00001000
00010000
00000010
00000000
00010000
00001000
,
00100000
00001000
00010000
00001000
01000000
00000000
00001000
00010000
,
00000100
00000000
00010000
00001000
00100000
00000000
00001000
00010000
,
00000010
00010000
00001000
00010000
00000100
00000000
00000110
00000000
,
00000001
00001100
00010000
00011000
,
00100000
01010000
02200000
03300000
,
20020000
00000000
30030000
00000000
10000000
01000000
00010000
00001000
,
00000010
00000001
00000100
00000010
00000200
00000000
00000301
00000010
,
00000000
00000010
00001000
00000000
00010000
00000000
00100000
00000000
,
10000000
01000000
00100000
00001000
,
00010000
00000100
00000010
00000001
,
00000100
00000000
00000110
00000000
00001000
00000100
00000010
00000000
,
00001000
00010000
00100000
00000000
00010000
00001000
00000010
00000000
,
00010000
00100000
01000000
00000000
10000000
00100000
00010000
00100000
,
00010000
00001000
00000100
00000001
00000010
00001000
00000010
00001000
,
00010000
00100000
20000000
00000000
30010000
00000000
00000000
00000000
;
