#VERSION:0.83;
#TITLE:Killer in the Park;
#SUBTITLE:;
#ARTIST:Leoncie;
#TITLETRANSLIT:;
#SUBTITLETRANSLIT:;
#ARTISTTRANSLIT:;
#GENRE:POP CHARTS;
#ORIGIN:;
#CREDIT:MUINELIM;
#BANNER:Killer in the Park.png;
#BACKGROUND:Killer in the Park-bg.png;
#PREVIEWVID:;
#JACKET:Killer in the Park-jacket.png;
#CDIMAGE:;
#DISCIMAGE:;
#LYRICSPATH:;
#CDTITLE:;
#MUSIC:Killer in the Park.mp3;
#OFFSET:0.000000;
#SAMPLESTART:76.724915;
#SAMPLELENGTH:11.808132;
#SELECTABLE:YES;
#DISPLAYBPM:182.000000;
#BPMS:0.000=182.000,
135.000=183.000,
184.000=182.000;
#STOPS:135.000=0.330;
#DELAYS:;
#WARPS:;
#TIMESIGNATURES:0.000=4=4;
#TICKCOUNTS:0.000=4;
#COMBOS:0.000=1;
#SPEEDS:0.000=1.000=0.000=0;
#SCROLLS:0.000=1.000;
#FAKES:;
#LABELS:0.000=Song Start;
#BGCHANGES:0.000=Killer in the Park.avi=1.000=1=0=0=StretchNoLoop==CrossFade==,
99999=-nosongbg-=1.000=0=0=0 // don't automatically add -songbackground-
;
#KEYSOUNDS:;
#ATTACKS:
;

//---------------dance-single - ----------------
#NOTEDATA:;
#CHARTNAME:;
#STEPSTYPE:dance-single;
#DESCRIPTION:;
#CHARTSTYLE:;
#DIFFICULTY:Hard;
#METER:12;
#RADARVALUES:0.547997,0.593402,0.352284,0.383598,0.000000,490.000000,445.000000,45.000000,49.000000,0.000000,0.000000,0.000000,0.000000,0.000000,0.547997,0.593402,0.352284,0.383598,0.000000,490.000000,445.000000,45.000000,49.000000,0.000000,0.000000,0.000000,0.000000,0.000000;
#CREDIT:MILEN;
#NOTES:
0000
0000
0000
0000
,
0000
0000
0000
0000
,
0000
0000
0000
0000
,
0000
0000
0000
0000
,
0000
0000
0000
0000
,
0000
0000
0000
0000
,
0000
0000
1000
0100
0010
0001
1000
0000
,
0010
0200
0000
0000
0310
0000
0100
0000
,
0101
0000
0001
0010
0100
1000
0001
0000
,
0100
0020
0000
0000
0130
0000
0010
0000
,
1010
0000
1000
0000
0001
0000
1000
0100
,
0010
0200
0000
0000
1300
0000
0010
0000
,
0101
0000
0001
0000
1000
0000
0001
0010
,
0100
0020
0000
0000
0031
0000
0100
0000
,
1010
0000
1000
0000
0001
0000
0100
0010
,
1000
0020
0000
0000
0130
0000
0001
0000
,
0011
0000
0001
0000
1000
0000
0010
0100
,
0001
0200
0000
0000
0310
0000
1000
0000
,
1100
0000
1000
0010
0100
0001
1000
0000
,
0001
0010
0000
0100
0010
0000
0001
0000
,
0100
0000
0010
1000
0100
0010
0001
0000
,
1000
0010
0000
0100
0010
0000
1000
0000
,
0001
0000
0010
0100
0001
0100
1000
0000
,
0010
0100
0000
0001
0100
0000
0010
0000
,
1000
0000
0100
0001
0100
0010
0001
0000
,
0100
1000
0000
0100
0010
0000
1000
0000
,
0001
0000
0011
0000
1010
0000
1000
0100
,
0010
0002
0000
0000
0103
0000
0010
0000
,
1000
0000
1100
0000
0101
0000
0001
0010
,
0100
2000
0000
0000
3010
0000
0100
0000
,
0001
0000
0011
0000
1100
0000
1000
0001
,
0010
0200
0000
0000
0301
0000
0100
0000
,
1000
0000
1010
0000
0101
0000
0001
0010
,
1000
0200
0000
0000
0310
0000
1001
0000
,
1000
0010
0001
0010
1000
0000
0100
0020
,
0000
1030
0010
0001
0100
0000
1010
0000
,
0001
0100
1000
0100
0001
0000
0010
0200
,
0000
0301
0100
1000
0010
0000
0101
0000
,
1000
0100
0001
0010
0100
0000
0001
0200
,
0000
1300
0010
0100
1000
0100
0000
0010
,
0001
0010
1000
0100
0010
0000
1000
0020
,
0000
0031
0100
0010
0001
0010
1010
0000
,
1000
0100
0010
1000
0000
0010
0001
0100
,
0000
0110
0000
2002
0000
0000
3003
0000
,
0001
0010
0100
0001
0000
0100
1000
0010
,
0000
0101
0100
0000
0000
1010
0000
0000
,
1000
0100
0010
0002
0000
0000
0103
0000
,
1000
0100
0010
0002
0000
0000
0103
0000
,
1000
0100
0010
0001
0000
0101
0000
0101
,
0001
0010
0100
0001
0000
0100
1100
0000
,
0001
0100
0010
2000
0000
0000
3100
0000
,
0001
0100
0010
2000
0000
0100
3100
0000
,
0001
0100
0010
1000
0000
1100
0000
1100
,
1000
0010
0100
1000
0000
0100
0000
0101
,
0002
0023
0032
2003
,
3200
0000
2300
0000
3020
0000
0130
0001
,
2000
3020
0230
0302
,
1000
1003
0000
1010
0000
0101
0000
0000
,
0001
0010
0100
1000
0010
0000
0001
0000
,
0010
0100
0001
0010
0100
0000
0001
0000
,
0100
1000
0100
0010
0100
0000
1000
0000
,
0010
0100
1000
0100
0001
0000
0000
0000
,
0010
0100
0001
0100
1000
0000
0010
0000
,
0001
0010
0100
0001
0010
0000
1000
0000
,
0010
0100
1000
0010
0100
0000
1000
0000
,
0100
0001
0010
0100
1000
0000
0000
0000
,
1020
0100
0000
0130
,
0201
0000
0010
0000
0000
0000
0310
1000
,
0200
0001
0000
1300
,
1010
0010
0000
0100
0000
0001
0010
0100
,
2100
0000
0010
0000
0000
0000
3010
0100
,
0002
0000
0010
0000
0000
0000
0013
0100
,
2000
0000
0010
0000
0000
0000
3010
0010
,
0100
0001
0000
0011
0000
1100
0000
0000
,
1000
0010
0001
0010
0100
0000
0001
0000
,
1000
0100
0010
0100
0001
0100
1000
0000
,
0010
0100
1000
0100
0001
0000
0010
0000
,
1000
0010
0001
0010
0100
0010
0001
0000
,
0100
1000
0100
0001
0010
0000
0100
0000
,
1000
0010
0001
0010
0100
0010
1000
0000
,
0100
0001
0100
1000
0010
0000
0001
0000
,
1000
0100
0001
0010
0100
1000
0001
0000
,
0202
0000
0003
0000
,
0020
0300
2030
0001
,
3001
0000
0001
0100
1000
0000
0010
0000
,
0001
1000
0000
1010
0000
0101
0000
0000
,
0021
0000
0100
0000
0000
0000
0031
0010
,
0200
0000
1000
0000
0000
0000
0310
0100
,
2000
0010
0000
3001
,
0001
0100
0000
1100
0000
0011
0000
0000
,
0201
0000
1000
0000
0000
0000
0301
1000
,
0020
0000
0001
0000
0000
0000
1030
0001
,
0200
1000
0000
0310
,
0010
1000
0100
0001
0000
0110
0000
0000
,
1000
0010
0001
0100
2002
0000
3003
0000
;

//---------------dance-double - ----------------
#NOTEDATA:;
#CHARTNAME:;
#STEPSTYPE:dance-double;
#DESCRIPTION:;
#CHARTSTYLE:;
#DIFFICULTY:Hard;
#METER:12;
#RADARVALUES:0.522274,0.593402,0.328798,0.352284,0.000000,467.000000,425.000000,42.000000,45.000000,0.000000,0.000000,0.000000,0.000000,0.000000,0.522274,0.593402,0.328798,0.352284,0.000000,467.000000,425.000000,42.000000,45.000000,0.000000,0.000000,0.000000,0.000000,0.000000;
#CREDIT:MILEN;
#NOTES:
00000000
00000000
00000000
00000000
,
00000000
00000000
00000000
00000000
,
00000000
00000000
00000000
00000000
,
00000000
00000000
00000000
00000000
,
00000000
00000000
00000000
00000000
,
00000000
00000000
00000000
00000000
,
00000000
00000000
00001000
00010000
00100000
01000000
00100000
00000000
,
10000000
02000000
00000000
00000000
03010000
00000000
00001000
00000000
,
00011000
00000000
00010000
00001000
00000100
00000010
00000100
00000000
,
00000001
00000020
00000000
00000000
00001030
00000000
00010000
00000000
,
00011000
00000000
00001000
00000000
00100000
00000000
01000000
10000000
,
01000000
00020000
00000000
00000000
00031000
00000000
00010000
00000000
,
00011000
00000000
00010000
00000000
00000100
00000000
00000010
00000001
,
00000010
00002000
00000000
00000000
00013000
00000000
00001000
00000000
,
00101000
00000000
00001000
00000000
01000000
00000000
00100000
10000000
,
01000000
00020000
00000000
00000000
00031000
00000000
00010000
00000000
,
00010100
00000000
00010000
00000000
00000010
00000000
00000100
00000001
,
00000010
00002000
00000000
00000000
00013000
00000000
00001000
00000000
,
00011000
00000000
00010000
00001000
00000100
00000000
00001000
00000000
,
00010000
00000100
00000000
00000010
00000100
00000000
00001000
00000000
,
00000010
00000000
00000100
00000001
00000010
00000000
00001000
00000000
,
00010000
00001000
00000000
00010000
01000000
00000000
10000000
00000000
,
00100000
00000000
01000000
00010000
00100000
00000000
01000000
00000000
,
00010000
00001000
00000000
00010000
00100000
00000000
00010000
00000000
,
00001000
00000000
00000100
00000001
00000010
00000000
00000100
00000000
,
00001000
00000010
00000000
00001000
00000100
00000000
00010000
00000000
,
00001000
00000000
00011000
00000000
00110000
00000000
00100000
10000000
,
01000000
00200000
00000000
00000000
00301000
00000000
00010000
00000000
,
00000100
00000000
00010100
00000000
00011000
00000000
00001000
00000100
,
00000010
00002000
00000000
00000000
00003001
00000000
00000100
00000000
,
00000010
00000000
00010010
00000000
00011000
00000000
00001000
00010000
,
00100000
02000000
00000000
00000000
03010000
00000000
10000000
00000000
,
01000000
00000000
01100000
00000000
00101000
00000000
00001000
00010000
,
00000100
00002000
00000000
00000000
00003001
00000000
00001001
00000000
,
00000001
00000100
00001000
00010000
00100000
00000000
10000000
01000000
,
00000000
00100000
00010000
01000000
00010000
00000000
10000000
00000000
,
00100000
00010000
00001000
00000100
00000010
00000000
00000100
00000001
,
00000000
00000010
00000100
00001000
00000010
00000000
00010000
00000000
,
00001000
00010000
00100000
10000000
01000000
00000000
00100000
00010000
,
00000000
01000000
00001000
00010000
00000100
00001000
00000000
00000100
,
00001000
00000100
00000010
00000001
00000100
00000000
00001000
00010000
,
00000000
00001000
00100000
00010000
00100000
01000000
11000000
00000000
,
10000000
00100000
00010000
00001000
00000000
00100000
01000000
10000000
,
00000000
00100000
00000000
00022000
00000000
00000000
00033000
00000000
,
00010000
00001000
00000100
00000001
00000000
00000010
00000100
00001000
,
00000000
00000010
00010010
00000000
00000000
00101000
00000000
00000000
,
00001000
00010000
00100000
02000000
00000000
00000000
03000000
00000000
,
00001000
00010000
01000000
00200000
00000000
00000000
00300000
00000000
,
00001000
00010000
00100000
01000000
00000000
01100000
00000000
01100000
,
10000000
01000000
00010000
00001000
00000000
00010000
00011000
00000000
,
00010000
00001000
00000100
00000020
00000000
00000000
00000030
00000000
,
00010000
00001000
00000010
00000200
00000000
00000000
00000300
00000000
,
00010000
00001000
00000100
00000010
00000000
00000110
00000000
00000110
,
00000001
00000010
00001000
00010000
00000000
00001000
00000000
00011000
,
00020000
00230000
20300000
32000000
,
03020000
00000000
00032000
00000000
00003020
00000000
00000031
00000100
,
00000020
00020030
00032000
00203000
,
01300000
01000000
00000000
11000000
00000000
00110000
00000000
00000000
,
00010000
01000000
00001000
00000000
00010000
00000000
00000100
00000000
,
00001000
00000100
00000010
00000000
00000001
00000000
00001000
00000000
,
00000010
00010000
00001000
00000000
00100000
00000000
01000000
00000000
,
10000000
00100000
00010000
00000000
00011000
00000000
00000000
00000000
,
00001000
00100000
01000000
00000000
10000000
00000000
00010000
00000000
,
01000000
00001000
00010000
00000000
00000100
00000000
00000010
00000000
,
00000001
00000010
00001000
00000000
00010000
00000000
00000100
00000000
,
00001000
00000010
00010000
00000000
00011000
00000000
00000000
00000000
,
01002000
01000000
00000000
00013000
,
00020100
00000000
00000100
00000000
00000000
00000000
00031000
00010000
,
02000000
10000000
00000000
03100000
,
00110000
00010000
00000000
01000000
00000000
00001000
00010000
00000100
,
00020100
00000000
00000100
00000000
00000000
00000000
00031000
00010000
,
00000020
00000000
00000100
00000000
00000000
00000000
00000130
00000010
,
00002000
00000000
00000001
00000000
00000000
00000000
00003001
00000001
,
00000100
00001000
00000000
00011000
00000000
01010000
00000000
00000000
,
10000000
00100000
01000000
00010000
10000000
00000000
00100000
00000000
,
00010000
00001000
00100000
01000000
00010000
00000000
00001000
00000000
,
00000010
00000100
00001000
00000100
00000001
00000000
00001000
00000000
,
00000010
00000001
00000100
00001000
00000100
00000000
00000010
00000000
,
00010000
00001000
00100000
01000000
10000000
00000000
00100000
00000000
,
00010000
00100000
01000000
00100000
10000000
00000000
01000000
00000000
,
00010000
00001000
00000100
00001000
01000000
00000000
00010000
00000000
,
00100000
00001000
00010000
00000100
00000010
00000001
00000100
00000000
,
00002020
00000000
00003000
00000000
,
00020030
00000000
00230000
10000000
,
10300000
00000000
10000000
01000000
00010000
00000000
00001000
00000000
,
00100000
01000000
00000000
00010000
00000000
00010100
00000000
00000000
,
00000120
00000000
00001000
00000000
00000000
00000000
00000031
00000010
,
00002000
00000000
00010000
00000000
00000000
00000000
00103000
00001000
,
02000000
00100000
00000000
13000000
,
01000000
00010000
00000000
00100000
00000000
10010000
00000000
00000000
,
12000000
00000000
00010000
00000000
00000000
00000000
13000000
01000000
,
00200000
00000000
00010000
00000000
00000000
00000000
01300000
00100000
,
00002000
00010000
00000000
00003010
,
00000010
00000001
00000100
00001000
00000000
00011000
00000000
00000000
,
00100000
10000000
01000000
00010000
00022000
00000000
00033000
00000000
;

//---------------dance-single - ----------------
#NOTEDATA:;
#CHARTNAME:;
#STEPSTYPE:dance-single;
#DESCRIPTION:;
#CHARTSTYLE:;
#DIFFICULTY:Beginner;
#METER:4;
#RADARVALUES:0.157689,0.221939,0.031314,0.000000,0.000000,141.000000,137.000000,4.000000,0.000000,0.000000,0.000000,0.000000,0.000000,0.000000,0.157689,0.221939,0.031314,0.000000,0.000000,141.000000,137.000000,4.000000,0.000000,0.000000,0.000000,0.000000,0.000000,0.000000;
#CREDIT:MILEN;
#NOTES:
0000
0000
0000
0000
,
0000
0000
0000
0000
,
0000
0000
0000
0000
,
0000
0000
0000
0000
,
0000
0000
0000
0000
,
0000
0000
0000
0000
,
0000
1000
0000
1000
,
0000
0000
0000
0000
,
0000
0001
0000
0001
,
0000
0000
0000
0000
,
0000
1000
0000
1000
,
1000
0000
0000
0000
,
0000
0001
0000
0001
,
0001
0000
0000
0000
,
0000
1000
0000
1000
,
1000
0000
0000
0000
,
0000
0001
0000
0001
,
0001
0000
0000
0000
,
0000
1000
0000
0100
,
0000
0000
0000
1000
,
0000
0001
0000
0010
,
0000
0000
0000
0001
,
0000
1000
0000
0010
,
0000
0000
0000
1000
,
0000
0001
0000
0100
,
0000
0000
0000
0000
,
0000
0001
0000
0100
,
0100
0000
0000
0000
,
0000
0001
0000
0010
,
0010
0000
0000
0000
,
0000
1000
0000
0100
,
0100
0000
0000
0000
,
0000
1000
0000
0010
,
0010
0000
0000
1001
,
0001
0000
0001
0000
,
0100
0000
0000
0000
,
1000
0000
1000
0000
,
0010
0000
0000
0000
,
0001
0000
0001
0000
,
0010
0000
0000
0000
,
1000
0000
1000
0000
,
0100
0000
0000
0000
,
0001
0000
1000
0000
,
0001
0000
1000
0000
,
0010
0000
0100
0000
,
0010
0000
0100
0000
,
0001
0000
0000
0000
,
0100
0000
0000
0000
,
1000
0000
0000
0000
,
0010
0000
0000
0000
,
0001
0000
0001
0000
,
0100
0000
0100
0000
,
1000
0000
1000
0000
,
0010
0000
0010
0000
,
0001
0000
0000
0000
,
1000
0000
0000
0000
,
0010
0000
0000
0000
,
0100
0000
0000
0000
,
0010
0000
0010
0000
,
1000
0000
0000
0000
,
0010
0000
0010
0000
,
0001
0000
0000
0000
,
0100
0000
0100
0000
,
1000
0000
0000
0000
,
0100
0000
0100
0000
,
0001
0000
0000
0000
,
1001
0000
0000
0000
,
0000
0000
0000
0100
,
0100
0000
0000
0000
,
0010
0000
0100
0000
,
0010
0000
0000
0000
,
0100
0000
0000
0000
,
0010
0000
0000
0000
,
0100
0000
0010
0000
,
0100
0100
0100
0000
,
0001
0000
0000
0000
,
0010
0010
0010
0000
,
1000
0000
0000
0000
,
0010
0010
0010
0000
,
0001
0000
0000
0000
,
0100
0100
0100
0000
,
1000
0000
0000
0000
,
1001
0000
0000
0000
,
0000
0000
0000
0010
,
0010
0000
0000
0000
,
0100
0000
0010
0000
,
0100
0000
0001
0000
,
1000
0000
0010
0000
,
0100
0000
0010
0000
,
1000
0000
0001
0000
,
1001
0000
0000
0100
,
0100
0000
0000
0010
,
0010
0000
0000
0000
,
1000
0000
0001
0000
,
0010
0010
0010
0000
;

//---------------dance-single - ----------------
#NOTEDATA:;
#CHARTNAME:;
#STEPSTYPE:dance-single;
#DESCRIPTION:;
#CHARTSTYLE:;
#DIFFICULTY:Easy;
#METER:5;
#RADARVALUES:0.194595,0.296701,0.078285,0.187885,0.000000,174.000000,164.000000,10.000000,24.000000,0.000000,0.000000,0.000000,0.000000,0.000000,0.194595,0.296701,0.078285,0.187885,0.000000,174.000000,164.000000,10.000000,24.000000,0.000000,0.000000,0.000000,0.000000,0.000000;
#CREDIT:MILEN;
#NOTES:
0000
0000
0000
0000
,
0000
0000
0000
0000
,
0000
0000
0000
0000
,
0000
0000
0000
0000
,
0000
0000
0000
0000
,
0000
0000
0000
0000
,
0000
1000
0000
1000
,
0000
0001
0000
0001
,
0000
1000
0000
0001
,
0000
1000
0000
0001
,
0000
1001
0000
1000
,
1000
0000
0000
0000
,
0000
1001
0000
0001
,
0001
0000
0000
0000
,
0000
1001
0000
1000
,
0001
0000
0000
0000
,
0000
1001
0000
0001
,
1000
0000
0000
0010
,
0010
0010
0000
0100
,
0000
0001
0000
1000
,
0000
0010
0000
0100
,
0000
0001
0000
1000
,
0000
0100
0000
0010
,
0000
0001
0000
1000
,
0000
0100
0000
0010
,
0000
0001
0000
1000
,
0000
1001
0000
0010
,
0010
0000
0000
0000
,
0000
1001
0000
0100
,
0100
0000
0000
0000
,
0000
1001
0000
0010
,
0100
0000
0000
0000
,
0000
1001
0000
0100
,
0010
0000
0000
0110
,
0100
0000
0001
0000
,
0100
0000
0001
0000
,
1000
0000
0010
0000
,
1000
0000
0010
0000
,
0100
0000
0001
0000
,
1000
0000
0010
0000
,
0100
0000
0010
0000
,
1000
0000
0001
0000
,
0100
0000
0100
0000
,
0100
0100
0100
0000
,
0010
0000
0010
0000
,
0010
0010
0010
0000
,
2000
0000
3000
0000
,
0002
0000
0003
0000
,
2000
0000
3000
0000
,
0002
0000
0003
0000
,
0200
0000
0300
0000
,
0020
0000
0030
0000
,
0200
0000
0300
0000
,
0020
0000
0030
0000
,
0100
0000
0001
0000
,
0010
0000
0000
0000
,
0100
0000
1000
0000
,
0010
0000
0000
0000
,
0100
0001
0100
0000
,
0010
0000
0010
0000
,
0010
1000
0010
0000
,
0100
0000
0100
0000
,
0100
0001
1000
0000
,
0001
0000
1000
0000
,
0010
1000
0001
0000
,
1000
0000
0001
0000
,
2000
0000
3000
0000
,
0200
0000
0300
0000
,
0020
0000
0030
0000
,
0002
0000
0003
0000
,
0200
0000
0300
0000
,
0020
0000
0030
0000
,
0200
0000
0300
0000
,
0010
1000
0001
0100
,
0010
0010
1000
0000
,
0100
0000
1000
0000
,
0100
0100
0001
0000
,
0100
0000
0001
0000
,
0010
0010
0001
0000
,
0010
0000
0001
0000
,
0010
0010
1000
0000
,
0010
0000
1000
0000
,
0002
0000
0003
0000
,
0020
0000
0030
0000
,
0200
0000
0300
0000
,
2000
0000
3000
0000
,
0020
0000
0030
0000
,
0200
0000
0300
0000
,
0020
0000
0030
0000
,
0100
0010
0100
0100
,
0001
0000
0010
0000
,
0001
0000
0010
0000
,
1000
0000
0100
0000
,
1000
0000
0100
0000
,
0001
1000
2002
3003
;

//---------------dance-single - ----------------
#NOTEDATA:;
#CHARTNAME:;
#STEPSTYPE:dance-single;
#DESCRIPTION:;
#CHARTSTYLE:;
#DIFFICULTY:Medium;
#METER:8;
#RADARVALUES:0.335508,0.407964,0.148742,0.266170,0.000000,300.000000,281.000000,19.000000,34.000000,0.000000,0.000000,0.000000,0.000000,0.000000,0.335508,0.407964,0.148742,0.266170,0.000000,300.000000,281.000000,19.000000,34.000000,0.000000,0.000000,0.000000,0.000000,0.000000;
#CREDIT:MILEN;
#NOTES:
0000
0000
0000
0000
,
0000
0000
0000
0000
,
0000
0000
0000
0000
,
0000
0000
0000
0000
,
0000
0000
0000
0000
,
0000
0000
0000
0000
,
0000
1000
0100
1000
,
0000
0100
0000
1000
,
0000
0001
0010
0001
,
0000
0010
0000
0001
,
0000
1001
0000
0010
,
0100
0020
0000
0030
,
0000
1001
0000
0100
,
0010
0200
0000
0300
,
0000
1001
0000
0001
,
0100
0020
0000
0030
,
0000
1001
0000
1000
,
0010
0200
0300
0010
,
0010
1000
0001
0100
,
0000
0001
0000
1000
,
0000
0001
1000
0010
,
0000
1000
0000
0001
,
0000
1000
0100
0010
,
0000
0001
0000
1000
,
0000
0001
0010
0100
,
0000
1000
0000
0001
,
0000
1001
1000
0001
,
0100
0100
0000
1000
,
0000
1001
0001
1000
,
0010
0010
0000
0001
,
0000
0101
1000
0100
,
0100
0010
0000
0001
,
0000
1010
0001
0010
,
0010
0100
0000
1001
,
1000
0100
1000
0000
,
0100
0100
2000
3000
,
0001
0010
0001
0000
,
0010
0010
0002
0003
,
1000
0010
1000
0000
,
0010
0010
2000
3000
,
0001
0100
0001
0000
,
0100
0100
0002
0003
,
1000
0001
1000
0000
0001
0000
0100
0000
,
1000
0000
0001
0000
,
0001
1000
0001
0000
1000
0000
0010
0000
,
0001
0000
1001
0000
0000
1001
0000
0000
,
1000
0000
0010
2000
0000
0000
3000
0000
,
0010
0000
1000
0020
0000
0000
0030
0000
,
1000
0000
0010
2000
0000
3001
0000
0000
,
1000
0000
0010
2000
0000
0001
3001
0000
,
0001
0000
0100
0002
0000
0000
0003
0000
,
0100
0000
0001
0200
0000
0001
0301
0000
,
0001
0000
0100
0002
0000
1003
0000
0000
,
0001
0000
0100
0002
0000
0000
1003
0000
,
1001
0010
0100
0000
,
1001
0100
0010
0000
,
1000
0001
0100
0000
,
0001
0000
1000
0000
0010
0100
0010
0000
,
1000
0000
0100
0000
0010
0000
0000
0001
,
0000
0100
0001
0000
0010
0000
0000
0000
,
0001
0000
0010
0000
0100
0000
0000
1000
,
0000
0010
1000
0000
0100
0000
0000
0000
,
1000
0000
0001
0000
0100
0000
0000
1000
,
0000
0001
0100
0000
0010
0000
0000
0000
,
1000
0000
0001
0000
0010
0000
0000
1000
,
0000
0001
0010
0000
0100
0000
0010
0000
,
0210
0000
0001
0000
,
1000
0000
0301
0100
,
0020
0000
0001
0000
,
1030
0100
0010
0001
,
2001
0000
3010
0100
,
1002
0000
0103
0010
,
2001
0000
3010
0100
,
0001
1000
0001
0100
0000
0100
0000
0000
,
0010
0000
1000
0000
0100
0000
0000
1000
,
0000
0001
1000
0000
0100
0000
0000
0000
,
0010
0000
0001
0000
0100
0000
0000
0001
,
0000
1000
0001
0000
0010
0000
0000
0000
,
0001
0000
0100
0000
0010
0000
0000
1000
,
0000
0010
0100
0000
0010
0000
0000
0000
,
1000
0000
0100
0000
0010
0000
0000
0001
,
0000
0010
0100
0000
0010
0000
0110
0000
,
2000
0000
3010
1000
,
0020
0000
0130
0001
,
0200
0000
0301
0010
,
0002
0000
1003
0100
,
2000
0000
3100
0010
,
0002
0000
0013
0100
,
2000
0000
3010
0100
,
0001
1000
0001
1001
,
2000
0000
3100
0001
,
0200
0000
0301
0010
,
0002
0000
0013
1000
,
0020
0000
1030
0001
,
0100
0010
0100
0020
0200
0000
0330
0000
;

//---------------dance-double - ----------------
#NOTEDATA:;
#CHARTNAME:;
#STEPSTYPE:dance-double;
#DESCRIPTION:;
#CHARTSTYLE:;
#DIFFICULTY:Easy;
#METER:5;
#RADARVALUES:0.187885,0.259613,0.078285,0.187885,0.000000,168.000000,158.000000,10.000000,24.000000,0.000000,0.000000,0.000000,0.000000,0.000000,0.187885,0.259613,0.078285,0.187885,0.000000,168.000000,158.000000,10.000000,24.000000,0.000000,0.000000,0.000000,0.000000,0.000000;
#CREDIT:MILEN;
#NOTES:
00000000
00000000
00000000
00000000
,
00000000
00000000
00000000
00000000
,
00000000
00000000
00000000
00000000
,
00000000
00000000
00000000
00000000
,
00000000
00000000
00000000
00000000
,
00000000
00000000
00000000
00000000
,
00000000
00001000
00000000
00001000
,
00000000
00010000
00000000
00010000
,
00000000
00001000
00000000
00010000
,
00000000
00001000
00000000
00010000
,
00000000
00011000
00000000
00000010
,
00000010
00000000
00000000
00000000
,
00000000
00011000
00000000
00100000
,
00100000
00000000
00000000
00000000
,
00000000
00011000
00000000
00000100
,
00000100
00000000
00000000
00000000
,
00000000
00011000
00000000
01000000
,
01000000
00000000
00000000
00001000
,
00010000
00001000
00000000
00100000
,
00000000
00010000
00000000
01000000
,
00000000
00001000
00000000
00100000
,
00000000
00010000
00000000
01000000
,
00000000
00000100
00000000
00001000
,
00000000
00000010
00000000
00010000
,
00000000
00000100
00000000
00001000
,
00000000
00000010
00000000
00010000
,
00000000
00011000
00000000
00100000
,
01000000
00000000
00000000
00000000
,
00000000
00011000
00000000
00000100
,
00000010
00000000
00000000
00000000
,
00000000
00011000
00000000
01000000
,
00100000
00000000
00000000
00000000
,
00000000
00011000
00000000
00000010
,
00000100
00000000
00000000
00011000
,
00001000
00000000
00010000
00000000
,
01000000
00000000
10000000
00000000
,
01000000
00000000
00010000
00000000
,
00001000
00000000
00010000
00000000
,
00001000
00000000
00000010
00000000
,
00000001
00000000
00000010
00000000
,
00001000
00000000
00010000
00000000
,
00001000
00000000
00010000
00000000
,
01000000
00000000
10000000
00000000
,
00100000
00000000
00010000
00000000
,
00001000
00000000
00000100
00000000
,
00000001
00000000
00000010
00000000
,
00002000
00000000
00003000
00000000
,
00020000
00000000
00030000
00000000
,
00000020
00000000
00000030
00000000
,
00020000
00000000
00030000
00000000
,
00002000
00000000
00003000
00000000
,
00200000
00000000
00300000
00000000
,
00002000
00000000
00003000
00000000
,
00020000
00000000
00030000
00000000
,
01000000
00000000
10000000
00000000
,
00100000
00000000
00000000
00000000
,
00010000
00000000
00001000
00000000
,
00000100
00000000
00000000
00000000
,
00000001
00000010
00000001
00000000
,
00000010
00000000
00001000
00000000
,
00010000
00001000
00010000
00000000
,
01000000
00000000
10000000
00000000
,
00100000
01000000
00100000
00000000
,
00010000
00000000
00001000
00000000
,
00000100
00000001
00000100
00000000
,
00000010
00000000
00010000
00000000
,
00002000
00000000
00003000
00000000
,
00200000
00000000
00300000
00000000
,
02000000
00000000
03000000
00000000
,
20000000
00000000
30000000
00000000
,
00200000
00000000
00300000
00000000
,
00020000
00000000
00030000
00000000
,
00002000
00000000
00003000
00000000
,
00100000
00010000
01000000
00001000
,
00010000
00000000
00000100
00000000
,
00000010
00000000
00000001
00000000
,
00000100
00000000
00001000
00000000
,
00010000
00000000
00100000
00000000
,
10000000
00000000
01000000
00000000
,
00100000
00000000
00010000
00000000
,
01000000
00000000
00001000
00000000
,
00010000
00000000
00000100
00000000
,
00000020
00000000
00000030
00000000
,
00000002
00000000
00000003
00000000
,
00000200
00000000
00000300
00000000
,
00002000
00000000
00003000
00000000
,
00020000
00000000
00030000
00000000
,
00200000
00000000
00300000
00000000
,
20000000
00000000
30000000
00000000
,
01000000
00100000
00010000
01000000
,
00001000
00000000
00010000
00000000
,
00000100
00000000
00001000
00000000
,
00000010
00000000
00010000
00000000
,
00001000
00000000
00100000
00000000
,
00010000
10000000
20020000
30030000
;

//---------------dance-double - ----------------
#NOTEDATA:;
#CHARTNAME:;
#STEPSTYPE:dance-double;
#DESCRIPTION:;
#CHARTSTYLE:;
#DIFFICULTY:Medium;
#METER:8;
#RADARVALUES:0.333271,0.407964,0.133085,0.266170,0.000000,298.000000,281.000000,17.000000,34.000000,0.000000,0.000000,0.000000,0.000000,0.000000,0.333271,0.407964,0.133085,0.266170,0.000000,298.000000,281.000000,17.000000,34.000000,0.000000,0.000000,0.000000,0.000000,0.000000;
#CREDIT:MILEN;
#NOTES:
// measure 0
00000000
00000000
00000000
00000000
,  // measure 1
00000000
00000000
00000000
00000000
,  // measure 2
00000000
00000000
00000000
00000000
,  // measure 3
00000000
00000000
00000000
00000000
,  // measure 4
00000000
00000000
00000000
00000000
,  // measure 5
00000000
00000000
00000000
00000000
,  // measure 6
00000000
00001000
00010000
00001000
,  // measure 7
00000000
01000000
00000000
00001000
,  // measure 8
00000000
00010000
00001000
00010000
,  // measure 9
00000000
00000010
00000000
00010000
,  // measure 10
00000000
00011000
00000000
00001000
,  // measure 11
00100000
00020000
00000000
00030000
,  // measure 12
00000000
10010000
00000000
00010000
,  // measure 13
01000000
00002000
00000000
00003000
,  // measure 14
00000000
00011000
00000000
00010000
,  // measure 15
00000010
00002000
00000000
00003000
,  // measure 16
00000000
00001001
00000000
00001000
,  // measure 17
00000100
00020000
00030000
00001000
,  // measure 18
00001000
00010000
01000000
10000000
,  // measure 19
00000000
01000000
00000000
00010000
,  // measure 20
00000000
00001000
00000010
00000001
,  // measure 21
00000000
00000010
00000000
00001000
,  // measure 22
00000000
00010000
00100000
10000000
,  // measure 23
00000000
00100000
00000000
00010000
,  // measure 24
00000000
00001000
00000100
00000001
,  // measure 25
00000000
00000100
00000000
00001000
,  // measure 26
00000000
00011000
00010000
00000100
,  // measure 27
00001000
00000010
00000000
00010000
,  // measure 28
00000000
00011000
00001000
00100000
,  // measure 29
00010000
01000000
00000000
00001000
,  // measure 30
00000000
00101000
00100000
00010000
,  // measure 31
01000000
00001000
00000000
00010000
,  // measure 32
00000000
00010100
00000100
00001000
,  // measure 33
00000010
00010000
00000000
00011000
,  // measure 34
00001000
00100000
00010000
00000000
,  // measure 35
00100000
01000000
20000000
30000000
,  // measure 36
00100000
00010000
00001000
00000000
,  // measure 37
00010000
00000100
00002000
00003000
,  // measure 38
00000100
00000010
00000001
00000000
,  // measure 39
00000100
00000010
00020000
00030000
,  // measure 40
00001000
01000000
00010000
00000000
,  // measure 41
01000000
00100000
20000000
30000000
,  // measure 42
01000000
00100000
01000000
00000000
00010000
00000000
00001000
00000000
,  // measure 43
00000010
00000000
00000100
00000000
,  // measure 44
00000010
00000100
00000010
00000000
00001000
00000000
00010000
00000000
,  // measure 45
00001000
00000000
01001000
00000000
00000000
00010100
00000000
00000000
,  // measure 46
00010000
00000000
00001000
00000200
00000000
00000000
00000300
00000000
,  // measure 47
00000001
00000000
00000010
00002000
00000000
00000000
00003000
00000000
,  // measure 48
00010000
00000000
00100000
20000000
00000000
31000000
00000000
00000000
,  // measure 49
01000000
00000000
00010000
00002000
00000000
00010000
00013000
00000000
,  // measure 50
00010000
00000000
01000000
20000000
00000000
00000000
30000000
00000000
,  // measure 51
00100000
00000000
00010000
00002000
00000000
00000010
00003010
00000000
,  // measure 52
00000010
00000000
00000001
00000200
00000000
00001300
00000000
00000000
,  // measure 53
00001000
00000000
00010000
02000000
00000000
00000000
13000000
00000000
,  // measure 54
10010000
00010000
01000000
00000000
,  // measure 55
10010000
10000000
00100000
00000000
,  // measure 56
00010000
00001000
00000010
00000000
,  // measure 57
00001000
00000000
00010000
00000000
00100000
01000000
00100000
00000000
,  // measure 58
00010000
00000000
00001000
00000000
00000100
00000000
00000000
00000001
,  // measure 59
00000000
00000010
00000001
00000000
00000100
00000000
00000000
00000000
,  // measure 60
00001000
00000000
00010000
00000000
00100000
00000000
00000000
10000000
,  // measure 61
00000000
01000000
10000000
00000000
00100000
00000000
00000000
00000000
,  // measure 62
00010000
00000000
00001000
00000000
00100000
00000000
00000000
01000000
,  // measure 63
00000000
00010000
00001000
00000000
00000010
00000000
00000000
00000000
,  // measure 64
00000100
00000000
00010000
00000000
00001000
00000000
00000000
00000100
,  // measure 65
00000000
00000001
00000010
00000000
00001000
00000000
00010000
00000000
,  // measure 66
00012000
00000000
00100000
00000000
,  // measure 67
00000010
00000000
00103000
00001000
,  // measure 68
00020000
00000000
00000010
00000000
,  // measure 69
00130000
10000000
01000000
00010000
,  // measure 70
00012000
00000000
00103000
01000000
,  // measure 71
20000000
00000000
30100000
00010000
,  // measure 72
00002000
00000000
00003100
00000001
,  // measure 73
00000010
00000100
00000010
00001000
00000000
00001000
00000000
00000000
,  // measure 74
00010000
00000000
01000000
00000000
10000000
00000000
00000000
00100000
,  // measure 75
00000000
10000000
01000000
00000000
00010000
00000000
00000000
00000000
,  // measure 76
00001000
00000000
00000010
00000000
00000001
00000000
00000000
00000100
,  // measure 77
00000000
00000001
00000010
00000000
00001000
00000000
00000000
00000000
,  // measure 78
00010000
00000000
01000000
00000000
00100000
00000000
00000000
00001000
,  // measure 79
00000000
00010000
00000100
00000000
00000010
00000000
00000000
00000000
,  // measure 80
00000001
00000000
00000100
00000000
00001000
00000000
00000000
00010000
,  // measure 81
00000000
00100000
10000000
00000000
01000000
00000000
01100000
00000000
,  // measure 82
00020000
00000000
01030000
00001000
,  // measure 83
00020000
00000000
00030100
00001000
,  // measure 84
00000020
00000000
00010030
00001000
,  // measure 85
00000200
00000000
00000301
00000010
,  // measure 86
00002000
00000000
00013000
01000000
,  // measure 87
20000000
00000000
30100000
00010000
,  // measure 88
00002000
00000000
00103000
01000000
,  // measure 89
00010000
00001000
00010000
00011000
,  // measure 90
00000200
00000000
00001300
00000100
,  // measure 91
00000020
00000000
00000031
00000100
,  // measure 92
00002000
00000000
00013000
00100000
,  // measure 93
20000000
00000000
31000000
00010000
,  // measure 94
00001000
00010000
00001000
00020000
00002000
00000000
00033000
00000000
;
