#TITLE:KABOOOOOM!!!!;
#SUBTITLE:;
#ARTIST:t+pazolite;
#TITLETRANSLIT:;
#SUBTITLETRANSLIT:;
#ARTISTTRANSLIT:;
#GENRE:VARIETY;
#CREDIT:;
#BANNER:KABOOOOOM!!!!.png;
#BACKGROUND:KABOOOOOM!!!!-bg.png;
#LYRICSPATH:;
#CDTITLE:;
#MUSIC:KABOOOOOM!!!!.mp3;
#OFFSET:-0.086000;
#SAMPLESTART:92.623245;
#SAMPLELENGTH:10.798707;
#SELECTABLE:YES;
#DISPLAYBPM:88.000000:175.000000;
#BPMS:0.000000=174.990005,58.000000=87.495003,66.000000=174.990005;
#STOPS:66.000000=0.171,66.500000=0.171,67.000000=0.171,163.000000=0.171;
#BGCHANGES:;
#KEYSOUNDS:;
#ATTACKS:;

//---------------dance-single - ----------------
#NOTES:
     dance-single:
     :
     Hard:
     12:
     0.532986,0.627811,0.418936,0.094853,0.000000,472.000000,419.000000,53.000000,12.000000,0.000000,0.000000,0.532986,0.627811,0.418936,0.094853,0.000000,472.000000,419.000000,53.000000,12.000000,0.000000,0.000000:
0000
0000
0000
0000
,
0000
0000
0000
0000
,
0000
0000
0000
0000
,
0000
0000
0000
0000
,
0000
0000
0000
0000
,
0000
0000
0000
0000
,
0000
0000
0000
0000
,
0000
0000
0000
0000
,
0000
0000
0001
0100
,
0001
0100
0010
1000
,
0010
1000
0001
0010
,
0001
0010
0100
1000
,
0100
1000
0010
0100
,
0010
0100
0001
1000
,
0001
1000
2002
0000
,
0000
0000
0000
0000
,
0000
0000
0000
3003
0010
0010
0010
0010
,
0100
0110
0000
0010
0000
1000
0001
1000
,
0001
0100
1000
0010
1000
0100
1000
0010
,
1000
0100
0000
0100
0000
0001
1000
0001
,
1000
0010
0001
0100
0001
0010
0001
0100
,
0001
0010
0000
0010
0000
1000
0001
1000
,
0001
0100
1000
0001
1000
0100
1000
0001
,
1000
0010
0001
1000
0001
0010
0001
1000
,
0001
0100
1000
0001
1000
0010
0001
1000
,
0001
0100
0000
0100
0000
0010
0100
0010
,
0100
1000
1010
0000
0011
0000
1010
0000
,
1001
0000
0000
0010
0000
0100
0010
0100
,
0010
0001
0101
0000
1100
0000
0101
0000
,
1001
0000
0000
0100
0000
0010
0100
0010
,
0100
1000
0010
0001
0010
1000
0100
0001
,
0100
1000
0010
0001
0010
1000
0010
0001
,
0010
1000
0100
0001
0100
1000
0100
0001
,
0100
1100
0000
1000
0000
0010
0000
0100
,
0000
0101
0000
0001
0000
0100
0000
0010
,
0000
1010
0000
1000
0000
0100
0000
0010
,
0000
0011
0000
0001
0000
0100
0000
0010
,
0000
1010
0000
1000
0000
1100
0000
0100
,
0000
0101
0000
0001
0000
0011
0000
0010
,
0000
0100
0001
1000
0010
0100
0001
1000
,
0010
0220
0000
0000
0000
0000
0330
0000
,
1001
0000
1000
0100
0010
0000
1000
0100
,
0001
0000
1000
0100
0010
0000
1000
0100
,
0001
0000
0001
0010
0100
0000
0001
0010
,
1000
0000
0001
0010
0100
0000
0001
0010
,
1001
0000
1000
0010
0001
0000
1000
0100
,
0001
0000
0001
0010
1000
0000
0001
0100
,
1000
0000
1000
0010
0100
0000
0001
0100
,
0110
1010
0101
1001
,
0001
0100
0001
0100
1000
0100
1000
0100
,
0001
0010
0001
0010
1000
0010
1000
0010
,
0001
0100
1000
0100
0001
0010
1000
0010
,
0001
1000
0100
0001
1000
0010
1001
0000
,
1000
0100
0001
0100
1000
0010
0001
0010
,
1000
0001
0100
1000
0001
0010
1000
0100
,
0001
1000
0010
0001
1001
0000
0110
0000
,
2002
0000
0000
3003
,
1010
0000
0101
0000
0001
0010
0100
0001
,
0100
0000
1000
0000
0010
0100
0010
1000
,
0100
0000
0001
0000
0100
0010
0001
0100
,
1000
0000
0100
0000
0010
1000
0010
0100
,
0001
0000
0010
0000
1000
0010
0100
1000
,
1100
0110
0011
1001
,
0110
0000
0001
0100
1000
0000
1000
0010
,
0002
0000
0000
2003
0000
0000
3010
0010
,
0100
0001
0100
1000
0100
0001
0010
0100
,
0001
0100
1000
0010
0001
0010
0110
0000
,
0100
0001
0010
1000
0010
0100
1000
0010
,
0001
0010
0100
1000
0100
0010
0110
0000
,
0100
0001
0010
1000
0010
0100
0001
0100
,
1000
0010
0100
1000
0100
0001
0010
0001
,
1000
0100
1000
0010
0001
0010
0100
0010
,
1000
1001
0000
0110
0000
1001
0000
0010
,
0100
0101
0000
0001
0000
0011
0000
0100
,
0000
1100
0000
1000
0000
1010
0000
0001
,
0000
0011
0000
0010
0000
1010
0000
0001
,
0000
0101
0000
0100
0000
1100
0000
0010
,
0010
0100
0001
0010
0100
0001
0100
0010
,
0001
1000
0100
0010
1000
0010
0100
1000
,
0010
0001
1000
0100
0001
0010
0100
1000
,
1010
0101
2002
0000
,
0000
0000
0000
0000
,
0000
0000
0000
0000
,
0000
0000
0000
0000
,
0000
3003
0220
0000
,
0000
0000
0000
0000
,
0000
0000
0000
0000
,
0000
0000
0000
0000
,
0000
0330
0000
0000
;

//---------------dance-double - ----------------
#NOTES:
     dance-double:
     :
     Hard:
     12:
     0.526211,0.627811,0.371509,0.094853,0.000000,466.000000,419.000000,47.000000,12.000000,0.000000,0.000000,0.526211,0.627811,0.371509,0.094853,0.000000,466.000000,419.000000,47.000000,12.000000,0.000000,0.000000:
// measure 0
00000000
00000000
00000000
00000000
,  // measure 1
00000000
00000000
00000000
00000000
,  // measure 2
00000000
00000000
00000000
00000000
,  // measure 3
00000000
00000000
00000000
00000000
,  // measure 4
00000000
00000000
00000000
00000000
,  // measure 5
00000000
00000000
00000000
00000000
,  // measure 6
00000000
00000000
00000000
00000000
,  // measure 7
00000000
00000000
00000000
00000000
,  // measure 8
00000000
00000000
01000000
00001000
,  // measure 9
01000000
00001000
00010000
00000100
,  // measure 10
00010000
00000100
00001000
00000010
,  // measure 11
00001000
00000010
00010000
00001000
,  // measure 12
00010000
00001000
00100000
00010000
,  // measure 13
00100000
00010000
10000000
01000000
,  // measure 14
00010000
00001000
00022000
00000000
,  // measure 15
00000000
00000000
00000000
00000000
,  // measure 16
00000000
00000000
00000000
00033000
00000100
00000100
00000100
00000100
,  // measure 17
00000010
00000100
00000000
00001000
00000000
00010000
01000000
00010000
,  // measure 18
01000000
00100000
10000000
00010000
01000000
00010000
10000000
00100000
,  // measure 19
01000000
01000000
00000000
00010000
00000000
00001000
00000100
00001000
,  // measure 20
00000100
00000010
00000001
00001000
00000100
00001000
00000001
00000010
,  // measure 21
00000100
00000100
00000000
00001000
00000000
00010000
00100000
00010000
,  // measure 22
00100000
01000000
10000000
00010000
00100000
00010000
10000000
01000000
,  // measure 23
00100000
00001000
00010000
00001000
01000000
00001000
00010000
00000010
,  // measure 24
00010000
00001000
00010000
00000100
00000010
00000001
00000100
00001000
,  // measure 25
00010000
01000000
00000000
10000000
00000000
00100000
01000000
00010000
,  // measure 26
00100000
01000000
11000000
00000000
00010000
00000000
00001010
00000000
,  // measure 27
00000100
00000000
00000000
00000001
00000000
00000010
00000100
00001000
,  // measure 28
00000010
00000100
00000101
00000000
00001000
00000000
00110000
00000000
,  // measure 29
01000000
00000000
00000000
10000000
00000000
00100000
01000000
00010000
,  // measure 30
10000000
01000000
00100000
00010000
00100000
00001000
00010000
00000100
,  // measure 31
00001000
00000100
00000010
00000001
00001000
00000010
00010000
00001000
,  // measure 32
00100000
00010000
01000000
00001000
00010000
00000100
00001000
00000010
,  // measure 33
00000100
00000101
00000000
00000001
00000000
00000100
00000000
00001000
,  // measure 34
00000000
00001100
00000000
00000100
00000000
00001000
00000000
00010000
,  // measure 35
00000000
00011000
00000000
00001000
00000000
00010000
00000000
00100000
,  // measure 36
00000000
00110000
00000000
00010000
00000000
00100000
00000000
10000000
,  // measure 37
00000000
10100000
00000000
00100000
00000000
01100000
00000000
01000000
,  // measure 38
00000000
01001000
00000000
00001000
00000000
00011000
00000000
00010000
,  // measure 39
00000000
00000100
00000010
00000001
00001000
00000100
00000010
00001000
,  // measure 40
00010000
00022000
00000000
00000000
00000000
00000000
00033000
00000000
,  // measure 41
00011000
00000000
00001000
00010000
01000000
00000000
10000000
01000000
,  // measure 42
00010000
00000000
00001000
00010000
01000000
00000000
10000000
01000000
,  // measure 43
00010000
00000000
00001000
00000010
00000001
00000000
00000010
00001000
,  // measure 44
00010000
00000000
00001000
00000010
00000001
00000000
00000010
00001000
,  // measure 45
00011000
00000000
00010000
00100000
10000000
00000000
10000000
01000000
,  // measure 46
00010000
00000000
00001000
00000010
00000001
00000000
00000001
00000100
,  // measure 47
00001000
00000000
00010000
00001000
00000010
00000000
00001000
00010000
,  // measure 48
01010000
11000000
10100000
00110000
,  // measure 49
00010000
00001000
00010000
00001000
00000010
00001000
00000010
00001000
,  // measure 50
00000010
00000001
00000010
00000001
00000100
00000001
00000100
00000001
,  // measure 51
00000100
00001000
00010000
00001000
00000100
00001000
00010000
00001000
,  // measure 52
00000100
00001000
00010000
00100000
10000000
01000000
11000000
00000000
,  // measure 53
10000000
01000000
10000000
01000000
00010000
01000000
00010000
01000000
,  // measure 54
00010000
00001000
00010000
00001000
00010000
01000000
00010000
00001000
,  // measure 55
00010000
01000000
00010000
00001000
00001100
00000000
00000101
00000000
,  // measure 56
00000022
00000000
00000000
00000033
,  // measure 57
00001001
00000000
00000110
00000000
00000010
00001000
00000100
00000010
,  // measure 58
00000001
00000000
00000100
00000000
00001000
00010000
00000100
00000010
,  // measure 59
00001000
00000000
00010000
00000000
00100000
10000000
01000000
00100000
,  // measure 60
00010000
00000000
01000000
00000000
00001000
00010000
00100000
00001000
,  // measure 61
00000010
00000000
00010000
00000000
00001000
00000100
00000001
00000010
,  // measure 62
00000110
00001100
00011000
01010000
,  // measure 63
01100000
00000000
00100000
10000000
01000000
00000000
00010000
00001000
,  // measure 64
00012000
00000000
00000000
00003020
00000000
00000000
00000031
00000001
,  // measure 65
00001000
00000010
00010000
00001000
00000100
00001000
00010000
01000000
,  // measure 66
00010000
00001000
00100000
01000000
10000000
00100000
01000000
00000000
,  // measure 67
00010000
00100000
10000000
00100000
01000000
10000000
00100000
00010000
,  // measure 68
00001000
00010000
00000100
00000010
00000001
00000100
00000010
00000000
,  // measure 69
00001000
00000100
00000001
00000100
00000010
00000001
00001000
00000010
,  // measure 70
00010000
00001000
00000100
00010000
01000000
00100000
10000000
00010000
,  // measure 71
00100000
01000000
00010000
00000100
00001000
00000010
00000100
00000001
,  // measure 72
00001000
00001010
00000000
00011000
00000000
00110000
00000000
00100000
,  // measure 73
10000000
11000000
00000000
00010000
00000000
00110000
00000000
00001000
,  // measure 74
00000000
00011000
00000000
00000100
00000000
00001100
00000000
00000001
,  // measure 75
00000000
00000011
00000000
00001000
00000000
00001010
00000000
00010000
,  // measure 76
00000000
00011000
00000000
01000000
00000000
01010000
00000000
10000000
,  // measure 77
10000000
01000000
00100000
00010000
01000000
00001000
00010000
00000100
,  // measure 78
00001000
00000010
00000100
00000001
00001000
00000100
00000010
00000001
,  // measure 79
00000100
00001000
00010000
00100000
10000000
01000000
00100000
00001000
,  // measure 80
00011000
00010100
02002000
00000000
,  // measure 81
00000000
00000000
00000000
00000000
,  // measure 82
00000000
00000000
00000000
00000000
,  // measure 83
00000000
00000000
00000000
00000000
,  // measure 84
00000000
03003000
00020020
00000000
,  // measure 85
00000000
00000000
00000000
00000000
,  // measure 86
00000000
00000000
00000000
00000000
,  // measure 87
00000000
00000000
00000000
00000000
,  // measure 88
00000000
00030030
00000000
00000000
;

//---------------dance-single - ----------------
#NOTES:
     dance-single:
     :
     Beginner:
     4:
     0.153572,0.233774,0.015809,0.007904,0.000000,136.000000,134.000000,2.000000,1.000000,0.000000,0.000000,0.153572,0.233774,0.015809,0.007904,0.000000,136.000000,134.000000,2.000000,1.000000,0.000000,0.000000:
0000
0000
0000
0000
,
0000
0000
0000
0000
,
0000
0000
0000
0000
,
0000
0000
0000
0000
,
0000
0000
0000
0000
,
0000
0000
0000
0000
,
0000
0000
0000
0000
,
0000
0000
0000
0000
,
0000
0000
1000
0000
,
0000
0000
1000
0000
,
0000
0000
0001
0000
,
0000
0000
0001
0000
,
0000
0000
1000
0000
,
0000
0000
0001
0000
,
0000
0000
1001
0000
,
0000
0000
0000
0000
,
0000
0000
0000
0000
,
0000
0100
0000
0000
0000
0100
0000
0000
,
0000
0100
0000
0000
0000
0100
0000
0000
,
0000
0010
0000
0000
0000
0010
0000
0000
,
0000
0010
0000
0000
0000
0010
0000
0000
,
0000
1000
0000
0000
0000
1000
0000
0000
,
0000
1000
0000
0000
0000
1000
0000
0000
,
0000
0001
0000
0000
0000
0001
0000
0000
,
0000
0001
0000
0000
0000
0001
0000
0000
,
0000
0100
0000
0000
0000
0010
0000
0000
,
0000
1000
0000
0000
0000
1000
0000
0000
,
0000
0010
0000
0000
0000
0100
0000
0000
,
0000
0001
0000
0000
0000
0001
0000
0000
,
0000
0010
0000
0000
0000
0100
0000
0000
,
0000
1000
0000
0000
0000
0001
0000
0000
,
0000
0010
0000
0000
0000
0100
0000
0000
,
0000
1000
0000
0000
0000
0010
0000
0000
,
0000
0100
0000
0000
0000
0000
0000
0000
,
0000
0100
0000
0000
0000
0000
0000
0000
,
0000
0100
0000
0000
0000
0000
0000
0000
,
0000
0100
0000
0000
0000
0000
0000
0000
,
0000
0100
0000
0000
0000
0100
0000
0000
,
0000
0100
0000
0000
0000
0100
0000
0000
,
0000
0100
0000
0100
0000
0100
0000
0100
,
0000
0100
0000
0000
0000
0000
0000
0000
,
0001
0000
1000
0000
,
0001
0000
1000
0000
,
0001
0000
1000
0000
,
0001
0000
1000
0000
,
0010
0000
0100
0000
,
0010
0000
0100
0000
,
0010
0000
0100
0000
,
0010
0010
0010
0010
,
0010
0000
1000
0000
,
0100
0000
0010
0000
,
0001
0000
0100
0000
,
0010
0000
1000
0000
,
0100
0000
0010
0000
,
0001
0000
0100
0000
,
0010
0000
1000
0000
,
0001
0000
0000
0000
,
0100
0000
0010
0000
,
0100
0100
0100
0000
,
0010
0000
0100
0000
,
0010
0010
0010
0000
,
1000
0000
0001
0000
,
0100
0000
0010
0000
,
1000
0000
0001
0000
,
0010
0000
0100
0000
,
1000
0000
0001
0000
,
1000
1000
1000
0000
,
0001
0000
1000
0000
,
0001
0001
0001
0000
,
0100
0000
0010
0000
,
1000
0000
0001
0000
,
0010
0000
0100
0000
,
1000
0000
0000
0000
,
0010
0000
0000
0000
,
0001
0000
0000
0000
,
0100
0000
0000
0000
,
1000
0000
0000
0000
,
0010
0000
0001
0000
,
0100
0000
1000
0000
,
0010
0000
0001
0000
,
0100
0100
0200
0000
,
0000
0000
0000
0000
,
0000
0000
0000
0000
,
0000
0000
0000
0000
,
0300
0000
1001
0000
;

//---------------dance-single - ----------------
#NOTES:
     dance-single:
     :
     Easy:
     6:
     0.261976,0.333963,0.118567,0.094853,0.000000,232.000000,217.000000,15.000000,12.000000,0.000000,0.000000,0.261976,0.333963,0.118567,0.094853,0.000000,232.000000,217.000000,15.000000,12.000000,0.000000,0.000000:
0000
0000
0000
0000
,
0000
0000
0000
0000
,
0000
0000
0000
0000
,
0000
0000
0000
0000
,
0000
0000
0000
0000
,
0000
0000
0000
0000
,
0000
0000
0000
0000
,
0000
0000
0000
0000
,
0000
0000
1000
0000
,
0001
0000
1000
0000
,
0001
0000
0010
0000
,
0100
0000
0010
0000
,
0100
0000
1000
0000
,
0010
0000
0100
0000
,
0001
0000
2002
0000
,
0000
0000
0000
0000
,
0000
0000
3003
0000
0100
0000
0100
0100
,
0000
0001
0000
0010
0000
0001
0000
0010
,
0000
0100
0000
1000
0000
0100
0000
1000
,
0000
0001
0000
0100
0000
0001
0000
0100
,
0000
0010
0000
1000
0000
0010
0000
1000
,
0000
1000
0000
0100
0000
1000
0000
0100
,
0000
0010
0000
0001
0000
0010
0000
0001
,
0000
1000
0000
0010
0000
1000
0000
0010
,
0000
0100
0000
0001
0000
0100
0000
0001
,
0000
0001
0000
0010
0000
0100
0000
1000
,
0000
0001
0000
0010
0000
0100
0000
0100
,
0000
1000
0000
0100
0000
0010
0000
0001
,
0000
1000
0000
0100
0000
0010
0000
0010
,
0000
0001
0000
0100
0000
0010
0000
1000
,
0000
0001
0000
0100
0000
0010
0000
1000
,
0000
0001
0000
0010
0000
0100
0000
1000
,
0000
0001
0000
0010
0000
0100
0000
1000
,
0000
1001
0000
0000
0000
0000
0000
0000
,
0000
1001
0000
0000
0000
0000
0000
0000
,
0000
1001
0000
0000
0000
0000
0000
0000
,
0000
1001
0000
0000
0000
0000
0000
0000
,
0000
1001
0000
0000
0000
1001
0000
0000
,
0000
1001
0000
0000
0000
1001
0000
0000
,
0000
1000
0000
0001
0000
1000
0000
0001
,
0000
2002
0000
0000
0000
0000
3003
0000
,
1000
0010
0010
0000
,
0001
0010
0010
0000
,
1000
0010
0010
0000
,
0001
0010
0010
0000
,
1000
0100
0100
0000
,
0001
0100
0100
0000
,
1000
0100
0100
0000
,
0001
0100
0100
1000
,
0001
0100
0001
0000
,
1000
0100
1000
0000
,
0001
0010
0001
0000
,
1000
0010
1000
0000
,
0001
0100
0010
1000
,
0010
0100
0001
1000
,
0100
0010
0001
1000
,
2002
0000
0000
3003
,
0001
0000
0100
0000
,
1000
0010
0001
0001
,
1000
0000
0100
0000
,
0001
0010
1000
1000
,
0001
0000
0100
0000
,
1000
0000
0010
0000
,
0001
0000
1000
0000
,
0010
0100
0220
0330
,
0010
1000
0010
1000
,
0100
0001
0100
0001
,
1000
0010
1000
0010
,
0001
0100
0001
0100
,
0010
1000
0100
0010
,
0001
1000
0010
0100
,
0001
1000
0100
0010
,
2002
0000
0000
3003
,
1000
0000
0001
0000
,
0100
0000
0010
0000
,
1000
0000
0001
0000
,
0100
0000
0010
0000
,
1000
1000
0100
0100
,
0001
0001
0010
0010
,
1000
0100
0001
0010
,
1000
0001
2002
0000
,
0000
0000
0000
0000
,
0000
0000
0000
0000
,
0000
0000
0000
0000
,
0000
3003
1001
0000
;

//---------------dance-single - ----------------
#NOTES:
     dance-single:
     :
     Medium:
     9:
     0.354571,0.523176,0.173898,0.158089,0.000000,314.000000,292.000000,22.000000,20.000000,0.000000,0.000000,0.354571,0.523176,0.173898,0.158089,0.000000,314.000000,292.000000,22.000000,20.000000,0.000000,0.000000:
0000
0000
0000
0000
,
0000
0000
0000
0000
,
0000
0000
0000
0000
,
0000
0000
0000
0000
,
0000
0000
0000
0000
,
0000
0000
0000
0000
,
0000
0000
0000
0000
,
0000
0000
0000
0000
,
0000
0000
1000
0100
,
0010
0000
0001
0010
,
0100
0000
1000
0010
,
0100
0000
0001
0100
,
0010
0000
1000
0001
,
0010
0010
0001
1000
,
0100
0100
2002
0000
,
0000
0000
0000
0000
,
0000
0000
3003
0000
1000
0001
1000
0010
,
0100
0010
0000
1000
0000
0100
0010
0000
,
0010
0001
0001
0100
,
0100
0000
0000
0010
0000
1000
0001
0000
,
0001
0010
0010
0100
,
0100
1000
0000
0010
0000
0100
0001
0100
,
0000
0010
0000
1000
0000
0100
0010
0100
,
0000
2000
0000
3010
0000
0002
0000
0013
,
0000
2000
0000
3100
0000
0002
0000
0103
,
0000
0100
0000
0001
0000
0010
0100
0000
,
0100
1000
1000
0010
,
0010
0000
0000
0100
0000
0001
1000
0000
,
1000
0100
0100
0010
,
0010
0001
0000
0100
0000
0010
1000
0010
,
0000
0100
0000
0001
0000
0010
0100
0010
,
0000
0002
0000
0103
0000
2000
0000
3100
,
0000
0002
0000
0013
0000
2000
0000
3010
,
0000
0110
0000
0000
0000
0000
0000
0000
,
0000
0110
0000
0000
0000
0000
0000
0000
,
0000
0110
0000
0000
0000
0000
0000
0000
,
0000
0110
0000
0000
0000
0000
0000
0000
,
0000
0110
0000
0000
0000
0110
0000
0000
,
0000
0110
0000
0000
0000
0110
0000
0000
,
0000
0110
0000
1001
0000
0110
0000
1001
,
0000
0220
0000
0000
0000
0000
0330
0000
,
0010
0100
0010
0000
1000
0000
0001
0000
,
0100
0010
0100
0000
0001
0000
1000
0000
,
0010
0100
0010
0000
1000
0000
0001
0000
,
0100
0010
0100
0000
0010
0000
0010
0000
,
1000
0100
1000
0000
0001
0000
1000
0000
,
0001
0100
0001
0000
1000
0000
0001
0000
,
1000
0010
1000
0000
0001
0000
1000
0000
,
0001
0101
1000
1100
,
0001
0100
0001
0000
1000
0000
0001
0000
,
1000
0100
1000
0000
0001
0000
1000
0000
,
0001
0010
0001
0000
1000
0000
0001
0000
,
1000
0010
1000
0000
0001
0000
0001
0000
,
0100
0010
1000
0000
0001
0000
1000
0000
,
0010
0100
0001
0000
1000
0000
0001
0000
,
0100
0010
1000
0000
0010
0100
0001
0000
,
2002
0000
0000
3003
,
1000
0000
0001
0000
0100
0010
0000
0010
,
0000
1000
0000
1000
0000
0001
0000
0001
,
0000
0000
0100
0000
0010
1000
0000
1000
,
0000
0100
0000
0100
0000
0010
0000
0010
,
0000
0000
0001
0000
0100
0010
0000
0010
,
0000
1000
0001
0100
,
0010
0000
1000
0100
1000
0000
0001
0100
,
0001
0000
1000
0010
1000
0000
0001
0010
,
0001
0000
0100
0000
0010
1000
0000
0100
,
0000
0010
0000
0001
0000
1000
0000
0010
,
0000
0000
0100
0000
0001
0010
0000
0100
,
0000
1000
0000
0010
0000
0100
0000
0001
,
0000
1000
0100
0010
,
0001
0100
0010
0000
1000
0010
0100
0000
,
0001
0010
0100
0000
1000
0100
0010
0000
,
2002
0000
0000
3003
,
0001
0100
1000
0100
,
0001
0100
1000
0100
,
0010
0001
0010
1000
,
0010
0001
0010
0100
,
0001
0010
0001
0000
0100
0010
0100
0000
,
0010
1000
0010
0000
1000
0100
1000
0000
,
0001
0010
0100
0000
1000
0010
0100
0000
,
1001
0110
2002
0000
,
0000
0000
0000
0000
,
0000
0000
0000
0000
,
0000
0000
0000
0000
,
0000
3003
0220
0000
,
0000
0000
0000
0000
,
0000
0000
0000
0000
,
0000
0000
0000
0000
,
0000
0330
0000
0000
;

//---------------dance-double - ----------------
#NOTES:
     dance-double:
     :
     Easy:
     6:
     0.241650,0.333963,0.126471,0.094853,0.000000,214.000000,198.000000,16.000000,12.000000,0.000000,0.000000,0.241650,0.333963,0.126471,0.094853,0.000000,214.000000,198.000000,16.000000,12.000000,0.000000,0.000000:
00000000
00000000
00000000
00000000
,
00000000
00000000
00000000
00000000
,
00000000
00000000
00000000
00000000
,
00000000
00000000
00000000
00000000
,
00000000
00000000
00000000
00000000
,
00000000
00000000
00000000
00000000
,
00000000
00000000
00000000
00000000
,
00000000
00000000
00000000
00000000
,
00000000
00000000
01000000
00000000
,
00001000
00000000
01000000
00000000
,
00001000
00000000
00010000
00000000
,
00000100
00000000
00010000
00000000
,
00000100
00000000
00001000
00000000
,
00000010
00000000
00010000
00000000
,
00001000
00000000
00022000
00000000
,
00000000
00000000
00000000
00000000
,
00000000
00000000
00033000
00000000
00010000
00000000
00010000
00010000
,
00000000
00001000
00000000
00000000
00000000
00100000
00000000
00000000
,
00000000
00010000
00000000
01000000
00000000
00100000
00000000
10000000
,
00000000
00010000
00000000
00000000
00000000
01000000
00000000
00000000
,
00000000
00001000
00000000
00010000
00000000
00000100
00000000
00000010
,
00000000
00000001
00000000
00000000
00000000
00001000
00000000
00000000
,
00000000
00000010
00000000
00010000
00000000
00001000
00000000
00100000
,
00000000
01000000
00000000
00000000
00000000
10000000
00000000
00000000
,
00000000
00100000
00000000
00010000
00000000
00001000
00000000
00010000
,
00000000
00000010
00000000
00000000
00000000
00001000
00000000
00000000
,
00000000
00000100
00000000
00000010
00000000
00000001
00000000
00000100
,
00000000
00001000
00000000
00000000
00000000
00010000
00000000
00000000
,
00000000
00100000
00000000
10000000
00000000
01000000
00000000
00100000
,
00000000
01000000
00000000
00000000
00000000
00010000
00000000
00000000
,
00000000
00001000
00000000
00100000
00000000
00010000
00000000
00100000
,
00000000
00001000
00000000
00010000
00000000
00000100
00000000
00000010
,
00000000
00000001
00000000
00000100
00000000
00001000
00000000
00010000
,
00000000
00011000
00000000
00000000
00000000
00000000
00000000
00000000
,
00000000
00011000
00000000
00000000
00000000
00000000
00000000
00000000
,
00000000
00011000
00000000
00000000
00000000
00000000
00000000
00000000
,
00000000
00011000
00000000
00000000
00000000
00000000
00000000
00000000
,
00000000
00011000
00000000
00000000
00000000
00011000
00000000
00000000
,
00000000
00011000
00000000
00000000
00000000
00011000
00000000
00000000
,
00000000
00001000
00000000
00010000
00000000
00001000
00000000
00010000
,
00000000
00022000
00000000
00000000
00000000
00000000
00033000
00000000
,
00001000
00100000
00100000
00000000
,
00001000
00010000
00010000
00000000
,
00001000
00000010
00000010
00000000
,
00001000
00010000
00010000
00000000
,
00010000
00000010
00000010
00000000
,
00010000
00001000
00001000
00000000
,
00010000
00100000
00100000
00000000
,
00010000
00001000
00001000
00011000
,
00010000
00000100
00010000
00000000
,
00001000
01000000
00001000
00000000
,
00010000
00000010
00010000
00000000
,
00001000
00100000
00001000
00000000
,
00010000
00001000
00000100
00000001
,
00000100
00001000
00010000
00100000
,
10000000
00100000
00010000
00001000
,
00022000
00000000
00000000
00033000
,
00010000
00000000
00000100
00000000
,
00000010
00000000
00000001
00000000
,
00000100
00000000
00001000
00000000
,
00010000
00000000
00100000
00000000
,
10000000
00000000
01000000
00000000
,
00100000
00000000
00010000
00000000
,
00001000
00000000
00000010
00000000
,
00000100
00000000
00002002
00003003
,
00001000
00000100
00001000
00000100
,
00010000
00001000
00010000
00001000
,
01000000
00010000
01000000
00010000
,
00100000
00001000
00100000
00001000
,
00010000
00000010
00010000
00000010
,
00001000
00000100
00000010
00000001
,
00000100
00001000
00010000
01000000
,
22000000
00000000
00000000
33000000
,
10000000
00000000
00100000
00000000
,
01000000
00000000
00010000
00000000
,
00001000
00000000
00000100
00000000
,
00000010
00000000
00000001
00000000
,
00001000
00001000
00000010
00000010
,
00010000
00010000
00001000
00001000
,
00100000
01000000
10000000
00100000
,
00010000
00001000
00022000
00000000
,
00000000
00000000
00000000
00000000
,
00000000
00000000
00000000
00000000
,
00000000
00000000
00000000
00000000
,
00000000
00033000
00011000
00000000
;

//---------------dance-double - ----------------
#NOTES:
     dance-double:
     :
     Medium:
     8:
     0.346667,0.467548,0.173898,0.142280,0.000000,307.000000,285.000000,22.000000,18.000000,0.000000,0.000000,0.346667,0.467548,0.173898,0.142280,0.000000,307.000000,285.000000,22.000000,18.000000,0.000000,0.000000:
00000000
00000000
00000000
00000000
,
00000000
00000000
00000000
00000000
,
00000000
00000000
00000000
00000000
,
00000000
00000000
00000000
00000000
,
00000000
00000000
00000000
00000000
,
00000000
00000000
00000000
00000000
,
00000000
00000000
00000000
00000000
,
00000000
00000000
00000000
00000000
,
00000000
00000000
00001000
00010000
,
00000100
00000000
00010000
00001000
,
01000000
00000000
00001000
00010000
,
00000010
00000000
00010000
00001000
,
00100000
00000000
00010000
00001000
,
00000010
00000000
00001000
00010000
,
01000000
00000000
00022000
00000000
,
00000000
00000000
00000000
00000000
,
00000000
00000000
00033000
00000000
00001000
00010000
00001000
00010000
,
00000000
00011000
00000000
00001000
00000000
00100000
00010000
00000000
,
00010000
01000000
01000000
00100000
,
00100000
00000000
00000000
10000000
00000000
00010000
01000000
00000000
,
01000000
00001000
00001000
00010000
,
00010000
00000100
00000000
00000010
00000000
00000001
00000000
00000100
,
00000000
00001000
00000000
00010000
00000000
00100000
10000000
01000000
,
00000000
00200000
00000000
00301000
00000000
00020000
00000000
00030100
,
00000000
00200000
00000000
00301000
00000000
00020000
00000000
00030100
,
00000000
00000100
00000000
00000010
00000000
00000001
00000100
00000000
,
00000100
00001000
00001000
00010000
,
00010000
00000000
00000000
00100000
00000000
10000000
00010000
00000000
,
00010000
01000000
01000000
00001000
,
00001000
00010000
00000000
00100000
00000000
10000000
00000000
01000000
,
00000000
00100000
00000000
00010000
00000000
01000000
00000000
00001000
,
00000000
00020000
00000000
00030100
00000000
00002000
00000000
00003010
,
00000000
00020000
00000000
00030100
00000000
00002000
00000000
00003010
,
00000000
00000110
00000000
00000000
00000000
00000000
00000000
00000000
,
00000000
00001001
00000000
00000000
00000000
00000000
00000000
00000000
,
00000000
00011000
00000000
00000000
00000000
00000000
00000000
00000000
,
00000000
10010000
00000000
00000000
00000000
00000000
00000000
00000000
,
00000000
01100000
00000000
00000000
00000000
00011000
00000000
00000000
,
00000000
00000110
00000000
00000000
00000000
00011000
00000000
00000000
,
00000000
01001000
00000000
00010100
00000000
00101000
00000000
00010010
,
00000000
00022000
00000000
00000000
00000000
00000000
00033000
00000000
,
00001000
00100000
00001000
00000000
00010000
00000000
01000000
00000000
,
10000000
00100000
10000000
00000000
01000000
00000000
00010000
00000000
,
00001000
00100000
00001000
00000000
00010000
00000000
01000000
00000000
,
10000000
00100000
10000000
00000000
00100000
00000000
00100000
00000000
,
00010000
00001000
00010000
00000000
00000100
00000000
00000010
00000000
,
00000001
00000100
00000001
00000000
00000010
00000000
00000100
00000000
,
00010000
00001000
00010000
00000000
00000100
00000000
00000010
00000000
,
00000001
00000101
00001000
00001100
,
00000100
00000010
00000100
00000000
00010000
00000000
00001000
00000000
,
00100000
01000000
00100000
00000000
00001000
00000000
00010000
00000000
,
00000100
00000010
00000100
00000000
00010000
00000000
00001000
00000000
,
00100000
01000000
00100000
00000000
00010000
00000000
00010000
00000000
,
10000000
01000000
00100000
00000000
00010000
00000000
01000000
00000000
,
00001000
00010000
00000100
00000000
00001000
00000000
00000010
00000000
,
00000100
00000001
00001000
00000000
00000100
00010000
00001000
00000000
,
00022000
00000000
00000000
00033000
,
00010000
00000000
00001000
00000000
00100000
00010000
00000000
00010000
,
00000000
01000000
00000000
01000000
00000000
00100000
00000000
00100000
,
00000000
00000000
10000000
00000000
01000000
00010000
00000000
00010000
,
00000000
00001000
00000000
00001000
00000000
00000100
00000000
00000100
,
00000000
00000000
00000001
00000000
00001000
00000010
00000000
00000010
,
00000000
00010000
00001000
00100000
,
01000000
00000000
10000000
00100000
01000000
00000000
00010000
01000000
,
00100000
01000000
00000000
00001000
00000000
00010000
00000000
00000100
,
00000010
00000000
00000001
00000000
00000100
00001000
00000000
00000100
,
00000000
00000010
00000000
00010000
00000000
00001000
00000000
00100000
,
00000000
00000000
00010000
00000000
01000000
10000000
00000000
01000000
,
00000000
00100000
00000000
10000000
00000000
01000000
00000000
00100000
,
00000000
00001000
00010000
00000100
,
00000010
00000001
00000100
00000000
00000010
00001000
00000100
00000000
,
00010000
00001000
00100000
00000000
00010000
01000000
00100000
00000000
,
20200000
00000000
00000000
30300000
,
10000000
01000000
00010000
00001000
,
00010000
01000000
10000000
01000000
,
00010000
00001000
00000010
00000001
,
00000010
00001000
00010000
00001000
,
00000010
00000001
00000010
00000000
00000001
00000100
00000001
00000000
,
00000100
00001000
00000100
00000000
00001000
00010000
00001000
00000000
,
00010000
01000000
00010000
00000000
01000000
10000000
01000000
00000000
,
10100000
00010000
00022000
00000000
,
00000000
00000000
00000000
00000000
,
00000000
00000000
00000000
00000000
,
00000000
00000000
00000000
00000000
,
00000000
00033000
00011000
00000000
;

//---------------dance-single - ----------------
#NOTES:
     dance-single:
     :
     Challenge:
     15:
     0.630098,0.906838,0.458458,0.553312,0.399175,558.000000,500.000000,58.000000,70.000000,0.000000,0.000000,0.630098,0.906838,0.458458,0.553312,0.399175,558.000000,500.000000,58.000000,70.000000,0.000000,0.000000:
0000
0000
0000
0000
,
0000
0000
0000
0000
,
0000
0000
0000
0000
,
0000
0000
0000
0000
,
0000
0000
0000
0000
,
0000
0000
0000
0000
,
0000
0000
0000
0000
,
0000
0000
0000
0000
,
0000
0000
2000
3020
,
0230
0320
0032
0023
,
0230
0320
2030
3200
,
0320
0230
0302
0203
,
0320
0230
2300
3020
,
0032
0023
2030
3200
,
0320
0032
2000
0000
,
0000
0000
0000
0000
,
0000
0000
0000
3003
1001
1001
1001
0100
,
0100
0010
0100
0002
0000
0103
0002
0000
,
0103
0000
0101
0100
0110
0010
1010
1000
,
1001
0000
0000
2000
0000
3010
2000
0000
,
3010
0000
1010
0010
0110
0100
0101
0001
,
1001
0000
1000
0100
1000
0000
0010
0100
0010
0000
1000
0100
1000
0000
0001
0100
,
0001
0000
1000
0100
1000
0000
0001
1000
0001
0000
1000
0100
1000
0000
0001
0010
,
0001
0000
0100
0010
0100
0010
0100
0000
0001
0000
0010
0100
0010
0100
0010
0000
,
0001
0000
1000
0010
1000
0010
1000
0000
0100
0000
0010
0001
0010
0001
0010
0000
,
0100
1100
0000
2000
0000
3010
0002
0000
,
0013
0000
1010
1000
1100
0100
0101
0001
,
0011
0000
0000
0002
0000
0103
2000
0000
,
3100
0000
0101
0001
0011
0010
1010
1000
,
1100
0000
0100
0010
0100
0000
0010
0001
0010
0000
0100
0010
0100
0000
1000
0100
,
1000
0000
0100
0010
0100
0000
1000
0001
1000
0000
0010
1000
0010
0000
0100
0001
,
0100
0000
0010
0100
0010
0100
0010
0000
1000
0000
0100
0010
0100
0010
0100
0000
,
1000
0000
0001
0010
0001
0010
0001
0000
0100
0000
0010
1000
0010
1000
0010
0000
,
0100
0101
0000
0000
0000
0000
0000
0000
,
0000
0011
0000
0000
0000
0000
0000
0000
,
0000
1010
0000
0000
0000
0000
0000
0000
,
0000
1100
0000
0000
0000
0000
0000
0000
,
0000
0011
0000
0000
0000
0101
0000
0000
,
0000
1100
0000
0000
0000
1010
0000
0000
,
0000
0101
0000
0011
0000
1010
0000
1100
,
0000
0220
0000
0000
0000
0000
0330
0000
,
1001
0000
0000
0000
0001
0100
0010
0000
0100
0000
0000
0000
0001
0010
0100
0000
,
0010
0000
0000
0000
0001
0100
0010
0000
0001
0000
0000
0000
0010
0100
0001
0000
,
0010
0000
0000
0000
0100
0010
0001
0000
0100
0000
0000
0000
0010
0100
0001
0000
,
0010
0000
0000
0000
0100
0010
0001
0000
0010
0000
0000
0000
0011
0000
1100
0000
,
2002
0000
3003
0000
1000
0010
0100
0000
0010
0000
0000
0000
1000
0100
0010
0000
,
0100
0000
0000
0000
1000
0010
0100
0000
1000
0000
0000
0000
0100
0010
1000
0000
,
0100
0000
0000
0000
0010
0100
1000
0000
0010
0000
0000
0000
0100
0010
1000
0000
,
0200
0320
0032
2003
,
3010
0000
0100
0000
0001
0010
0001
0000
0100
0000
0010
0000
1000
0100
1000
0000
,
0100
0000
0010
0000
0001
0100
0001
0000
0010
0000
0100
0000
1000
0010
1000
0000
,
0010
0000
0100
0000
0001
1000
0100
0000
0010
0000
0100
0000
1000
0001
0010
0000
,
0100
0000
0010
0000
0001
1000
0010
0000
0100
0000
0010
0000
1010
0000
0101
0000
,
0001
0010
0100
0000
0010
0000
0001
0000
1000
0100
0010
0000
0100
0000
1000
0000
,
0001
0100
0010
0000
0100
0000
0001
0000
1000
0010
0100
0000
0010
0000
1000
0000
,
0001
0010
0100
0000
0010
0100
1000
0000
0100
0010
0001
0000
1000
0100
0010
0000
,
0002
0103
2000
3010
0002
0023
0230
2300
,
0000
3000
1001
0000
0010
0100
0000
0120
,
0000
1000
0000
0001
0000
1000
0000
0031
,
0000
0000
1001
0000
0100
0010
0000
0210
,
0000
1000
0000
0001
0000
1000
0000
0301
,
0000
0000
1001
0000
0010
0100
0000
0120
,
0000
1000
0001
1030
,
2200
3300
0000
0022
0000
0000
0033
0000
,
0202
0303
0000
2020
0000
3030
1001
1001
,
0001
0100
0001
0000
0010
0000
0100
0000
0010
0001
0010
0000
0100
0000
0010
0000
,
0001
0100
0010
0000
0001
0010
0100
0000
0010
1000
0100
0000
0010
0100
2000
0000
,
0000
0000
3010
0000
1000
0000
0100
0000
0010
0100
0010
0000
0100
0000
1000
0000
,
0010
0100
1000
0000
0100
0010
1000
0000
0100
0010
0001
0000
0010
0001
0200
0000
,
0000
0000
0301
0000
0010
0000
0100
0000
0010
0001
0010
0000
0100
0000
0010
0000
,
0001
0010
0100
0000
0010
0001
0100
0000
0010
0100
1000
0000
0100
0010
1000
0000
,
0100
0010
0100
1000
0100
0000
1000
0000
0010
0100
0010
0001
0010
0000
0100
0000
,
0110
2000
0000
3200
0000
0302
0000
0013
,
0110
0000
0100
0001
0000
0000
0100
1000
0000
0000
0100
0001
0000
0000
0100
1000
,
0000
0000
0010
0001
0000
0000
0010
1000
0000
0000
0010
0001
0000
0000
0010
1000
,
0000
0000
0100
0010
0000
0000
0001
0100
0000
0000
1000
0010
0000
0000
0001
1000
,
0000
0000
0010
0001
0000
0000
0100
1000
0000
0000
0010
0100
0020
0000
0030
0000
,
1010
1000
0100
0010
0011
0001
0010
0100
,
1100
1000
0010
0100
0101
0001
0100
0010
,
1000
0100
0010
0000
0010
0001
0100
0000
0010
1000
0100
0000
0100
0010
0001
0000
,
0201
2300
3020
0000
,
0000
0000
0000
0000
,
0000
0000
0000
0000
,
0000
0000
0000
0000
,
0000
0000
0000
0000
0000
0000
0000
0000
0031
0100
0020
0000
0000
2030
0000
0000
,
0002
0000
0000
0000
,
0000
0000
0000
0000
,
0000
0000
0000
0000
,
0000
3003
0000
0000
;

//---------------dance-double - ----------------
#NOTES:
     dance-double:
     :
     Challenge:
     15:
     0.595092,0.906838,0.466363,0.616547,0.339891,527.000000,468.000000,59.000000,78.000000,0.000000,0.000000,0.595092,0.906838,0.466363,0.616547,0.339891,527.000000,468.000000,59.000000,78.000000,0.000000,0.000000:
// measure 0
00000000
00000000
00000000
00000000
,  // measure 1
00000000
00000000
00000000
00000000
,  // measure 2
00000000
00000000
00000000
00000000
,  // measure 3
00000000
00000000
00000000
00000000
,  // measure 4
00000000
00000000
00000000
00000000
,  // measure 5
00000000
00000000
00000000
00000000
,  // measure 6
00000000
00000000
00000000
00000000
,  // measure 7
00000000
00000000
00000000
00000000
,  // measure 8
00000000
00000000
00002000
00023000
,  // measure 9
00230000
02300000
03020000
00230000
,  // measure 10
02300000
23000000
30200000
00320000
,  // measure 11
00032000
00003200
00000320
00002030
,  // measure 12
00003200
00000320
00000032
00000203
,  // measure 13
00002300
00023000
00230000
20300000
,  // measure 14
32000000
03020000
00002000
00000000
,  // measure 15
00000000
00000000
00000000
00000000
,  // measure 16
00000000
00000000
00000000
00033000
00011000
00011000
00011000
00000100
,  // measure 17
00000100
00000010
00000001
00000200
00000000
00001300
00000200
00000000
,  // measure 18
00000301
00000011
00001100
01010000
,  // measure 19
10100000
00000000
00000000
00200000
00000000
00310000
00200000
00000000
,  // measure 20
10300000
11000000
00110000
00001010
,  // measure 21
00000101
00000000
00000001
00000010
00000001
00000000
00000100
00000010
00000100
00000000
00001000
00010000
00001000
00000000
00010000
00001000
,  // measure 22
00010000
00000000
00100000
01000000
00100000
00000000
10000000
01000000
10000000
00000000
00100000
00010000
00001000
00000000
00010000
00001000
,  // measure 23
00000100
00000000
00000001
00000010
00000100
00000010
00000002
00000000
00000003
00000000
00001000
00000100
00000010
00000100
00002000
00000000
,  // measure 24
00003000
00000000
00010000
01000000
00100000
01000000
00020000
00000000
00030000
00000000
10000000
00100000
01000000
00100000
20000000
00000000
,  // measure 25
00000000
30010000
00000000
00020000
00000000
01030000
20000000
00000000
,  // measure 26
31000000
01100000
00011000
00000110
,  // measure 27
00001001
00000000
00000000
00002000
00000000
00003010
00000002
00000000
,  // measure 28
00000013
00000110
00011000
01100000
,  // measure 29
10010000
00000000
10000000
00100000
10000000
00000000
01000000
00100000
01000000
00000000
00010000
00001000
00010000
00000000
00001000
00010000
,  // measure 30
00001000
00000000
00000010
00000100
00000010
00000000
00000001
00000100
00000001
00000000
00000010
00001000
00010000
00000000
00001000
00010000
,  // measure 31
01000000
00000000
10000000
01000000
00100000
00010000
00200000
00000000
00300000
00000000
01000000
00100000
00010000
00100000
00002000
00000000
,  // measure 32
00003000
00000000
00010000
00000100
00001000
00000100
00000020
00000000
00000030
00000000
00000001
00000010
00000100
00001000
00000200
00000000
,  // measure 33
00000310
00000110
00000000
00000000
00000000
00000000
00000000
00000000
,  // measure 34
00000000
01100000
00000000
00000000
00000000
00000000
00000000
00000000
,  // measure 35
00000000
00000110
00000000
00000000
00000000
00000000
00000000
00000000
,  // measure 36
00000000
01100000
00000000
00000000
00000000
00000000
00000000
00000000
,  // measure 37
00000000
10010000
00000000
00000000
00000000
00001001
00000000
00000000
,  // measure 38
00000000
10010000
00000000
00000000
00000000
00001001
00000000
00000000
,  // measure 39
00000000
00011000
00000000
10010000
00000000
00011000
00000000
00001001
,  // measure 40
00000000
00022000
00000000
00000000
00000000
00000000
00033000
00000000
,  // measure 41
00011000
00000000
00000000
00000000
00010000
01000000
00010000
00000000
00000000
00000000
00000000
00000000
00001000
00000100
00001000
00000000
,  // measure 42
00000000
00000000
00000000
00000000
00010000
00100000
00010000
00000000
00000000
00000000
00000000
00000000
00001000
00000100
00001000
00000000
,  // measure 43
00000000
00000000
00000000
00000000
00010000
01000000
00010000
00000000
00000000
00000000
00000000
00000000
00001000
00000010
00001000
00000000
,  // measure 44
00000000
00000000
00000000
00000000
00010000
00100000
00010000
00000000
00000000
00000000
00000000
00000000
00010010
00000000
00011000
00000000
,  // measure 45
02002000
00000000
03003000
00000000
00001000
00010000
01000000
00000000
00000000
00000000
00000000
00000000
00010000
00001000
00000010
00000000
,  // measure 46
00000000
00000000
00000000
00000000
00001000
00010000
00100000
00000000
00000000
00000000
00000000
00000000
00010000
00001000
00000100
00000000
,  // measure 47
00000000
00000000
00000000
00000000
00000001
00000010
00001000
00000000
00000000
00000000
00000000
00000000
00010000
01000000
10000000
00000000
,  // measure 48
00200000
00320000
00032000
00003020
,  // measure 49
00000031
00000000
00000100
00000000
00000010
00000100
00000010
00000000
00001000
00000000
00000100
00000000
00000010
00000100
00000010
00000000
,  // measure 50
00000001
00000000
00000100
00000000
00000010
00000100
00000010
00000000
00001000
00000000
00000100
00000000
00000010
00000100
00000010
00000000
,  // measure 51
00000001
00000000
00000100
00000000
00001000
00010000
00001000
00000000
00000100
00000000
00001000
00000000
00010000
00001000
00010000
00000000
,  // measure 52
01000000
00000000
10000000
00000000
00100000
01000000
00100000
00000000
00010000
00000000
00001000
00000000
00101000
00000000
00010010
00000000
,  // measure 53
00010000
00001000
00000100
00000000
00000001
00000000
00000010
00000000
00001000
00010000
00100000
00000000
10000000
00000000
01000000
00000000
,  // measure 54
00010000
00001000
00000010
00000000
00000001
00000000
00000100
00000000
00001000
00010000
01000000
00000000
10000000
00000000
00100000
00000000
,  // measure 55
00010000
00001000
00100000
00000000
00001000
00010000
00000010
00000000
00010000
00001000
01000000
00000000
00001000
00010000
00000100
00000000
,  // measure 56
00000020
00000031
00000200
00001300
00020000
01030000
20000000
30100000
,  // measure 57
00020000
00000000
00031000
00000000
00000010
00000100
00000000
00002001
,  // measure 58
00000000
00000010
00000000
00010000
00000000
00100000
00000000
00003010
,  // measure 59
00000000
00000000
00011000
00000000
01000000
00100000
00000000
10020000
,  // measure 60
00000000
01000000
00000000
00001000
00000000
00000010
00000000
00130000
,  // measure 61
00000000
00000000
00011000
00000000
00000100
00000010
00000000
00002001
,  // measure 62
00000000
00000100
00100000
00003010
,  // measure 63
00000202
00000303
00000000
00002020
00000000
00000000
00003030
00000000
,  // measure 64
00220000
00330000
00000000
22000000
00000000
33000000
10010000
10010000
,  // measure 65
10000000
01000000
10000000
00000000
00100000
00000000
00010000
00000000
00001000
00010000
00001000
00000000
00000100
00000000
00000001
00000000
,  // measure 66
00000010
00000100
00001000
00000000
00000100
00001000
00010000
00000000
00001000
00010000
00100000
00000000
00010000
00100000
02000000
00000000
,  // measure 67
00000000
00000000
13000000
00000000
10000000
00000000
00100000
00000000
00010000
00001000
00010000
00000000
00001000
00000000
00000100
00000000
,  // measure 68
00000001
00000010
00001000
00000000
00000010
00001000
00010000
00000000
00001000
00010000
01000000
00000000
00010000
01000000
20000000
00000000
,  // measure 69
00000000
00000000
30100000
00000000
00100000
00000000
00010000
00000000
00001000
00010000
00001000
00000000
00000010
00000000
00000001
00000000
,  // measure 70
00000100
00000010
00001000
00000000
00000010
00001000
00010000
00000000
00001000
00010000
01000000
00000000
00010000
01000000
00100000
00000000
,  // measure 71
10000000
01000000
00100000
00010000
00002000
00000000
00003000
00000000
00000001
00000010
00000100
00001000
00020000
00000000
00030000
00000000
,  // measure 72
10010000
20000000
00000000
30200000
00000000
00320000
00000000
00031000
,  // measure 73
00011000
01000000
00010000
01000000
10000000
01000000
00010000
00001000
,  // measure 74
00011000
00000010
00001000
00000010
00000001
00000010
00001000
00010000
,  // measure 75
00011000
00100000
00010000
00100000
10000000
00100000
00010000
00001000
,  // measure 76
00011000
00000100
00001000
00000100
00000001
00000100
00001000
00010000
,  // measure 77
00011000
00100000
10000000
01000000
00011000
00000010
00000001
00000100
,  // measure 78
00011000
01000000
10000000
00100000
00011000
00000100
00000001
00000010
,  // measure 79
00001000
00010000
01000000
00000000
00010000
00001000
00000100
00000000
00001000
00010000
00100000
00000000
00010000
00001000
00000010
00000000
,  // measure 80
00000012
00000203
00002300
00000000
,  // measure 81
00000000
00000000
00000000
00000000
,  // measure 82
00000000
00000000
00000000
00000000
,  // measure 83
00000000
00000000
00000000
00000000
,  // measure 84
00000000
00000000
00000000
00000000
00000000
00000000
00000000
00000000
00013000
01000000
20000000
00000000
30000000
00020000
00000000
00030000
,  // measure 85
00002000
00000000
00000000
00000000
,  // measure 86
00000000
00000000
00000000
00000000
,  // measure 87
00000000
00000000
00000000
00000000
,  // measure 88
00000000
00003000
00000000
00000000
;
