#VERSION:0.83;
#TITLE:Jupiter II Europa;
#SUBTITLE:;
#ARTIST:Another Infinity;
#TITLETRANSLIT:;
#SUBTITLETRANSLIT:;
#ARTISTTRANSLIT:;
#GENRE:VARIETY;
#ORIGIN:;
#CREDIT:MUINELIM;
#BANNER:Jupiter II Europa.png;
#BACKGROUND:Jupiter II Europa-bg.png;
#PREVIEWVID:;
#JACKET:Jupiter II Europa-jacket.png;
#CDIMAGE:;
#DISCIMAGE:;
#LYRICSPATH:;
#CDTITLE:;
#MUSIC:Jupiter II Europa.ogg;
#OFFSET:-0.054000;
#SAMPLESTART:78.482574;
#SAMPLELENGTH:13.714287;
#SELECTABLE:YES;
#BPMS:0.000=140.000;
#STOPS:;
#DELAYS:;
#WARPS:;
#TIMESIGNATURES:0.000=4=4;
#TICKCOUNTS:0.000=4;
#COMBOS:0.000=1;
#SPEEDS:0.000=1.000=0.000=0;
#SCROLLS:0.000=1.000;
#FAKES:;
#LABELS:0.000=Song Start;
#BGCHANGES:;
#KEYSOUNDS:;
#ATTACKS:
;

//---------------dance-single - ----------------
#NOTEDATA:;
#CHARTNAME:;
#STEPSTYPE:dance-single;
#DESCRIPTION:;
#CHARTSTYLE:;
#DIFFICULTY:Hard;
#METER:12;
#RADARVALUES:0.466706,0.574141,0.105124,0.250681,0.274941,404.000000,391.000000,13.000000,31.000000,0.000000,0.000000,0.000000,0.000000,0.000000,0.466706,0.574141,0.105124,0.250681,0.274941,404.000000,391.000000,13.000000,31.000000,0.000000,0.000000,0.000000,0.000000,0.000000;
#CREDIT:MILEN;
#NOTES:
0000
0000
0000
0000
,
0000
0000
0000
0000
,
0000
0000
0000
0000
,
0000
0000
0000
0000
,
0000
0000
0000
0000
0000
0000
0000
0000
0000
0000
0000
0000
1000
0000
0000
0010
,
0000
0000
0200
0000
0000
0000
0000
0000
0000
0000
0301
0010
0001
0000
0000
1000
,
0000
0000
0010
0100
0010
0000
0000
0000
0000
0000
0000
0000
1000
0000
0000
0100
,
0000
0000
0010
0000
0020
0000
0000
0000
0000
0000
0031
0000
0100
0000
0000
0010
,
0000
0000
1000
0100
1000
0000
0000
0010
0200
0000
0000
0000
0302
0000
0000
0000
,
0023
0230
2300
3020
,
0230
0302
2003
3200
,
0320
0032
2003
3020
,
0230
0000
0000
0000
0301
1000
0001
1000
0001
0000
0100
0010
0100
0000
0000
0001
,
0000
0000
1000
0000
0000
0100
0000
0000
0010
0000
0001
0000
0100
0000
0000
0010
,
0000
0000
1000
0000
0000
0001
0000
0000
0010
0000
0100
0000
1000
0000
0000
0010
,
0000
0000
0001
0000
0000
0100
0000
0000
1000
0000
0010
0000
0100
0000
0000
0001
,
0000
0000
0010
0000
0000
1000
0000
0000
0100
0000
0010
0000
0110
0000
0000
1000
,
0000
0000
0100
0000
0000
0001
0000
0000
0010
0000
1000
0000
1100
0000
0000
0001
,
0000
0000
0100
0000
0000
0010
0000
0000
1000
0000
0001
0000
0101
0000
0000
1000
,
0000
0000
0010
0000
0000
0100
0000
0000
0001
0000
0010
0000
0110
0000
0000
1000
,
0000
0000
0010
0000
0000
0001
0000
0000
0100
0000
1000
0000
0010
0000
0100
0000
,
0001
0100
0010
0100
0001
0000
1000
0100
,
0010
0000
0100
0000
1000
0000
0100
0000
0010
0100
0000
0000
0010
0000
0001
0000
,
1000
0001
0010
0001
1000
0000
0100
1000
,
0001
0000
1000
0000
0100
0000
1000
0000
0001
1000
0000
0000
0001
0000
0100
0000
,
0010
1000
0100
0001
0100
0010
0001
0100
,
0010
0000
1000
0000
0001
0000
0010
0000
0100
0010
0000
0000
1000
0000
0100
0000
,
0010
1000
0010
0001
0100
0010
1001
0000
,
0000
0000
0000
0000
0110
0000
0000
0010
0100
0000
0010
0000
1000
0000
0000
0000
,
0100
0001
0010
1000
,
0100
0001
0010
0100
,
1000
0010
0001
0100
,
1000
0000
0010
0000
0001
0000
1000
0100
,
0010
0000
0010
0001
0100
0000
1000
0100
,
0010
0000
0010
0001
0100
0000
1000
0100
,
0010
0010
0001
0100
1000
0100
0010
0010
,
0001
0100
1000
0100
0010
0001
2002
0000
,
3003
0000
0000
0000
1000
0001
1000
0001
0100
0010
0100
0010
0100
0000
0001
0000
,
0010
0000
0010
0100
1000
0000
0100
0001
,
0010
0100
0001
0100
1000
0000
0010
1000
,
0100
0000
0100
0010
0001
0000
0010
1000
,
0100
0001
0100
0010
0001
0000
1000
0010
,
0001
1000
0100
0010
1000
0000
0001
0100
,
1000
0001
0010
0100
0001
0000
1000
0010
,
0001
0100
1000
0010
0100
0001
2000
0000
,
0000
0000
0000
0000
3010
0000
0000
0010
0100
0000
0010
0000
1000
0000
0000
1000
,
0100
0000
1000
0000
0010
0000
0000
0001
0010
0000
0001
0000
0100
0000
0000
1000
,
0100
0000
1000
0000
0010
0000
0100
0000
0010
0100
0000
0000
0001
0000
0000
0001
,
0010
0000
0001
0000
0100
0000
0000
1000
0100
0000
1000
0000
0010
0000
0000
0001
,
0010
0000
0001
0000
0100
0000
0010
0000
0100
0010
0000
0000
0100
0000
0000
0100
,
0001
0000
0000
0001
0010
0000
0000
0010
0100
0000
0000
0100
1000
0000
0000
1000
,
0010
0000
0000
0010
0100
0000
0001
0000
1000
0100
0000
0000
0010
0000
0000
0010
,
0001
0000
0000
0001
0100
0000
0000
0100
1000
0000
0000
1000
0010
0000
0000
0010
,
0100
0000
0000
0000
2000
0000
0000
3001
0100
0000
0010
0000
0120
0000
0000
0000
,
1000
0001
1030
0210
,
0001
1000
0301
2001
,
0100
0010
3100
1002
,
0010
0000
0100
0000
0013
0000
0001
0100
,
0010
0000
1000
0000
0100
0000
0010
0100
0010
0000
0000
0000
1000
0000
0010
0000
,
0100
0000
0001
0000
0010
0000
0100
0010
0100
0000
0000
0000
1000
0000
0010
0000
,
0001
0000
1000
0000
0100
0000
0010
0100
0010
0000
1000
0000
0001
0000
0010
0000
,
1000
0000
0001
0000
0100
0000
0010
0100
0010
0000
0001
0000
2002
0000
0000
0000
,
0000
0000
0000
0000
,
0000
0000
0000
0003
,
0000
0000
0000
0000
,
0000
0000
0000
0000
0000
0000
0000
0000
3000
0000
0000
0000
0001
0000
0000
0010
,
0000
0000
0200
0000
0000
0000
0000
0000
0000
0000
1300
0010
1000
0000
0000
0001
,
0000
0000
0010
0100
0010
0000
0000
0000
0000
0000
0000
0000
1000
0000
0000
0010
,
0000
0000
0001
0000
0002
0000
0000
0000
0000
0000
0103
0000
1000
0000
0000
0010
,
0000
0000
0100
0001
0100
0000
0000
0000
0000
0000
0000
0000
2020
0000
0000
0000
,
0000
0000
0000
0000
,
3030
0000
0000
0000
;

//---------------dance-double - ----------------
#NOTEDATA:;
#CHARTNAME:;
#STEPSTYPE:dance-double;
#DESCRIPTION:;
#CHARTSTYLE:;
#DIFFICULTY:Hard;
#METER:13;
#RADARVALUES:0.472482,0.574141,0.161730,0.396238,0.283027,409.000000,389.000000,20.000000,49.000000,0.000000,0.000000,0.000000,0.000000,0.000000,0.472482,0.574141,0.161730,0.396238,0.283027,409.000000,389.000000,20.000000,49.000000,0.000000,0.000000,0.000000,0.000000,0.000000;
#CREDIT:MILEN;
#NOTES:
00000000
00000000
00000000
00000000
,
00000000
00000000
00000000
00000000
,
00000000
00000000
00000000
00000000
,
00000000
00000000
00000000
00000000
,
00000000
00000000
00000000
00000000
00000000
00000000
00000000
00000000
00000000
00000000
00000000
00000000
00001000
00000000
00000000
00010000
,
00000000
00000000
02000000
00000000
00000000
00000000
00000000
00000000
00000000
00000000
13000000
00010000
10000000
00000000
00000000
00100000
,
00000000
00000000
00010000
00001000
00010000
00000000
00000000
00000000
00000000
00000000
00000000
00000000
00001000
00000000
00000000
00000100
,
00000000
00000000
00000001
00000000
00000002
00000000
00000000
00000000
00000000
00000000
00000013
00000000
00001000
00000000
00000000
00010000
,
00000000
00000000
00100000
10000000
00100000
00000000
00000000
01000000
00020000
00000000
00000000
00000000
00230000
00000000
00000000
00000000
,
02300000
03020000
00032000
00003020
,
00000230
00020300
00032000
02003000
,
03200000
00320000
00032000
00003020
,
00000032
00000000
00000000
00000000
00000103
00000010
00000100
00000010
00000100
00000000
00000001
00001000
00000001
00000000
00000000
00000100
,
00000000
00000000
00000010
00000000
00000000
00001000
00000000
00000000
00000100
00000000
00010000
00000000
00001000
00000000
00000000
00100000
,
00000000
00000000
01000000
00000000
00000000
10000000
00000000
00000000
00100000
00000000
01000000
00000000
00010000
00000000
00000000
10000000
,
00000000
00000000
01000000
00000000
00000000
00100000
00000000
00000000
00001000
00000000
00010000
00000000
00000100
00000000
00000000
00000010
,
00000000
00000000
00000001
00000000
00000000
00000100
00000000
00000000
00001000
00000000
00010000
00000000
00011000
00000000
00000000
00001000
,
00000000
00000000
00100000
00000000
00000000
00010000
00000000
00000000
01000000
00000000
00100000
00000000
01100000
00000000
00000000
10000000
,
00000000
00000000
01000000
00000000
00000000
00100000
00000000
00000000
00001000
00000000
00010000
00000000
00011000
00000000
00000000
00001000
,
00000000
00000000
00000100
00000000
00000000
00000001
00000000
00000000
00000010
00000000
00000100
00000000
00000110
00000000
00000000
00000001
,
00000000
00000000
00000100
00000000
00000000
00010000
00000000
00000000
01000000
00000000
01000000
00000000
00100000
00000000
10000000
00000000
,
01000000
10000000
00100000
10000000
01000000
00000000
00010000
00001000
,
00010000
01000000
00010000
00001000
00000100
00000000
00001000
00010000
,
00001000
00000010
00001000
00010000
00100000
00000000
10000000
01000000
,
00100000
01000000
10000000
01000000
00100000
00000000
01000000
00010000
,
00001000
00000100
00000001
00000010
00000100
00000010
00000001
00000100
,
00001000
00000000
00000100
00000000
00000010
00000000
00010000
00000000
00001000
00010000
00001000
00000000
00100000
00000000
01000000
00000000
,
10000000
00100000
00010000
00001000
00000100
00000001
00001001
00000000
,
00000000
00000000
00000000
00000000
00011000
00000000
00000000
00010000
00001000
00000000
00100000
00000000
02000000
00000000
00000000
00000000
,
23000000
30200000
00320000
00032000
,
00003200
00000302
00000023
00002030
,
00023000
00230000
20300000
32000000
,
03020000
00000000
00032000
00000000
00003020
00000000
00000031
00000010
,
00000100
00000000
00000010
00001000
00010000
00000000
00001000
00010000
,
00100000
00000000
10000000
00100000
01000000
00000000
10000000
01000000
,
00100000
01000000
00001000
00010000
00001000
00000010
00000100
00000010
,
00000001
00000100
00001000
00010000
00100000
10000000
20020000
00000000
,
30030000
00000000
00000000
00000000
00010000
01000000
00010000
01000000
00010000
01000000
00010000
00000000
10000000
00000000
00100000
00000000
,
00010000
00000000
00001000
00000100
00000001
00000000
00000010
00001000
,
00010000
00100000
00010000
00001000
00000010
00000000
00000001
00000010
,
00001000
00000000
00010000
01000000
10000000
00000000
00100000
00010000
,
00001000
00000010
00001000
00010000
00100000
00000000
10000000
01000000
,
00010000
00001000
00000010
00000001
00001000
00000000
00000001
00000100
,
00001000
00010000
00100000
10000000
00010000
00000000
10000000
01000000
,
00100000
00010000
00001000
00000100
00000010
00000001
00002002
00000000
,
00003003
00000000
00000000
00000000
00000110
00000000
00000000
00000100
00000010
00000000
00000100
00000000
00000001
00000000
00000000
00000001
,
00000010
00000000
00000000
00000010
00000100
00000000
00000000
00000100
00010000
00000000
00000000
00010000
00001000
00000000
00000000
00001000
,
01000000
00000000
00000000
01000000
00100000
00000000
01000000
00000000
00100000
10000000
00000000
00000000
10010000
00000000
00000000
10000000
,
01000000
00000000
00000000
01000000
00100000
00000000
00000000
00100000
00001000
00000000
00000000
00001000
00010000
00000000
00000000
00010000
,
00000100
00000000
00000000
00000100
00000010
00000000
00000001
00000000
00000100
00000010
00000000
00000000
00000110
00000000
00000000
00000100
,
00000001
00000000
00000000
00000001
00000010
00000000
00000000
00000010
00001000
00000000
00000000
00001000
00010000
00000000
00000000
00010000
,
01000000
00000000
00000000
01000000
10000000
00000000
00010000
00000000
01000000
00100000
00000000
00000000
01100000
00000000
00000000
01000000
,
00010000
00000000
00000000
00010000
00100000
00000000
00000000
00100000
01000000
00000000
00000000
01000000
00010000
00000000
00000000
00010000
,
00001000
00000000
00000000
00001000
00000020
00000000
00000000
00000031
00000100
00000000
00000010
00000000
00002010
00000000
00000000
00000000
,
00000100
01000000
00003100
00020100
,
00000010
00100000
00031000
01002000
,
00100000
00000010
00013000
00120000
,
01000000
00000000
00000100
00000000
01030000
00000000
10000000
01000000
,
00100000
00010000
00001000
00000100
00000110
00000000
00000001
00000010
,
00000100
00001000
00010000
00100000
01100000
00000000
10000000
00100000
,
00010000
00000000
00001000
00000000
00000100
00000000
00000001
00001000
00000100
00000000
00001000
00000000
00000001
00000000
00000010
00000000
,
00001000
00000000
00010000
00000000
00100000
00000000
10000000
00010000
01000000
00000000
00010000
00000000
20020000
00000000
00000000
00000000
,
00000000
00000000
00000000
00000000
,
00000000
00000000
30000000
00002000
,
00000000
00000000
00000000
00000000
,
00000000
00000000
00000000
00000000
00000000
00000000
00000000
00000000
00033000
00000000
00000000
00000000
00010000
00000000
00000000
00001000
,
00000000
00000000
00000020
00000000
00000000
00000000
00000000
00000000
00000000
00000000
00000031
00000100
00000001
00000000
00000000
00000010
,
00000000
00000000
00001000
00010000
00001000
00000000
00000000
00000000
00000000
00000000
00000000
00000000
00010000
00000000
00000000
00100000
,
00000000
00000000
10000000
00000000
20000000
00000000
00000000
00000000
00000000
00000000
31000000
00000000
00100000
00000000
00000000
00010000
,
00000000
00000000
00001000
00010000
00001000
00000000
00000000
00000000
00000000
00000000
00000000
00000000
00022000
00000000
00000000
00000000
,
00000000
00000000
00000000
00000000
,
00033000
00000000
00000000
00000000
;

//---------------dance-single - ----------------
#NOTEDATA:;
#CHARTNAME:;
#STEPSTYPE:dance-single;
#DESCRIPTION:;
#CHARTSTYLE:;
#DIFFICULTY:Beginner;
#METER:3;
#RADARVALUES:0.128229,0.169210,0.008086,0.000000,0.000000,111.000000,110.000000,1.000000,0.000000,0.000000,0.000000,0.000000,0.000000,0.000000,0.128229,0.169210,0.008086,0.000000,0.000000,111.000000,110.000000,1.000000,0.000000,0.000000,0.000000,0.000000,0.000000,0.000000;
#CREDIT:MILEN;
#NOTES:
0000
0000
0000
0000
,
0000
0000
0000
0000
,
0000
0000
0000
0000
,
0000
0000
0000
0000
,
0000
0000
0000
1000
,
0000
0000
0000
0001
,
0000
0000
0000
0100
,
0000
0000
0000
0010
,
0000
0000
0000
1000
,
0000
1000
0000
0100
,
0000
0100
0000
0010
,
0000
0010
0000
0001
,
0000
0001
0000
0100
,
0000
0000
0000
0010
,
0000
0000
0000
1000
,
0000
0000
0000
0001
,
0000
0000
0000
0010
,
0000
0000
0000
0100
,
0000
0000
0000
1000
,
0000
0000
0000
0010
,
0000
0100
0000
0010
,
0000
1000
0000
0010
,
0000
1000
0000
0001
,
0000
0100
0000
0001
,
0000
0100
0000
0001
,
0000
0010
0000
0001
,
0000
0010
0000
0100
,
0000
1000
0000
0100
,
0000
0100
0100
0100
,
0000
0000
0000
1000
,
0000
0000
0000
0010
,
0000
0000
0000
0001
,
0000
0000
0000
0100
,
0000
0100
0000
1000
,
0000
1000
0000
0010
,
0000
0010
0000
0001
,
0000
0001
0000
0001
,
0000
0000
0000
1000
,
0000
0100
0000
1000
,
0000
0100
0000
0010
,
0000
0001
0000
0010
,
0000
0001
0000
0100
,
0000
0001
0000
0100
,
0000
0001
0000
1000
,
0000
0010
0000
1000
,
0000
0010
0000
1000
,
1000
1000
0000
0100
,
0000
0010
0000
0001
,
0001
0001
0000
0010
,
0000
0100
0000
1000
,
1000
0001
0000
1000
,
0000
0010
0000
0001
,
0001
1000
0000
0001
,
0000
0100
0000
1000
,
0000
0010
0000
0001
,
0000
0100
0000
1000
,
0000
0010
0000
0001
,
0000
0100
0000
1000
,
0000
0001
0000
0100
,
0000
0010
0000
1000
,
0000
0001
0000
0100
,
0000
0010
0000
0010
,
0000
0000
0000
0000
,
0000
0000
0000
0000
,
0000
0000
0000
0000
,
0000
0000
0000
1000
,
0000
0000
0000
0001
,
0000
0000
0000
0010
,
0000
0000
0000
0100
,
0000
0100
0000
0110
;

//---------------dance-single - ----------------
#NOTEDATA:;
#CHARTNAME:;
#STEPSTYPE:dance-single;
#DESCRIPTION:;
#CHARTSTYLE:;
#DIFFICULTY:Easy;
#METER:5;
#RADARVALUES:0.218335,0.310218,0.105124,0.056605,0.000000,189.000000,176.000000,13.000000,7.000000,0.000000,0.000000,0.000000,0.000000,0.000000,0.218335,0.310218,0.105124,0.056605,0.000000,189.000000,176.000000,13.000000,7.000000,0.000000,0.000000,0.000000,0.000000,0.000000;
#CREDIT:MILEN;
#NOTES:
0000
0000
0000
0000
,
0000
0000
0000
0000
,
0000
0000
0000
0000
,
0000
0000
0000
0000
,
0000
0000
0000
1000
,
0100
2000
3000
0001
,
0000
1000
0000
0001
,
0010
0002
0003
1000
,
0000
0001
0000
1000
,
0000
1000
0000
0010
,
0000
0010
0000
0001
,
0000
0001
0000
0100
,
0000
0100
0000
1000
,
0010
0100
0010
1000
,
0010
0100
0000
0001
,
0100
0010
0100
0001
,
0100
0010
0000
1000
,
0100
0010
0100
1000
,
0100
0010
0000
0001
,
0010
0100
0010
0001
,
0010
0100
0000
0010
,
0001
0100
0000
0010
,
1000
0100
0000
1000
,
0001
0010
0000
0001
,
1000
0100
0000
1000
,
0010
1000
0010
0100
,
0001
0100
0000
0001
,
0010
0001
0010
0100
,
1000
0100
0100
1001
,
0000
0100
0000
0010
,
0000
0001
0000
0100
,
0000
1000
0000
0001
,
0000
0010
0000
1000
,
0000
0100
0000
0010
,
0000
0100
0000
0010
,
0000
0010
0000
0010
,
0010
0010
0010
0020
,
0000
0030
0000
0001
,
0100
1000
0000
1000
,
0100
0001
0000
1000
,
0010
0001
0000
0001
,
0010
1000
0000
0001
,
0100
0010
1000
0001
,
0100
1000
0000
1000
,
0010
0100
0001
1000
,
0010
0001
0000
1001
,
0000
0100
0000
1001
,
0100
0100
0000
1001
,
0000
0010
0000
1001
,
0010
0010
0000
1001
,
0100
0010
1000
0001
,
0100
1001
0000
1001
,
0010
0100
0001
1000
,
0010
1001
0000
1000
,
0000
1000
0000
0010
,
0000
0010
0000
0001
,
0000
0001
0000
0100
,
0000
0100
0000
1000
,
0010
0001
0100
1000
,
0010
0110
0000
0001
,
0010
1000
0100
0001
,
0010
0110
0000
2002
,
0000
0000
0000
0000
,
0000
0000
0000
0000
,
0000
0000
0000
0000
,
0000
0000
3003
0001
,
0100
0002
0003
0100
,
0000
1000
0000
1000
,
0010
2000
3000
0010
,
0000
0001
0000
1001
;

//---------------dance-double - ----------------
#NOTEDATA:;
#CHARTNAME:;
#STEPSTYPE:dance-double;
#DESCRIPTION:;
#CHARTSTYLE:;
#DIFFICULTY:Easy;
#METER:5;
#RADARVALUES:0.212559,0.282016,0.064692,0.064692,0.000000,184.000000,176.000000,8.000000,8.000000,0.000000,0.000000,0.000000,0.000000,0.000000,0.212559,0.282016,0.064692,0.064692,0.000000,184.000000,176.000000,8.000000,8.000000,0.000000,0.000000,0.000000,0.000000,0.000000;
#CREDIT:MILEN;
#NOTES:
00000000
00000000
00000000
00000000
,
00000000
00000000
00000000
00000000
,
00000000
00000000
00000000
00000000
,
00000000
00000000
00000000
00000000
,
00000000
00000000
00000000
00001000
,
00010000
00002000
00003000
01000000
,
00000000
00001000
00000000
00010000
,
00001000
00020000
00030000
00000010
,
00000000
00010000
00000000
00001000
,
00000000
00000010
00000000
00000001
,
00000000
00000100
00000000
00001000
,
00000000
00010000
00000000
00100000
,
00000000
10000000
00000000
01000000
,
00100000
01000000
00100000
00010000
,
00100000
01000000
00000000
00010000
,
00001000
00010000
00001000
00000010
,
00001000
00010000
00000000
00001000
,
00010000
00001000
00010000
00100000
,
00010000
00001000
00000000
00000100
,
00000010
00000100
00000010
00001000
,
00000010
00000100
00000000
00000001
,
00000010
00000001
00000000
00001000
,
00000010
00001000
00000000
00010000
,
01000000
00010000
00000000
10000000
,
01000000
10000000
00000000
00010000
,
01000000
00010000
01000000
00001000
,
00010000
00000100
00000000
00001000
,
00000010
00001000
00000010
00010000
,
00001000
00100000
00100000
10010000
,
00000000
10000000
00000000
01000000
,
00000000
00010000
00000000
00001000
,
00000000
00000010
00000000
00000001
,
00000000
00000100
00000000
00001000
,
00000000
00010000
00000000
00100000
,
00000000
10000000
00000000
01000000
,
00000000
00010000
00000000
00001000
,
00010000
00001000
00010000
00022000
,
00000000
00033000
00000000
00001000
,
00100000
01000000
00000000
00010000
,
00001000
00000010
00000000
00001000
,
00010000
01000000
00000000
00010000
,
00000100
00000010
00000000
00000001
,
00000100
00001000
00010000
00001000
,
00010000
00100000
00000000
10000000
,
01000000
00010000
00001000
00010000
,
00001000
00000100
00000000
00000110
,
00000000
00001000
00000000
00010000
,
00100000
01000000
00000000
01100000
,
00000000
00010000
00000000
00010000
,
00001000
00000100
00000000
00001001
,
00000001
00000100
00001000
00010000
,
01000000
10000000
00000000
10010000
,
10000000
00100000
00010000
00001000
,
00000010
00000001
00000000
00000100
,
00000000
00001000
00000000
00010000
,
00000000
00100000
00000000
10000000
,
00000000
01000000
00000000
00010000
,
00000000
00001000
00000000
00000010
,
00000001
00000100
00001000
00010000
,
01000000
10000000
00000000
00100000
,
10000000
01000000
00010000
00001000
,
00000010
00000001
00000000
00002002
,
00000000
00000000
00000000
00000000
,
00000000
00000000
00000000
00000000
,
00000000
00000000
00000000
00000000
,
00000000
00000000
00003003
00001000
,
00000010
00020000
00030000
00001000
,
00000000
00100000
00000000
00010000
,
01000000
00002000
00003000
00010000
,
00000000
00000100
00000000
00000110
;

//---------------dance-single - ----------------
#NOTEDATA:;
#CHARTNAME:;
#STEPSTYPE:dance-single;
#DESCRIPTION:;
#CHARTSTYLE:;
#DIFFICULTY:Medium;
#METER:9;
#RADARVALUES:0.371979,0.430606,0.194076,0.121297,0.048519,322.000000,298.000000,24.000000,15.000000,0.000000,0.000000,0.000000,0.000000,0.000000,0.371979,0.430606,0.194076,0.121297,0.048519,322.000000,298.000000,24.000000,15.000000,0.000000,0.000000,0.000000,0.000000,0.000000;
#CREDIT:MILEN;
#NOTES:
0000
0000
0000
0000
,
0000
0000
0000
0000
,
0000
0000
0000
0000
,
0000
0000
0000
0000
,
0000
0000
0000
0000
0000
0000
0000
0000
0000
0000
0000
0000
1000
0000
0000
1000
,
0000
1000
0000
0000
0000
0010
0010
0000
,
0100
0000
0000
0000
0101
0000
0000
0000
0000
0000
0000
0000
0001
0000
0000
0001
,
0000
0001
0001
0000
0000
0100
0100
0000
,
0010
1010
1000
0002
,
0013
0200
1300
0020
,
0130
0002
1003
0200
,
0310
0002
0103
0020
,
1030
0000
0200
0000
0310
0000
0010
0001
,
0010
0000
0001
0000
1000
0000
0100
1000
,
0100
0000
1000
0000
0001
0000
0100
0010
,
0100
0000
0001
0000
1000
0000
0010
0100
,
0010
0100
0001
1000
0001
0000
1000
0100
,
0010
0000
0100
0000
1000
0000
0001
0010
,
0100
0000
0010
0000
0001
0000
0100
0010
,
0100
0000
0001
0000
1000
0000
0010
0100
,
0010
0100
0001
1000
0010
0100
0001
0000
,
0010
0100
0110
1000
,
0100
0010
0110
0001
,
0100
0010
1010
1000
,
0010
0100
0101
0001
,
1000
0010
0100
0000
0110
0000
0010
0000
,
0100
0001
0010
0000
0110
0000
0100
0000
,
1000
0100
0010
0000
0110
0000
0002
0000
,
0000
0000
1003
0000
1000
0010
0101
0000
,
0001
0010
1000
0100
,
0001
0010
1000
0001
,
0100
1000
0010
0001
,
0100
0000
1000
0000
0010
0000
0100
0001
,
0100
0000
0001
0000
1000
0000
0010
1000
,
0010
0000
1000
0000
0001
0000
0100
0010
,
1000
0000
0010
0100
0001
0000
1000
0100
,
0010
0100
0010
0001
0010
0000
2002
0000
,
0000
0000
0000
0000
3003
0000
0000
0000
0000
0000
0000
0000
1000
0000
0000
1000
,
0000
0000
1000
0000
0000
0000
0010
0000
0100
0000
0000
0000
0001
0000
0000
0001
,
0000
0000
0001
0000
0000
0000
0100
0000
0010
0000
0000
0000
0100
0000
0000
0100
,
0000
0000
0100
0000
0000
0000
0001
0000
1000
0000
0000
0000
0010
0000
0000
0010
,
0000
0000
0010
0000
0000
0000
1000
0000
0001
0000
0000
0000
0100
0000
0000
0010
,
0000
0000
1000
0000
0000
0000
1000
0000
0100
0000
0010
0000
0100
0000
0000
0010
,
0000
0000
0001
0000
0000
0000
0001
0000
0100
0000
0010
0000
0100
0000
0000
0001
,
0000
0000
1000
0000
0000
0000
1000
0000
0010
0000
0100
0000
0010
0000
0000
1000
,
0000
0001
0000
0001
0010
0100
0010
0000
,
0011
0000
0100
0000
1100
0000
1000
0010
,
0100
0010
1000
0000
0001
0000
0100
0000
,
0101
0000
0010
0000
1010
0000
1000
0100
,
0010
0100
1000
0000
0010
0000
0100
0000
,
0110
0000
0001
0000
1001
0000
1000
0100
,
0001
0100
1000
0000
0100
0000
0010
0000
,
0110
0000
1000
0000
1001
0000
0001
0010
,
1000
0010
0001
0000
0110
0000
1000
0000
,
0010
0000
0001
0010
0100
0000
0001
0000
,
0100
0000
1000
0100
0010
0000
1000
0000
,
0100
0000
0001
0100
0010
0000
0001
0000
,
0010
0000
1000
0010
0100
0000
1000
0100
,
0010
0001
0010
0000
0001
0000
0001
0100
,
0010
1000
0010
0000
1000
0000
0001
0010
,
0100
0000
1000
0100
0010
0000
0001
0100
,
0010
1000
0100
0010
0100
0000
2002
0000
,
0000
0000
0000
0000
,
0000
0000
0000
0003
,
0000
0000
0000
0000
,
0000
0000
0000
0000
0000
0000
0000
0000
3000
0000
0000
0000
0001
0000
0000
0100
,
0000
0010
0000
0000
0000
1000
0100
0000
,
1000
0000
0000
0000
1010
0000
0000
0000
0000
0000
0000
0000
1000
0000
0000
0100
,
0000
0010
0010
0000
0000
0001
0100
0000
,
0010
0110
0000
2002
,
0000
0000
0000
0000
,
3003
0000
0000
0000
;

//---------------dance-double - ----------------
#NOTEDATA:;
#CHARTNAME:;
#STEPSTYPE:dance-double;
#DESCRIPTION:;
#CHARTSTYLE:;
#DIFFICULTY:Medium;
#METER:9;
#RADARVALUES:0.347719,0.430606,0.145557,0.072778,0.048519,301.000000,283.000000,18.000000,9.000000,0.000000,0.000000,0.000000,0.000000,0.000000,0.347719,0.430606,0.145557,0.072778,0.048519,301.000000,283.000000,18.000000,9.000000,0.000000,0.000000,0.000000,0.000000,0.000000;
#CREDIT:MILEN;
#NOTES:
// measure 0
00000000
00000000
00000000
00000000
,  // measure 1
00000000
00000000
00000000
00000000
,  // measure 2
00000000
00000000
00000000
00000000
,  // measure 3
00000000
00000000
00000000
00000000
,  // measure 4
00000000
00000000
00000000
00000000
00000000
00000000
00000000
00000000
00000000
00000000
00000000
00000000
00010000
00000000
00000000
00010000
,  // measure 5
00000000
00010000
00000000
00000000
00000000
00000010
00000010
00000000
,  // measure 6
00010000
00000000
00000000
00000000
00011000
00000000
00000000
00000000
00000000
00000000
00000000
00000000
00001000
00000000
00000000
00001000
,  // measure 7
00000000
00001000
00001000
00000000
00000000
01000000
01000000
00000000
,  // measure 8
00001000
00011000
00010000
00000200
,  // measure 9
00001000
00000010
00000001
00001000
,  // measure 10
00000001
00000010
00001300
00200000
,  // measure 11
00010000
01000000
10000000
00010000
,  // measure 12
10000000
01000000
00310000
00000100
,  // measure 13
00000010
00000001
00000100
00001000
,  // measure 14
01000000
00100000
10000000
01000000
,  // measure 15
00010000
00000010
00000100
00000001
,  // measure 16
00000010
00001000
00100000
01000000
,  // measure 17
10000000
00100000
00010000
00000010
,  // measure 18
00001000
00000001
00000100
00001000
,  // measure 19
00100000
00010000
10000000
01000000
,  // measure 20
00010000
00000000
00001000
00010000
00001000
00000000
00000010
00000000
,  // measure 21
00000001
00000100
00001100
00001000
,  // measure 22
00010000
00100000
10100000
10000000
,  // measure 23
01000000
00010000
00011000
00001000
,  // measure 24
00000100
00000001
00000011
00000010
,  // measure 25
00001000
00010000
00110000
00100000
,  // measure 26
10000000
01000000
01010000
00010000
,  // measure 27
00001000
00000010
00000011
00002000
,  // measure 28
00000000
00000000
00003010
00000000
00000010
00010000
00001000
00000000
,  // measure 29
00100000
01000000
10000000
00100000
,  // measure 30
01000000
00001000
00010000
00000010
,  // measure 31
00000100
00000001
00000010
00000100
,  // measure 32
00010000
00000000
00001000
00000000
00100000
00000000
01000000
10000000
,  // measure 33
01000000
00000000
00010000
00000000
00001000
00000000
00000010
00000001
,  // measure 34
00000010
00000000
00001000
00000000
00010000
00000000
00001000
01000000
,  // measure 35
00001000
00000000
00010000
00000010
00010000
00000000
00001000
00100000
,  // measure 36
00001000
00010000
00000100
00010000
00001000
00000000
00022000
00000000
,  // measure 37
00000000
00000000
00000000
00000000
00033000
00000000
00000000
00000000
00000000
00000000
00000000
00000000
00010000
00000000
00000000
00010000
,  // measure 38
00000000
00000000
00010000
00000000
00000000
00000000
00000100
00000000
00000010
00000000
00000000
00000000
00000001
00000000
00000000
00000001
,  // measure 39
00000000
00000000
00000001
00000000
00000000
00000000
00000100
00000000
00001000
00000000
00000000
00000000
00010000
00000000
00000000
00010000
,  // measure 40
00000000
00000000
00010000
00000000
00000000
00000000
00001000
00000000
00100000
00000000
00000000
00000000
01000000
00000000
00000000
01000000
,  // measure 41
00000000
00000000
01000000
00000000
00000000
00000000
10000000
00000000
00100000
00000000
00000000
00000000
00010000
00000000
00000000
00001000
,  // measure 42
00000000
00000000
00010000
00000000
00000000
00000000
00000100
00000000
00001000
00000000
00000100
00000000
00000010
00000000
00000000
00000001
,  // measure 43
00000000
00000000
00000100
00000000
00000000
00000000
00000010
00000000
00010000
00000000
00001000
00000000
00010000
00000000
00000000
00100000
,  // measure 44
00000000
00000000
01000000
00000000
00000000
00000000
00100000
00000000
10000000
00000000
01000000
00000000
10000000
00000000
00000000
01000000
,  // measure 45
00000000
00010000
00000000
00001000
00010000
00001000
00000010
00000000
,  // measure 46
00000011
00000000
00000001
00000000
00000100
00000000
00001000
00010000
,  // measure 47
00001000
00100000
01000000
00000000
10000000
00000000
00100000
00000000
,  // measure 48
01100000
00000000
01000000
00000000
00010000
00000000
00100000
01000000
,  // measure 49
00010000
00001000
00010000
00000000
00000100
00000000
00000010
00000000
,  // measure 50
00000110
00000000
00000100
00000000
00000010
00000000
00000001
00000100
,  // measure 51
00001000
00010000
00001000
00000000
01000000
00000000
00100000
00000000
,  // measure 52
10100000
00000000
10000000
00000000
01000000
00000000
00010000
00001000
,  // measure 53
00010000
00000100
00000010
00000000
00000001
00000000
00000100
00000000
,  // measure 54
00001000
00000000
00010000
00001000
01000000
00000000
00100000
00000000
,  // measure 55
00010000
00000000
00001000
00010000
00000010
00000000
00001000
00000000
,  // measure 56
00000100
00000000
00010000
00001000
01000000
00000000
00010000
00000000
,  // measure 57
00100000
00000000
00001000
00010000
00000010
00000000
00001000
00000100
,  // measure 58
00000010
00000001
00000010
00000000
00001000
00000000
00010000
01000000
,  // measure 59
10000000
01000000
00100000
00000000
00010000
00000000
10000000
00100000
,  // measure 60
01000000
00000000
00010000
00100000
00001000
00000000
00010000
00000100
,  // measure 61
00001000
00000100
00001000
00000100
00000010
00000000
00002002
00000000
,  // measure 62
00000000
00000000
00000000
00000000
,  // measure 63
00000000
00000000
00000000
00003000
,  // measure 64
00000000
00000000
00000000
00000000
,  // measure 65
00000000
00000000
00000000
00000000
00000000
00000000
00000000
00000000
00000003
00000000
00000000
00000000
00000001
00000000
00000000
00000100
,  // measure 66
00000000
00001000
00000000
00000000
00000000
00010000
00010000
00000000
,  // measure 67
00100000
00000000
00000000
00000000
10100000
00000000
00000000
00000000
00000000
00000000
00000000
00000000
10000000
00000000
00000000
01000000
,  // measure 68
00000000
00010000
00010000
00000000
00000000
00001000
00010000
00000000
,  // measure 69
00000100
00000110
00000000
00002002
,  // measure 70
00000000
00000000
00000000
00000000
,  // measure 71
00003003
00000000
00000000
00000000
;
