#TITLE:Jump;
#SUBTITLE:;
#ARTIST:Rasmus Faber;
#TITLETRANSLIT:;
#SUBTITLETRANSLIT:;
#ARTISTTRANSLIT:;
#GENRE:VARIETY;
#CREDIT:MUINELIM;
#BANNER:Jump.png;
#JACKET:Jump-jacket.png;
#BACKGROUND:Jump-bg.png;
#LYRICSPATH:;
#CDTITLE:;
#MUSIC:Jump.ogg;
#OFFSET:-0.113000;
#SAMPLESTART:42.519012;
#SAMPLELENGTH:15.298347;
#SELECTABLE:YES;
#DISPLAYBPM:133;
#BPMS:0.000000=133
;
#STOPS:
;
#BGCHANGES:;
#KEYSOUNDS:;
#ATTACKS:;

//---------------dance-single - ----------------
#NOTES:
     dance-single:
     :
     Beginner:
     4:
     0.138925,0.231677,0.068645,0.011441,0.000000,85.000000,79.000000,6.000000,1.000000,0.000000,0.000000,0.138925,0.231677,0.068645,0.011441,0.000000,85.000000,79.000000,6.000000,1.000000,0.000000,0.000000:
// measure 0
0000
0000
0000
0000
,  // measure 1
0000
0000
0000
0000
,  // measure 2
0000
0000
0000
0000
,  // measure 3
0000
0000
0000
0000
,  // measure 4
1000
0000
0001
0000
,  // measure 5
1000
0000
0001
0000
,  // measure 6
0100
0000
0010
0000
,  // measure 7
0100
0000
0010
0000
,  // measure 8
1000
0000
0001
0000
,  // measure 9
0100
0000
0010
0000
,  // measure 10
1000
0000
0001
0000
,  // measure 11
0100
0000
0010
0000
,  // measure 12
0100
0000
0000
0000
,  // measure 13
0001
0000
0000
0000
,  // measure 14
1000
0000
0000
0000
,  // measure 15
0010
0000
0000
0000
,  // measure 16
0100
0000
0000
0000
,  // measure 17
0001
0000
0000
0000
,  // measure 18
1000
0000
0000
0000
,  // measure 19
0010
0000
0000
0000
,  // measure 20
0100
0000
0000
0000
,  // measure 21
0100
0000
0000
0000
,  // measure 22
0200
0000
0000
0000
,  // measure 23
0000
0000
0300
0000
,  // measure 24
0001
0001
0001
0001
,  // measure 25
0001
0001
0001
0001
,  // measure 26
0001
0001
0001
0001
,  // measure 27
0001
0001
0001
0000
,  // measure 28
1000
1000
1000
1000
,  // measure 29
1000
1000
1000
1000
,  // measure 30
1000
1000
1000
1000
,  // measure 31
1000
1000
1000
0000
,  // measure 32
1001
0000
0000
0000
,  // measure 33
1001
0000
0000
0000
,  // measure 34
0001
0000
0010
0000
,  // measure 35
0100
0000
1000
0000
,  // measure 36
0001
0000
0010
0000
,  // measure 37
0100
0000
1000
0000
,  // measure 38
0010
0000
0100
0000
,  // measure 39
0001
0000
1000
0000
,  // measure 40
0010
0000
0100
0000
,  // measure 41
0001
0000
1000
0000
,  // measure 42
1001
0000
0000
0000
,  // measure 43
1001
0000
0000
0000
,  // measure 44
1001
0000
0000
0000
,  // measure 45
1001
0000
0000
0000
;

//---------------dance-single - ----------------
#NOTES:
     dance-single:
     :
     Easy:
     4:
     0.209204,0.368396,0.263140,0.068645,0.000000,128.000000,105.000000,23.000000,6.000000,0.000000,0.000000,0.209204,0.368396,0.263140,0.068645,0.000000,128.000000,105.000000,23.000000,6.000000,0.000000,0.000000:
0000
0000
0000
0000
,
0000
0000
0000
0000
,
0000
0000
0000
0000
,
0000
0000
0000
0000
,
1000
0100
1000
1000
,
0000
1000
0000
1000
,
0001
0010
0001
0001
,
0000
0001
0000
0001
,
0100
0010
0100
0100
,
0000
0100
0000
0100
,
0010
0100
0010
0010
,
0000
0010
0000
0010
,
1001
0000
1000
0000
,
0100
0000
0010
0000
,
0001
0000
1000
0000
,
0100
0010
0100
0100
,
0000
0001
0000
0010
,
0000
0100
0000
1000
,
0000
0001
0000
0010
,
0000
0100
0010
0100
,
1001
0000
0001
0000
,
1001
0000
1000
0000
,
2002
0000
0000
0000
,
0000
0000
3003
0000
,
0001
1000
0001
1000
,
0001
1000
0001
1000
,
0001
1000
0001
1000
,
0001
1000
0001
0000
,
1001
0001
1001
1000
,
1001
0001
1001
1000
,
1001
0001
1001
1000
,
1001
0001
1001
0000
,
1001
0000
1001
0000
,
2002
0000
0000
3003
,
1000
0000
0010
0000
,
0001
0000
0100
0000
,
1000
0000
0010
0000
,
0001
0000
0100
0000
,
0001
0000
0010
0000
,
1000
0000
0100
0000
,
0001
0000
0010
0000
,
1000
0000
0100
0000
,
0110
0000
0110
0000
,
1001
0000
1001
0000
,
0110
0000
1001
0000
,
0110
0000
2002
0000
,
3003
0000
0000
0000
;

//---------------dance-single - ----------------
#NOTES:
     dance-single:
     :
     Medium:
     7:
     0.353032,0.473652,0.652129,0.114409,0.000000,216.000000,159.000000,57.000000,10.000000,0.000000,0.000000,0.353032,0.473652,0.652129,0.114409,0.000000,216.000000,159.000000,57.000000,10.000000,0.000000,0.000000:
0000
0000
0000
0000
,
0000
0000
0000
0000
,
0000
0000
0000
0000
,
0000
0000
0000
0000
,
1000
0100
0010
0001
,
0000
0100
0010
0100
0000
0100
0010
0100
,
0001
0010
0100
1000
,
0000
0010
0100
0010
0000
0010
0100
0010
,
1000
0100
0001
0010
,
0000
0100
0010
0100
0000
0100
0010
0100
,
1000
0010
0001
0100
,
0000
0010
0100
0010
0000
0010
0100
0010
,
0001
0100
0001
0100
,
1000
0010
1000
0010
,
0001
0100
1000
0001
,
1001
0110
1001
0110
,
1000
0100
1000
0100
,
0001
0010
0001
0010
,
1000
0100
0001
0010
,
1000
0001
1001
0110
,
2002
0000
0003
0001
3001
0000
0000
0000
,
2002
0000
3000
1000
1003
0000
0000
0000
,
0220
0000
0000
0000
,
0000
0000
0330
0000
,
1001
0110
1001
0110
,
1001
0110
1001
0110
,
1001
0110
1001
0110
,
1001
0110
1001
1001
,
1010
1100
1010
1100
,
0011
0101
0011
0101
,
0011
1010
1100
0101
,
1100
1010
0011
0101
,
1001
0000
0110
0110
,
2002
0000
0000
3003
,
0001
0000
1000
0000
0100
1000
0100
0000
,
1000
0001
1000
1100
,
1000
0000
0001
0000
0100
0001
0100
0000
,
0001
1000
0001
0101
,
0100
0000
0001
0000
0100
1000
0100
0000
,
0001
0100
0010
0110
,
0010
0000
1000
0000
0010
0001
0010
0000
,
1000
0010
0100
0110
,
0101
0000
0011
0000
,
1010
0000
1100
0000
,
1010
0000
0011
0000
,
0101
0000
2200
0000
,
3300
0000
0000
0000
;

//---------------dance-single - ----------------
#NOTES:
     dance-single:
     :
     Hard:
     12:
     0.508301,0.684164,0.789420,0.217376,0.034323,311.000000,242.000000,69.000000,19.000000,0.000000,0.000000,0.508301,0.684164,0.789420,0.217376,0.034323,311.000000,242.000000,69.000000,19.000000,0.000000,0.000000:
0000
0000
0000
0000
,
0000
0000
0000
0000
,
0000
0000
0000
0000
,
0000
0000
0000
0000
0000
0000
0100
0100
,
0001
1000
0010
0100
0001
1000
0110
0000
,
0000
0010
1000
0100
0010
0001
0100
0100
,
0010
1000
0001
0100
0010
1000
0001
0110
,
0000
0000
0100
0000
0001
0000
0010
0000
0100
0010
0100
0000
1000
0000
0010
0000
,
0100
0001
1000
0010
0100
0001
1010
0000
,
0000
1000
0100
0010
0001
1000
0010
0100
,
0001
1000
0010
0100
0001
1000
0010
0101
,
0000
0000
0001
0000
0010
0000
0100
0000
1000
0000
0010
0100
0010
0000
0100
0000
,
0101
0001
0011
0010
,
0110
0100
1100
1000
,
1010
0000
0010
0000
0110
0000
0100
0001
,
1000
0001
0100
0001
2000
0000
0200
3300
,
1100
1000
1010
0010
,
0110
0100
0101
0001
,
1001
0000
1000
0000
1100
0000
0100
0010
,
0001
1000
0010
0100
0002
0000
0020
0033
,
0210
0000
0000
1000
0310
0000
0000
0000
,
0120
0000
0000
0001
0130
0000
0000
0000
,
2002
0000
0000
0000
,
0000
0000
3003
0000
,
1001
1000
1010
0010
0110
0100
0101
0001
,
0011
0010
0110
0100
1100
1000
1010
0010
,
0110
0100
0101
0001
1001
1000
1100
0100
,
0110
0010
0011
0001
1001
0000
0110
0000
,
1001
1000
1100
0100
0110
0010
0011
0001
,
0101
0100
0110
0010
1010
1000
1001
0001
,
0011
0010
1010
1000
1100
0100
0101
0001
,
0011
0010
0110
0100
1100
1000
1001
0000
,
1010
0011
0101
1100
,
2002
0000
0000
3003
0001
0010
0100
1000
,
0010
0000
0100
0000
0001
0000
0100
0000
0110
0000
0000
1010
0000
0000
1100
0000
,
1000
0001
0010
0100
1000
0010
0100
0000
,
0001
0000
1000
0000
0100
0000
0010
0000
0011
0000
0000
0101
0000
0000
1010
0000
,
1000
0100
0010
0100
1000
0010
0100
0000
,
0001
0000
0010
0000
0100
0000
1000
0000
1010
0000
0000
0011
0000
0000
0110
0000
,
0100
0001
0010
0100
1000
0001
0100
0000
,
0010
0000
1000
0000
0100
0000
0010
0000
0011
0000
0000
1010
0000
0000
1001
0000
,
1000
0010
0100
0001
0100
1000
0100
0010
,
0022
0003
2000
0030
,
0200
3000
0002
0300
,
0200
0003
2000
0300
,
0020
3000
0200
0000
,
0330
0000
0000
0000
;

//---------------dance-single - ----------------
#NOTES:
     dance-single:
     :
     Challenge:
     12:
     0.449462,0.499966,0.869506,0.137290,0.034323,275.000000,199.000000,76.000000,12.000000,240.000000,0.000000,0.449462,0.499966,0.869506,0.137290,0.034323,275.000000,199.000000,76.000000,12.000000,240.000000,0.000000:
0000
0000
0000
0000
,
0000
0000
0000
0000
,
0000
0000
0000
0000
,
0000
0000
0000
0000
0000
0000
0100
0100
,
0001
1000
0010
0100
0001
1000
0110
MMMM
,
0000
0010
1000
0100
0010
0001
0100
0100
,
0010
1000
0001
0100
0010
1000
0001
0110
,
MMMM
0000
0100
0000
0001
0000
0010
0000
0100
0010
0100
0000
1000
0000
0010
0000
,
0100
0001
1000
0010
0100
0001
1010
MMMM
,
0000
1000
0100
0010
0001
1000
0010
0100
,
0001
1000
0010
0100
0001
1000
0010
0101
,
MMMM
0000
0001
0000
0010
0000
0100
0000
1000
0000
0010
0100
0010
0000
0100
0000
,
0101
MMMM
0011
MMMM
,
0110
MMMM
1100
MMMM
,
1010
0000
MMMM
0000
0110
0000
0100
0001
,
1000
0001
0100
0001
2000
0000
0200
3300
,
1100
MMMM
1010
MMMM
,
0110
MMMM
0101
MMMM
,
1001
0000
MMMM
0000
1100
0000
0100
0010
,
0001
1000
0010
0100
0002
0000
0020
0033
,
0210
0000
0000
1000
0310
0000
0000
0000
,
0120
0000
0000
0001
0130
0000
0000
0000
,
2002
0000
0000
0000
,
0000
0000
0000
0000
3003
MMMM
MMMM
MMMM
,
1001
MMMM
1010
MMMM
0110
MMMM
0101
MMMM
,
0011
MMMM
0110
MMMM
1100
MMMM
1010
MMMM
,
0110
MMMM
0101
MMMM
1001
MMMM
1100
MMMM
,
0110
MMMM
0011
MMMM
1001
0000
0110
0000
,
1001
MMMM
1100
MMMM
0110
MMMM
0011
MMMM
,
0101
MMMM
0110
MMMM
1010
MMMM
1001
MMMM
,
0011
MMMM
1010
MMMM
1100
MMMM
0101
MMMM
,
0011
MMMM
0110
MMMM
1100
MMMM
1001
0000
,
1010
0011
0101
1100
,
2002
0000
0000
3003
0001
0010
0100
1000
,
0010
0000
0100
0000
0001
0000
0100
0000
0110
0000
0000
1010
0000
0000
1100
0000
,
MMMM
0001
0010
0100
1000
0010
0100
MMMM
,
0001
0000
1000
0000
0100
0000
0010
0000
0011
0000
0000
0101
0000
0000
1010
0000
,
MMMM
0100
0010
0100
1000
0010
0100
MMMM
,
0001
0000
0010
0000
0100
0000
1000
0000
1010
0000
0000
0011
0000
0000
0110
0000
,
MMMM
0001
0010
0100
1000
0001
0100
MMMM
,
0010
0000
1000
0000
0100
0000
0010
0000
0011
0000
0000
1010
0000
0000
1001
0000
,
MMMM
0010
0100
0001
0100
1000
0100
0010
,
0011
MMMM
1010
MMMM
,
1100
MMMM
0101
MMMM
,
1100
MMMM
1010
MMMM
,
0011
MMMM
2002
0000
,
3003
0000
0000
0000
;

//---------------dance-double - ----------------
#NOTES:
     dance-double:
     :
     Easy:
     5:
     0.209204,0.368396,0.263140,0.068645,0.000000,128.000000,105.000000,23.000000,6.000000,0.000000,0.000000,0.209204,0.368396,0.263140,0.068645,0.000000,128.000000,105.000000,23.000000,6.000000,0.000000,0.000000:
00000000
00000000
00000000
00000000
,
00000000
00000000
00000000
00000000
,
00000000
00000000
00000000
00000000
,
00000000
00000000
00000000
00000000
,
10000000
01000000
00100000
00100000
,
00000000
00010000
00000000
00001000
,
00000001
00000010
00000100
00000100
,
00000000
00001000
00000000
00010000
,
10000000
00100000
01000000
01000000
,
00000000
00010000
00000000
00001000
,
00000001
00000100
00000010
00000010
,
00000000
00001000
00000000
00010000
,
10010000
00000000
10000000
00000000
,
01000000
00000000
00010000
00000000
,
00001000
00000000
00000010
00000000
,
00000001
00000000
00000100
00000000
,
00001000
00000000
00010000
00000000
,
00100000
00000000
10000000
00000000
,
00000000
01000000
00000000
00010000
,
00000000
00001000
00010000
00001000
,
00011000
00000000
00100000
00000000
,
00011000
00000000
00000100
00000000
,
00022000
00000000
00000000
00000000
,
00000000
00000000
00033000
00000000
,
00010000
00001000
00010000
00001000
,
00010000
00001000
00010000
00001000
,
00010000
00001000
00010000
00001000
,
00010000
00001000
00010000
00001000
,
00011000
00010000
00011000
00001000
,
00011000
00010000
00011000
00001000
,
00011000
01000000
00011000
00000100
,
00011000
00100000
00011000
00000010
,
00011000
00000000
00011000
00000000
,
00022000
00000000
00000000
00033000
,
00001000
00000000
00010000
00000000
,
00100000
00000000
10000000
00000000
,
01000000
00000000
00010000
00000000
,
00001000
00000000
00000010
00000000
,
00000001
00000000
00000100
00000000
,
00001000
00000000
00010000
00000000
,
00100000
00000000
10000000
00000000
,
01000000
00000000
00010000
00000000
,
00011000
00000000
00011000
00000000
,
01100000
00000000
01100000
00000000
,
00011000
00000000
00011000
00000000
,
00000110
00000000
00000220
00000000
,
00000330
00000000
00000000
00000000
;

//---------------dance-double - ----------------
#NOTES:
     dance-double:
     :
     Medium:
     9:
     0.328516,0.473652,0.560602,0.114409,0.000000,201.000000,152.000000,49.000000,10.000000,0.000000,0.000000,0.328516,0.473652,0.560602,0.114409,0.000000,201.000000,152.000000,49.000000,10.000000,0.000000,0.000000:
00000000
00000000
00000000
00000000
,
00000000
00000000
00000000
00000000
,
00000000
00000000
00000000
00000000
,
00000000
00000000
00000000
00000000
,
10000000
01000000
00100000
00010000
,
00000000
00001000
00000000
00010000
00000000
00001000
00000000
00000010
,
00000001
00000010
00000100
00001000
,
00000000
00010000
00000000
00001000
00000000
00010000
00000000
01000000
,
10000000
00100000
01000000
00010000
,
00000000
00001000
00000000
00010000
00000000
00001000
00000000
00000100
,
00000001
00000100
00000010
00001000
,
00000000
00010000
00000000
00001000
00000000
00010000
00000000
00100000
,
10000000
01000000
10000000
01000000
,
00010000
01000000
00010000
01000000
,
00010000
00001000
00010000
00001000
,
00011000
01000000
00011000
00000100
,
00000001
00000010
00000001
00000010
,
00001000
00000010
00001000
00000010
,
00001000
00010000
00001000
00010000
,
00011000
00000010
00011000
00100000
,
00022000
00000000
00030000
01000000
01003000
00000000
00000000
00000000
,
00022000
00000000
00003000
00000100
00030100
00000000
00000000
00000000
,
00022000
00000000
00000000
00000000
,
00000000
00000000
00000000
00033000
,
00011000
01001000
00011000
01001000
,
00011000
00010100
00011000
00010100
,
00011000
00101000
00011000
00101000
,
00011000
00010010
00011000
00010010
,
00011000
00110000
10100000
11000000
,
01010000
00011000
00001010
00000011
,
00000101
00001100
00011000
01010000
,
11000000
10100000
00110000
00011000
,
01001000
00010100
00101000
00010010
,
00022000
00000000
00000000
00033000
,
00001000
00000000
00010000
00000000
01000000
10000000
00100000
00000000
,
10000000
01000000
00010000
00011000
,
00010000
00000000
00001000
00000000
00000010
00000001
00000100
00000000
,
00000001
00000010
00001000
00011000
,
00001000
00000000
00010000
00000000
01000000
10000000
00100000
00000000
,
01000000
00001000
00010000
00011000
,
00010000
00000000
00001000
00000000
00000010
00000001
00000100
00000000
,
00000010
00010000
00001000
00011000
,
10000000
00000000
01000000
00000000
,
00100000
00000000
00010000
00000000
,
00001000
00000000
00000100
00000000
,
00000010
00000000
00000022
00000000
,
00000033
00000000
00000000
00000000
;

//---------------dance-double - ----------------
#NOTES:
     dance-double:
     :
     Hard:
     13:
     0.527914,0.684164,0.938151,0.297462,0.068645,323.000000,241.000000,82.000000,26.000000,0.000000,0.000000,0.527914,0.684164,0.938151,0.297462,0.068645,323.000000,241.000000,82.000000,26.000000,0.000000,0.000000:
00000000
00000000
00000000
00000000
,
00000000
00000000
00000000
00000000
,
00000000
00000000
00000000
00000000
,
00000000
00000000
00000000
00000000
00000000
00000000
10000000
10000000
,
10000000
01000000
00100000
00010000
00001000
00000100
00000010
00000001
,
00000000
00000101
00000000
00001100
00000000
00000101
00000000
00001100
,
00000001
00000010
00000100
00001000
00010000
00100000
01000000
10000000
,
00000000
10100000
00000000
00110000
00000000
10100000
00000000
00110000
,
10000000
00100000
01000000
00010000
00001000
00000010
00000100
00000001
,
00000000
00000011
00000000
00001010
00000000
00000011
00000000
00001010
,
00000001
00000100
00000010
00001000
00010000
01000000
00100000
10000000
,
00000000
11000000
00000000
01010000
00000000
11000000
00000000
01010000
,
10010000
00010000
01010000
00010000
,
00110000
00010000
00011000
00010000
,
00010100
00000000
00010000
00000000
00010010
00000000
00010000
00001000
,
00000100
00000010
00001000
00010000
00011000
00000000
00002002
00003003
,
00001001
00001000
00001010
00001000
,
00001100
00001000
00011000
00001000
,
00101000
00000000
00001000
00000000
01001000
00000000
00001000
00010000
,
00100000
01000000
00010000
00001000
00011000
00000000
20020000
30030000
,
12000000
00000000
00000000
03010000
00001000
00000000
00000000
00000000
,
00000021
00000000
00000000
00001030
00010000
00000000
00000000
00000000
,
00022000
00000000
00000000
00000000
,
00000000
00000000
00033000
00000000
,
00011000
01000000
00011000
00000100
00011000
01000000
00011000
00000100
,
00011000
00100000
00011000
00000010
00011000
00100000
00011000
00000010
,
00011000
10000000
00011000
00000000
00011000
00000001
00011000
00000000
,
00011000
10000000
00011000
00000001
00011000
00000000
00011000
00000000
,
00011000
00010000
01010000
01000000
11000000
10000000
10100000
00100000
,
00110000
00010000
00011000
00001000
00001100
00000100
00000101
00000001
,
00000011
00000010
00001010
00001000
00011000
01000000
10010000
01000000
,
00011000
00000010
00001001
00000010
00011000
00010000
00001000
00010000
,
00011000
10010000
00011000
00001001
,
00022000
00000000
00000000
00033000
00001000
00100000
01000000
10000000
,
00100000
00000000
01000000
00000000
00010000
00000000
00100000
00000000
01000000
00010000
00000000
00001000
00010000
00000000
01000000
00010000
,
00001000
00100000
00010000
01000000
00001000
00010000
00010100
00000000
,
00000100
00000000
00000010
00000000
00000001
00000000
00000100
00000000
00001000
00010000
00000000
00001000
00000100
00000000
00001000
00010000
,
00000100
00001000
00000010
00010000
00001000
00100000
00110000
00000000
,
00010000
00000000
00100000
00000000
01000000
00000000
10000000
00000000
00100000
00010000
00000000
00100000
01000000
00000000
00100000
00010000
,
00001000
00000010
00000001
00000100
00000010
00010000
00011000
00000000
,
00001000
00000000
00100000
00000000
01000000
00000000
00010000
00000000
00001000
00000010
00000000
00001000
00010000
00000000
00001000
00000010
,
00000001
00000100
00001000
00010000
01000000
10000000
00100000
00010000
,
00022000
00033000
00002002
00003003
,
00022000
00033000
20020000
30030000
,
02200000
03300000
00022000
00033000
,
00000220
00000330
02200000
00000000
,
03300000
00000000
00000000
00000000
;

//---------------dance-double - ----------------
#NOTES:
     dance-double:
     :
     Challenge:
     13:
     0.462538,0.526280,0.915269,0.114409,0.068645,283.000000,203.000000,80.000000,10.000000,476.000000,0.000000,0.462538,0.526280,0.915269,0.114409,0.068645,283.000000,203.000000,80.000000,10.000000,476.000000,0.000000:
00000000
00000000
00000000
00000000
,
00000000
00000000
00000000
00000000
,
00000000
00000000
00000000
00000000
,
00000000
00000000
00000000
00000000
00000000
00000000
10000000
10000000
,
10000000
01000000
00100000
00010000
00001000
00000100
00000010
00000001
,
00000000
00000101
0000MMMM
00001100
0000MMMM
00000101
0000MMMM
00001100
,
00000001
00000010
00000100
00001000
00010000
00100000
01000000
10000000
,
00000000
10100000
MMMM0000
00110000
MMMM0000
10100000
MMMM0000
00110000
,
10000000
00100000
01000000
00010000
00001000
00000010
00000100
00000001
,
00000000
00000011
0000MMMM
00001010
0000MMMM
00000011
0000MMMM
00001010
,
00000001
00000100
00000010
00001000
00010000
01000000
00100000
10000000
,
00000000
11000000
MMMM0000
01010000
MMMM0000
11000000
MMMM0000
01010000
,
10010000
MMMMMMMM
01010000
MMMMMMMM
,
00110000
MMMMMMMM
00011000
MMMMMMMM
,
00010100
00000000
MMMMMMMM
00000000
00010010
00000000
00010000
00001000
,
00000100
00000010
00001000
00010000
MMMMMMMM
00000000
00002002
00003003
,
00001001
MMMMMMMM
00001010
MMMMMMMM
,
00001100
MMMMMMMM
00011000
MMMMMMMM
,
00101000
00000000
MMMMMMMM
00000000
01001000
00000000
00001000
00010000
,
00100000
01000000
00010000
00001000
MMMMMMMM
00000000
20020000
30030000
,
11000000
00000000
MMMMMMMM
00010000
00001000
00000000
00000000
00000000
,
00000011
00000000
MMMMMMMM
00001000
00010000
00000000
00000000
00000000
,
00022000
00000000
00000000
00000000
,
00000000
00000000
00000000
00000000
00033000
MMMMMMMM
MMMMMMMM
MMMMMMMM
,
00011000
MMMMMMMM
00011000
MMMMMMMM
00011000
MMMMMMMM
00011000
MMMMMMMM
,
00011000
MMMMMMMM
00011000
MMMMMMMM
00011000
MMMMMMMM
00011000
MMMMMMMM
,
00011000
MMMM0000
00011000
0000MMMM
00011000
MMMM0000
00011000
0000MMMM
,
00011000
MMMM0000
00011000
0000MMMM
00011000
MMMMMMMM
00011000
MMMMMMMM
,
00011000
MMMMMMMM
01010000
MMMM0000
11000000
MMMM0000
10100000
MMMM0000
,
00110000
MMMMMMMM
00011000
MMMMMMMM
00001100
0000MMMM
00000101
0000MMMM
,
00000011
0000MMMM
00001010
MMMMMMMM
00011000
MMMM0000
10010000
MMMM0000
,
00011000
0000MMMM
00001001
0000MMMM
00011000
0001MMMM
MMMM1000
0001MMMM
,
00011000
MMMM0000
10010000
MMMMMMMM
00011000
0000MMMM
00001001
MMMMMMMM
,
00022000
00000000
00000000
00033000
00001000
00100000
01000000
10000000
,
00100000
00000000
01000000
00000000
00010000
00000000
00100000
00000000
01000000
00010000
00000000
00001000
00010000
00000000
01000000
00010000
,
00001000
00100000
00010000
01000000
00001000
00010000
00010100
MMMMMMMM
,
00000100
00000000
00000010
00000000
00000001
00000000
00000100
00000000
00001000
00010000
00000000
00001000
00000100
00000000
00001000
00010000
,
00000100
00001000
00000010
00010000
00001000
00100000
00110000
MMMMMMMM
,
00010000
00000000
00100000
00000000
01000000
00000000
10000000
00000000
00100000
00010000
00000000
00100000
01000000
00000000
00100000
00010000
,
00001000
00000010
00000001
00000100
00000010
00010000
00011000
MMMMMMMM
,
00001000
00000000
00100000
00000000
01000000
00000000
00010000
00000000
00001000
00000010
00000000
00001000
00010000
00000000
00001000
00000010
,
00000001
00000100
00001000
00010000
01000000
10000000
00100000
00010000
,
00011000
MMMMMMMM
00001001
MMMMMMMM
,
00011000
MMMMMMMM
10010000
MMMMMMMM
,
01100000
MMMMMMMM
00011000
MMMMMMMM
,
00000110
MMMMMMMM
02200000
00000000
,
03300000
00000000
00000000
00000000
;
