#VERSION:0.83;
#TITLE:Jogging;
#SUBTITLE:;
#ARTIST:LUCY;
#TITLETRANSLIT:;
#SUBTITLETRANSLIT:;
#ARTISTTRANSLIT:;
#GENRE:K-POP;
#ORIGIN:;
#CREDIT:MUINELIM;
#BANNER:Jogging.png;
#BACKGROUND:Jogging-bg.png;
#PREVIEWVID:;
#JACKET:Jogging-jacket.png;
#CDIMAGE:;
#DISCIMAGE:;
#LYRICSPATH:;
#CDTITLE:;
#MUSIC:Jogging.mp3;
#OFFSET:-0.155000;
#SAMPLESTART:40.800014;
#SAMPLELENGTH:12.999990;
#SELECTABLE:YES;
#DISPLAYBPM:138.000000;
#BPMS:0.000=138.000;
#STOPS:;
#DELAYS:;
#WARPS:;
#TIMESIGNATURES:0.000=4=4;
#TICKCOUNTS:0.000=4;
#COMBOS:0.000=1;
#SPEEDS:0.000=1.000=0.000=0;
#SCROLLS:0.000=1.000;
#FAKES:;
#LABELS:0.000=Song Start;
#LASTSECONDHINT:130.670242;
#BGCHANGES:-10000.000=black.mpg=1.000=1=0=1===CrossFade==,
-0.155=1641.mpg=1.000=1=0=1=Centered==CrossFade==,
0.000=Jogging.mpg=1.000=1=0=0=StretchNoLoop==CrossFade==,
99999=-nosongbg-=1.000=0=0=0 // don't automatically add -songbackground-
;
#KEYSOUNDS:;
#ATTACKS:
;

//---------------dance-single - ----------------
#NOTEDATA:;
#CHARTNAME:;
#STEPSTYPE:dance-single;
#DESCRIPTION:;
#CHARTSTYLE:;
#DIFFICULTY:Beginner;
#METER:3;
#RADARVALUES:0.135754,0.169556,0.022991,0.000000,0.000000,124.000000,121.000000,3.000000,0.000000,0.000000,0.000000,0.000000,0.000000,0.000000,0.135754,0.169556,0.022991,0.000000,0.000000,124.000000,121.000000,3.000000,0.000000,0.000000,0.000000,0.000000,0.000000,0.000000;
#CREDIT:MILEN;
#DISPLAYBPM:138.000000;
#NOTES:
0000
0000
0000
0000
,
0000
0000
0000
0000
,
0000
0000
0000
0000
,
0000
0000
0000
0000
,
1000
0000
0001
0000
,
1000
0000
0001
0000
,
0100
0000
0010
0000
,
0100
0000
0010
0000
,
0100
0000
0001
0000
,
0010
0000
0000
0000
,
0100
0000
1000
0000
,
0010
0000
0000
0000
,
0100
0000
0001
0000
,
1000
0000
0000
0000
,
0010
0000
1000
0000
,
0001
0000
0100
0100
,
0100
0000
0010
0000
,
0100
0000
0010
0000
,
0100
0000
0000
0000
,
0100
0000
0000
0000
,
0001
0000
1000
0000
,
0001
0000
1000
0000
,
0001
0000
0000
0001
,
0001
0001
0000
0000
,
0001
0000
0100
0000
,
0010
0000
1000
0000
,
0001
0000
0100
0000
,
0010
0000
1000
0000
,
1000
0000
0010
0000
,
0100
0000
0001
0000
,
1000
0000
0010
0000
,
0100
0000
0001
0000
,
0001
0000
0010
0000
,
0100
0000
1000
0000
,
0100
0000
0010
0000
,
0001
0000
0010
0000
,
0100
0000
1000
0000
,
0010
0000
0100
0000
,
0001
0000
0010
0000
,
0100
0000
1000
0000
,
0010
0000
0100
0000
,
0010
0000
0100
0000
,
0010
0000
0010
0000
,
0010
0000
0000
0000
,
1000
0000
0100
0000
,
0010
0000
0001
0000
,
1000
0000
0100
0100
,
0000
0000
0000
0000
,
1001
0000
0000
0000
,
1000
0000
0000
0000
,
0010
0000
0000
0000
,
0100
0000
0000
0000
,
0001
0000
0000
0000
,
0010
0000
0000
0000
,
0100
0000
0000
0000
,
1000
0000
0000
0000
,
0010
0000
0100
0000
,
0001
0000
1000
0000
,
0010
0000
0100
0000
,
0001
0001
0001
0000
,
0100
0000
0010
0000
,
1000
0000
0001
0000
,
0100
0000
0100
0000
,
0100
0000
0100
0000
,
0100
0000
0000
0000
,
0010
0000
0000
0000
,
1001
0000
0000
0000
,
0000
0000
0000
0000
,
1001
0000
0000
0000
,
0000
0000
0000
0000
,
1000
0000
0100
0000
,
0010
0000
0001
0000
,
1000
0000
0100
0000
,
0010
0010
0010
0010
;

//---------------dance-single - ----------------
#NOTEDATA:;
#CHARTNAME:;
#STEPSTYPE:dance-single;
#DESCRIPTION:;
#CHARTSTYLE:;
#DIFFICULTY:Easy;
#METER:6;
#RADARVALUES:0.263845,0.282593,0.168598,0.007664,0.000000,241.000000,219.000000,22.000000,1.000000,0.000000,0.000000,0.000000,0.000000,0.000000,0.263845,0.282593,0.168598,0.007664,0.000000,241.000000,219.000000,22.000000,1.000000,0.000000,0.000000,0.000000,0.000000,0.000000;
#CREDIT:MILEN;
#DISPLAYBPM:138.000000;
#NOTES:
0000
0000
0000
0000
,
0000
0000
0000
0000
,
0000
0000
0000
0000
,
0000
0000
0000
0000
,
1000
0100
1000
0000
,
0001
0010
0001
0000
,
1000
0001
1000
0000
,
0010
0100
0010
0000
,
1001
0000
1000
0010
,
0100
0000
0100
0000
,
0001
0100
0010
0100
,
0001
0000
1000
0000
,
1001
0000
0001
0010
,
0100
0000
1000
0000
,
0100
1000
0100
1000
,
0010
0100
0010
0010
,
0010
0000
0001
0000
,
0100
0000
1000
0000
,
0010
0100
0010
0100
,
0010
0010
1000
0100
,
0010
0000
0001
0000
,
0100
0000
1000
0000
,
0020
0000
0030
0001
,
0100
0100
0010
1000
,
0001
1000
1001
0000
,
0010
0010
0100
0001
,
1000
0001
1001
0000
,
0100
0100
0001
0010
,
1000
0100
0110
0000
,
0010
0010
1000
0001
,
1000
0000
0001
0000
,
1001
0000
0010
0100
,
0010
1000
0010
1000
,
0001
0100
0001
0100
,
0001
0010
0001
0010
,
0100
1000
0100
1000
,
0100
0010
0001
1000
,
0010
0100
0001
0010
,
0100
1000
0010
0100
,
0001
1000
0100
0010
,
0001
0100
1000
0100
,
0001
0010
1000
0010
,
0001
0100
1000
0100
,
0010
0010
0010
0010
,
1000
0100
0010
0001
,
1000
0100
0010
0001
,
1000
0010
0100
0110
,
0000
0000
0000
0000
,
0001
1000
0010
0000
,
1000
0001
0100
0000
,
0001
1000
0100
0000
,
1000
0001
0010
0000
,
1001
0000
1000
0100
,
0010
0001
0010
0100
,
1100
0000
0011
0000
,
1010
0000
0101
0000
,
0001
0010
0001
0100
,
0001
0010
0100
0100
,
1000
0010
1000
0100
,
1000
0010
0100
0100
,
0001
1000
0100
1000
,
0001
0010
0001
1000
,
1001
0000
0110
0000
,
1001
0000
0110
0000
,
1001
0000
0000
0000
,
0110
0000
0000
0000
,
1001
0000
0000
0000
,
0000
0000
1000
0001
,
1001
0000
0000
0000
,
0001
1000
0001
1001
,
1000
0010
1000
0010
,
0001
0100
0001
0100
,
1000
0000
0001
0000
,
0100
0010
0100
0110
;

//---------------dance-double - ----------------
#NOTEDATA:;
#CHARTNAME:;
#STEPSTYPE:dance-double;
#DESCRIPTION:;
#CHARTSTYLE:;
#DIFFICULTY:Easy;
#METER:7;
#RADARVALUES:0.261655,0.282593,0.176261,0.015327,0.000000,239.000000,216.000000,23.000000,2.000000,0.000000,0.000000,0.000000,0.000000,0.000000,0.261655,0.282593,0.176261,0.015327,0.000000,239.000000,216.000000,23.000000,2.000000,0.000000,0.000000,0.000000,0.000000,0.000000;
#CREDIT:MILEN;
#DISPLAYBPM:138.000000;
#NOTES:
00000000
00000000
00000000
00000000
,
00000000
00000000
00000000
00000000
,
00000000
00000000
00000000
00000000
,
00000000
00000000
00000000
00000000
,
00001000
01000000
00001000
00000000
,
00010000
00000100
00010000
00000000
,
00001000
00100000
00001000
00000000
,
00010000
00000010
00010000
00000000
,
00011000
00000000
00001000
00100000
,
00010000
00000000
00010000
00000000
,
01000000
00100000
10000000
00100000
,
01000000
00000000
01000000
00000000
,
01010000
00000000
00010000
00100000
,
00001000
00000000
00001000
00000000
,
00010000
00000100
00001000
00000100
,
00001000
00000100
00000010
00000010
,
00000010
00000000
00000001
00000000
,
00000100
00000000
00001000
00000000
,
00010000
00001000
00010000
00001000
,
00010000
00010000
01000000
10000000
,
00100000
00000000
00010000
00000000
,
00001000
00000000
00000100
00000000
,
00000002
00000000
00000003
00000010
,
00000100
00000100
00010000
00001000
,
00010000
00001000
00011000
00000000
,
01000000
01000000
00001000
00010000
,
00001000
00010000
00011000
00000000
,
00000010
00000010
00010000
00001000
,
00010000
00001000
00011000
00000000
,
00100000
00100000
00001000
00010000
,
00001000
00000000
00010000
00000000
,
00011000
00000000
00001000
00001000
,
00010000
01000000
10000000
00100000
,
01000000
00010000
00100000
00001000
,
00010000
00000100
00001000
00000010
,
00000100
00000001
00000010
00001000
,
00010000
00000100
00000010
00000001
,
00000100
00001000
00010000
00100000
,
10000000
01000000
00100000
00001000
,
00010000
00000100
00000010
00000001
,
00001000
00000010
00010000
00001000
,
00100000
00010000
10000000
00100000
,
00010000
00001000
00000100
00000001
,
00000020
00000000
00000000
00000030
,
00000110
00000001
00000100
00001000
,
00010000
00100000
10000000
01000000
,
00100000
00001000
00010000
00011000
,
00000000
00000000
00000000
00000000
,
00001000
00010000
00100000
00000000
,
00010000
00001000
00000010
00000000
,
00001000
00010000
01000000
00000000
,
00010000
00001000
00000100
00000000
,
00000110
00000000
00000001
00000010
,
00000100
00010000
00001000
00100000
,
00110000
00000000
11000000
00000000
,
10100000
00000000
01010000
00000000
,
00010000
10000000
01000000
00100000
,
00001000
00010000
00000100
00000100
,
00000010
00000001
00000100
00000001
,
00000010
00000001
00000100
00000100
,
00001000
00010000
01000000
00010000
,
00001000
00010000
01000000
10000000
,
10100000
00000000
01010000
00000000
,
00011000
00000000
00001100
00000000
,
00000011
00000000
00000000
00000000
,
00001001
00000000
00000000
00000000
,
00011000
00000000
00000000
00000000
,
00000000
00000000
00010000
10000000
,
10010000
00000000
00000000
00000000
,
01000000
00100000
01000000
01100000
,
10000000
01000000
00010000
00001000
,
00000010
00000001
00000100
00001000
,
00010000
00000000
00001000
00000000
,
00010000
00001000
00010000
00011000
;

//---------------dance-single - ----------------
#NOTEDATA:;
#CHARTNAME:;
#STEPSTYPE:dance-single;
#DESCRIPTION:;
#CHARTSTYLE:;
#DIFFICULTY:Medium;
#METER:9;
#RADARVALUES:0.351428,0.423890,0.283551,0.406168,0.000000,321.000000,284.000000,37.000000,53.000000,0.000000,0.000000,0.000000,0.000000,0.000000,0.351428,0.423890,0.283551,0.406168,0.000000,321.000000,284.000000,37.000000,53.000000,0.000000,0.000000,0.000000,0.000000,0.000000;
#CREDIT:MILEN;
#DISPLAYBPM:138.000000;
#NOTES:
0000
0000
0000
0000
,
0000
0000
0000
0000
,
0000
0000
0000
0000
,
0000
0000
0000
0000
,
1000
0100
1000
0001
,
0010
0000
0001
0000
1000
0001
1000
0000
,
0010
0100
0001
0100
,
0010
1000
0010
0100
,
0110
0000
0010
1000
,
0100
0000
1000
0001
,
0010
0001
0100
0001
,
1000
0000
0100
0010
,
0001
0000
0010
0100
,
1000
0010
0100
0100
,
0001
0010
0001
0000
1000
0010
1000
0000
,
0001
0100
0001
0000
1000
0100
1000
0000
,
1001
0000
0000
0001
0100
0000
0000
0001
,
0010
0001
0100
0010
,
1000
0000
0100
1000
0100
0000
0010
0001
,
0010
0000
0100
0010
0100
0000
0100
0000
,
1001
0000
0000
1000
0010
0000
0000
1000
,
0100
1000
0010
0100
,
0202
0000
0000
0000
0303
0000
0001
0010
,
0001
0000
0001
0000
1000
0010
1000
0000
,
1000
1100
0101
1000
,
0100
0100
0010
0010
,
0001
0000
0011
0000
1010
0000
0001
0010
,
0001
0100
0010
0010
,
1000
0000
1100
0000
0101
0000
0001
0010
,
0100
1000
0000
0010
0100
0000
0010
0100
,
0002
0003
2000
3000
,
0010
0100
0000
0100
0010
1000
0001
0000
,
2000
3100
0002
0103
,
2000
3100
0002
0103
,
2000
3010
0002
0013
,
2000
3010
0002
0013
,
0200
0301
0020
1030
,
0200
0301
0020
1030
,
0200
1300
0020
0031
,
0200
1300
0020
0031
,
2000
3010
0002
0103
,
2000
3100
0002
0013
,
2000
3001
0020
0130
,
1001
0110
1001
0110
,
2000
3100
0020
0031
,
0200
1300
0002
0013
,
0200
0310
0002
1003
,
0000
1001
0000
1001
0000
1001
0020
0000
,
0130
0000
0001
0000
0100
0000
0010
1000
,
0000
1000
0010
0000
1000
0000
0100
0010
,
0000
0010
0100
0000
0100
1000
0000
0001
,
0000
1000
0100
0010
0000
0010
0001
0010
,
0200
0300
1000
0001
,
1000
0010
0100
0010
,
1010
0100
0101
0010
,
0110
0000
1000
0001
1000
0000
0001
0000
,
2000
3100
0020
0031
,
0200
0310
2000
3001
,
0020
0130
2000
3010
,
0200
0301
1001
0110
,
0002
0013
2000
3100
,
0002
0103
2000
3010
,
0002
1003
0200
0310
,
0002
1003
0020
0130
,
0110
0000
0000
0000
,
1001
0000
0000
0000
,
1010
0000
0101
0000
,
0011
0000
1100
0000
,
1001
0000
0110
0000
,
1010
0011
1100
0101
,
0002
0013
2000
3010
,
0002
0103
2000
3100
,
1001
0000
0010
0100
0000
0100
0010
1000
,
0000
0001
0010
0100
1001
0000
1001
0000
;

//---------------dance-double - ----------------
#NOTEDATA:;
#CHARTNAME:;
#STEPSTYPE:dance-double;
#DESCRIPTION:;
#CHARTSTYLE:;
#DIFFICULTY:Medium;
#METER:9;
#RADARVALUES:0.340480,0.395630,0.206916,0.237570,0.000000,311.000000,284.000000,27.000000,31.000000,0.000000,0.000000,0.000000,0.000000,0.000000,0.340480,0.395630,0.206916,0.237570,0.000000,311.000000,284.000000,27.000000,31.000000,0.000000,0.000000,0.000000,0.000000,0.000000;
#CREDIT:MILEN;
#DISPLAYBPM:138.000000;
#NOTES:
00000000
00000000
00000000
00000000
,
00000000
00000000
00000000
00000000
,
00000000
00000000
00000000
00000000
,
00000000
00000000
00000000
00000000
,
00001000
01000000
00001000
00010000
,
00000010
00000000
00010000
00000000
00001000
00010000
00001000
00000000
,
00100000
00010000
01000000
00001000
,
00010000
00000100
00001000
00000010
,
00000110
00000000
00000100
00000001
,
00000010
00000000
00000010
00001000
,
00010000
00001000
00000010
00001000
,
00010000
00000000
00010000
01000000
,
10000000
00000000
10000000
00100000
,
01000000
00100000
10000000
00100000
,
01000000
00100000
01000000
00000000
00001000
00010000
00001000
00000000
,
00010000
00001000
00010000
00000000
00000010
00000100
00000010
00000000
,
00000110
00000000
00000000
00000100
00000001
00000000
00000000
00000001
,
00000010
00001000
00010000
00001000
,
00000010
00000000
00001000
00010000
00001000
00000000
00100000
00010000
,
00100000
00000000
01000000
10000000
01000000
00000000
10000000
00000000
,
10100000
00000000
00000000
00100000
00010000
00000000
00000000
00010000
,
00001000
00000010
00000001
00001000
,
00002002
00000000
00000000
00000000
00003003
00000000
00001000
00000100
,
00001000
00000000
00000100
00000000
00010000
00001000
00010000
00000000
,
00001000
00011000
01000000
10000000
,
00100000
01000000
00100000
00100000
,
00010000
00011000
00000010
00000001
,
00000100
00000010
00000100
00000100
,
00001000
00000000
00011000
00000000
00100000
00000000
00010000
00100000
,
01000000
10000000
00000000
01000000
00010000
00000000
00001000
00010000
,
00002000
00003000
00020000
00030000
,
00000100
00001000
00000000
00000100
00000010
00000001
00001000
00000100
,
00000020
00000001
00000100
00001000
,
00000100
00000001
00000100
00001030
,
00002000
00010000
00100000
00010000
,
00000010
00010000
00100000
00013000
,
00020000
00000100
00001000
01000000
,
00001000
00000100
00001000
01030000
,
02000000
10000000
00100000
00010000
,
00100000
10000000
00100000
03010000
,
00020000
00001000
00100000
00001000
,
00000010
00001000
00100000
00031000
,
00002000
01000000
00010000
00000100
,
00010000
01000000
00010000
00003100
,
00000200
00000001
00000010
00001000
,
00010000
00001000
00000010
00000301
,
00000002
00000023
00002030
00013000
,
00000000
00011000
00000000
00011000
00000000
00011000
00002000
00000000
,
01003000
00000000
00001000
00000000
00100000
00000000
00010000
01000000
,
00000000
01000000
00010000
00000000
10000000
00000000
00100000
01000000
,
00000000
01000000
00001000
00000000
00001000
00010000
00000000
00010000
,
00000000
00001000
00010000
00000100
00000000
00001000
00000100
00000010
,
00000002
00000003
00000100
00001000
,
00010000
00100000
10000000
01000000
,
11000000
00100000
00101000
00010000
,
00010010
00000000
00000010
00001000
00000010
00000000
00000100
00000000
,
00000002
00000010
00001000
00000103
,
00002000
00000010
00000100
00013000
,
00200000
00010000
01000000
10300000
,
02000000
00100000
00010000
03001000
,
00020000
00100000
00001000
00030010
,
00000002
00001000
00000010
00000103
,
00000200
00002300
00023000
02030000
,
23000000
30200000
00320000
00031000
,
00011000
00000000
00000000
00000000
,
00011000
00000000
00000000
00000000
,
01001000
00000000
00010100
00000000
,
00101000
00000000
00010010
00000000
,
00001100
00000000
00110000
00000000
,
01010000
00011000
00001010
00011000
,
00020000
01000000
10000000
00130000
,
00002000
00000100
00000001
00003010
,
00011000
00000000
00001000
00100000
00000000
00010000
01000000
00100000
,
00000000
10000000
01000000
00100000
00010000
00000000
00011000
00000000
;

//---------------dance-single - ----------------
#NOTEDATA:;
#CHARTNAME:;
#STEPSTYPE:dance-single;
#DESCRIPTION:;
#CHARTSTYLE:;
#DIFFICULTY:Hard;
#METER:13;
#RADARVALUES:0.522215,0.536927,0.490467,0.329532,0.095794,477.000000,413.000000,64.000000,43.000000,0.000000,0.000000,0.000000,0.000000,0.000000,0.522215,0.536927,0.490467,0.329532,0.095794,477.000000,413.000000,64.000000,43.000000,0.000000,0.000000,0.000000,0.000000,0.000000;
#CREDIT:MILEN;
#DISPLAYBPM:138.000000;
#NOTES:
0000
0000
0000
0000
,
0000
0000
0000
0000
,
0000
0000
0000
0000
,
0000
0000
1001
1001
,
1000
0000
0010
0000
0100
0000
0001
0000
0010
0000
0000
0100
0000
0000
1000
0100
,
1000
0000
0010
0000
0100
0000
0001
0000
1000
0000
0000
0100
0000
0000
0010
0000
,
0001
0000
0100
0000
0010
0000
1000
0000
0001
0000
0000
0010
0000
0000
0100
0010
,
0100
1000
0010
0100
0001
0000
0011
0000
,
2200
0300
0000
3100
0010
0001
1000
0100
,
0010
0000
0110
0000
0100
0010
0001
0100
,
0010
1000
0100
0020
0000
0031
0100
0000
,
0110
0000
0010
0000
1000
0001
0100
0000
,
1010
0000
0101
0001
0010
0100
0010
0100
,
1000
0000
1100
0000
0011
0000
0001
0200
,
0000
0310
1000
0010
0100
0001
0010
0100
,
1000
0010
0100
0000
0101
0000
1010
0000
,
1001
0000
0001
0100
1000
0000
1000
0100
,
0001
0010
0100
0001
0100
0010
0001
0100
,
1000
0000
0001
0010
1000
0100
0010
0100
,
1000
0010
0001
0000
0110
0000
1001
0000
,
0110
0000
0010
1000
0100
0000
0010
0001
,
0100
0010
1000
0100
0010
0000
0001
1000
,
1002
0000
0010
0000
0100
0103
0010
1000
,
0100
0000
0010
0000
0001
0000
0100
0000
0010
0100
0010
0000
1000
0000
0001
0000
,
0011
0000
1010
0000
1100
0000
0100
0010
,
0001
1000
0100
0000
0010
0001
0100
0010
,
1010
0000
1100
0000
0101
0000
0001
0010
,
0100
1000
0010
0000
0011
0000
1100
0000
,
1010
0000
0011
0000
0101
0000
0100
1000
,
0100
0000
0020
0000
0000
0000
1030
0000
0100
0000
0010
0000
0001
0010
0001
0000
,
1000
0000
0100
1000
0001
0000
0010
0001
,
0100
0000
0120
0000
0000
0000
1030
0000
0100
0000
0010
0000
0001
1000
0001
0000
,
2000
0010
3002
0010
,
2003
0010
3002
0010
,
2003
0100
3002
0100
,
2003
0100
3002
0100
,
0023
1000
0032
0100
,
0023
1000
0032
0100
,
2003
0100
3020
0001
,
2030
0100
3020
0001
,
2030
0001
3200
0010
,
2300
0001
3020
0100
,
2030
0100
3002
1003
,
1010
0000
0000
0000
0101
0000
0000
0000
0110
0000
0000
0000
1000
0001
1000
0001
,
2000
0010
3200
0001
,
0320
1000
0032
0100
,
2003
0010
3002
1003
,
0000
0000
1010
0000
0000
0000
0101
0000
0000
0000
0110
0000
0010
0100
0010
0000
,
1000
0100
0001
0100
1000
0100
0001
0100
,
0000
0000
1000
0000
0010
0000
0001
0000
0010
1000
0010
0000
0100
0000
0020
0000
,
0000
1000
2030
0000
0001
3002
0000
0013
,
0000
0010
0001
0000
0100
0000
1000
0000
0100
0000
0001
0000
0010
0100
0010
0100
,
0020
0000
0000
0000
0000
0000
0000
0000
0031
0000
0000
0000
0100
0000
0000
1000
,
0000
0000
0010
0000
0100
0000
0001
0000
1000
0000
0100
0010
0100
0000
0010
0000
,
0011
1010
0101
1100
,
1001
0000
0000
0000
0010
0100
0010
0000
1000
0000
0100
0000
0010
0000
0001
0000
,
1000
0010
0001
0010
1000
0010
0001
0010
,
1000
0100
0001
0100
1000
0100
0001
0100
,
1000
0100
0010
0001
1000
0010
0100
0001
,
0010
0000
0100
0000
1000
0000
0010
0000
0110
0000
0000
0000
1001
0000
0001
1000
,
0001
0100
0010
0001
0010
1000
0001
0100
,
1000
0000
0100
0000
0010
0000
1000
0000
0001
0000
0010
0000
0100
0010
0100
0000
,
1200
0310
0201
0310
,
1020
0000
0130
0000
0021
0000
0100
0100
,
0130
0000
0000
0000
1000
0010
0001
0000
,
1001
0000
0000
0000
0001
0100
1000
0000
,
1010
0000
0011
0000
,
1100
0000
0101
0110
,
1001
0000
0110
0011
,
1010
0000
0000
0000
1100
0000
0000
0000
0101
0000
0000
0000
1001
0000
0001
1000
,
0001
0000
1000
0000
0010
0000
0001
0000
0010
0000
0000
0100
0000
0000
0001
0010
,
0001
0000
0100
0000
1000
0000
0100
0000
0010
0000
0000
1000
0000
0000
0100
0000
,
1100
0000
0000
0000
0010
0000
0011
0000
0000
0000
0100
0000
0110
0000
0010
0100
,
0010
1000
0100
0001
0110
0000
1001
0000
;

//---------------dance-double - ----------------
#NOTEDATA:;
#CHARTNAME:;
#STEPSTYPE:dance-double;
#DESCRIPTION:;
#CHARTSTYLE:;
#DIFFICULTY:Hard;
#METER:13;
#RADARVALUES:0.575860,0.536927,0.475139,0.122617,0.076635,526.000000,464.000000,62.000000,16.000000,0.000000,0.000000,0.000000,0.000000,0.000000,0.575860,0.536927,0.475139,0.122617,0.076635,526.000000,464.000000,62.000000,16.000000,0.000000,0.000000,0.000000,0.000000,0.000000;
#CREDIT:MILEN;
#DISPLAYBPM:138.000000;
#NOTES:
// measure 0
00000000
00000000
00000000
00000000
,  // measure 1
00000000
00000000
00000000
00000000
,  // measure 2
00000000
00000000
00000000
00000000
,  // measure 3
00000000
00000000
00011000
00011000
,  // measure 4
00001000
00000000
00010000
00000000
01000000
00000000
10000000
00000000
00100000
00000000
00000000
01000000
00000000
00000000
00010000
00000000
,  // measure 5
00010000
00000000
00100000
00000000
00001000
00000000
00010000
00000000
00000100
00000000
00000000
00000010
00000000
00000000
00000001
00000000
,  // measure 6
00000100
00000000
00001000
00000000
00010000
00000000
00000100
00000000
00001000
00000000
00000000
00000010
00000000
00000000
00010000
00000000
,  // measure 7
00010000
00001000
00100000
01000000
10000000
00000000
10100000
00000000
,  // measure 8
02020000
03000000
00000000
01030000
00001000
00010000
00000100
00001000
,  // measure 9
00000010
00000000
00000110
00000000
00000100
00000001
00001000
00000100
,  // measure 10
00000010
00000001
00001000
00000020
00000000
00010030
00001000
00000000
,  // measure 11
00101000
00000000
00100000
00000000
00010000
01000000
00100000
00000000
,  // measure 12
10100000
00000000
01010000
00010000
00100000
01000000
00010000
00001000
,  // measure 13
00000010
00000000
00000011
00000000
00001100
00000000
00000100
00020000
,  // measure 14
00000000
00031000
00010000
00100000
10000000
01000000
00100000
00010000
,  // measure 15
01000000
00100000
00010000
00000000
00011000
00000000
01001000
00000000
,  // measure 16
00010100
00000000
00000100
00000010
00000001
00000000
00001000
00000100
,  // measure 17
00000010
00001000
00010000
00001000
00000010
00000100
00001000
00000010
,  // measure 18
00010000
00000000
00001000
00010000
00100000
10000000
01000000
10000000
,  // measure 19
00100000
00010000
00001000
00000000
00011000
00000000
00101000
00000000
,  // measure 20
00010010
00000000
00000010
00001000
00000100
00000000
00000010
00000001
,  // measure 21
00000100
00001000
00010000
00100000
10000000
00000000
01000000
00100000
,  // measure 22
02100000
00000000
03020000
00000000
00031000
00001000
00000010
00000001
,  // measure 23
00001000
00000000
00000100
00000000
00000010
00000000
00000001
00000000
00000100
00000010
00000100
00000000
00000010
00000000
00001000
00000000
,  // measure 24
00001001
00000000
00011000
00000000
10010000
00000000
10000000
00010000
,  // measure 25
00100000
01000000
00010000
00000000
00001000
00010000
01000000
10000000
,  // measure 26
10010000
00000000
00011000
00000000
00001001
00000000
00000001
00001000
,  // measure 27
00000100
00000010
00001000
00000000
00011000
00000000
10010000
00000000
,  // measure 28
00011000
00000000
00001001
00000000
00000110
00000000
00000010
00000001
,  // measure 29
00000100
00000000
00002000
00000000
00000000
00000000
00013000
00000000
00010000
00000000
00100000
00000000
01000000
00100000
01000000
00000000
,  // measure 30
10000000
00000000
01000000
00100000
00010000
00000000
00001000
00010000
,  // measure 31
00000100
00000000
00002100
00000000
00000000
00000000
00003001
00000000
00001000
00000000
00000100
00000000
00000010
00000100
00000010
00000000
,  // measure 32
00000001
00000100
00001000
00000100
00000001
00000100
00001000
00000100
,  // measure 33
00000001
00000010
00001000
00010000
00100000
10000000
01000000
00100000
,  // measure 34
00010000
01000000
10000000
01000000
00010000
01000000
10000000
01000000
,  // measure 35
00010000
00100000
10000000
00100000
00010000
00100000
10000000
00100000
,  // measure 36
00010000
01000000
00100000
10000000
01000000
00100000
00001000
00010000
,  // measure 37
00000100
00000010
00000001
00000100
00001000
00000100
00000001
00000010
,  // measure 38
00001000
00010000
00100000
10000000
01000000
00010000
01000000
10000000
,  // measure 39
00100000
00010000
00001000
00000100
00000001
00000010
00000100
00010000
,  // measure 40
00001000
00000100
00001000
00010000
00001000
00000100
00001000
00010000
,  // measure 41
01000000
00010000
00001000
00010000
01000000
00010000
00001000
00100000
,  // measure 42
01000000
10000000
00100000
00010000
00001000
00000100
00000001
00000010
,  // measure 43
00000110
00000000
00000000
00000000
00011000
00000000
00000000
00000000
01100000
00000000
00000000
00000000
10000000
00010000
10000000
00010000
,  // measure 44
10000000
01000000
00100000
00010000
01000000
00100000
00010000
00001000
,  // measure 45
00000100
00000010
00001000
00000100
00000010
00000001
00000100
00001000
,  // measure 46
00010000
00100000
10000000
01000000
00100000
00010000
01000000
00001000
,  // measure 47
00000000
00000000
00101000
00000000
00000000
00000000
00010010
00000000
00000000
00000000
00011000
00000000
00001000
00010000
00001000
00000000
,  // measure 48
00100000
01000000
10000000
00010000
00100000
01000000
00010000
00001000
,  // measure 49
00000000
00000000
00010000
00000000
00001000
00000000
00000010
00000000
00000100
00000010
00000100
00000000
00000010
00000000
00000002
00000000
,  // measure 50
00000000
00000100
00000203
00000000
00001000
00002300
00000000
00013000
,  // measure 51
00000000
00010000
01000000
00000000
10000000
00000000
00100000
00000000
01000000
00000000
00001000
00000000
00010000
00001000
00010000
00001000
,  // measure 52
00020000
00000000
00000000
00000000
00000000
00000000
00000000
00000000
00030010
00000000
00000000
00000000
00001000
00000000
00000000
00000100
,  // measure 53
00000000
00000000
00000010
00000000
00000001
00000000
00000100
00000000
00001000
00000000
00010000
00001000
00010000
00000000
00100000
00000000
,  // measure 54
10100000
11000000
01010000
00011000
,  // measure 55
00001010
00000000
00000000
00000000
00000010
00000001
00000010
00000000
00000100
00000000
00001000
00000000
00000010
00000000
00010000
00000000
,  // measure 56
00001000
00000100
00000010
00010000
00001000
01000000
00100000
00010000
,  // measure 57
00001000
00100000
01000000
10000000
00100000
00010000
00100000
10000000
,  // measure 58
01000000
00100000
00001000
00010000
00000100
00000010
00000001
00000100
,  // measure 59
00001000
00000000
00010000
00000000
00100000
00000000
10000000
00000000
11000000
00000000
00000000
00000000
00100000
00000000
00010000
01000000
,  // measure 60
00010000
10000000
01000000
00100000
00010000
01000000
00100000
00010000
,  // measure 61
00001000
00000000
00000100
00000000
00000010
00000000
00001000
00000000
00000100
00000000
00000010
00000000
00000001
00000100
00000001
00000000
,  // measure 62
00002001
00003010
00020010
00031000
,  // measure 63
00201000
00000000
00310000
00000000
20010000
00000000
00100000
00100000
,  // measure 64
30100000
00000000
00000000
00000000
00100000
00010000
00001000
00000000
,  // measure 65
00011000
00000000
00000000
00000000
00000010
00001000
00010000
00000000
,  // measure 66
00011000
00000000
00010100
00000000
,  // measure 67
01001000
00000000
00010010
00101000
,  // measure 68
00011000
00000000
01001000
00010100
,  // measure 69
00101000
00000000
00010010
00000000
00011000
00000000
00001000
00010000
,  // measure 70
00010000
00000000
00100000
00000000
10000000
00000000
01000000
00000000
00100000
00000000
00000000
00010000
00000000
00000000
00001000
00000000
,  // measure 71
00001000
00000000
00000010
00000000
00000100
00000000
00000001
00000000
00000010
00000000
00000000
00001000
00000000
00000000
00010000
00000000
,  // measure 72
00010100
00000000
00001000
01001000
00000000
00010000
00011000
00001000
,  // measure 73
00000100
00000001
00000010
00001000
00011000
00000000
10010000
00000000
;
