#VERSION:0.83;
#TITLE:Interference;
#SUBTITLE:;
#ARTIST:Doin;
#TITLETRANSLIT:;
#SUBTITLETRANSLIT:;
#ARTISTTRANSLIT:;
#GENRE:VARIETY;
#ORIGIN:;
#CREDIT:MILEN;
#BANNER:Interference.png;
#BACKGROUND:Interference-bg.png;
#PREVIEWVID:;
#JACKET:Interference-jacket.png;
#CDIMAGE:;
#DISCIMAGE:;
#LYRICSPATH:;
#CDTITLE:;
#MUSIC:Interference.MP3;
#OFFSET:-0.302000;
#SAMPLESTART:68.816414;
#SAMPLELENGTH:11.913395;
#SELECTABLE:YES;
#BPMS:0.000=90.200,
24.000=180.400,
56.000=90.200,
71.000=180.400,
103.000=90.200,
119.000=180.400,
215.000=90.200;
#STOPS:;
#DELAYS:;
#WARPS:;
#TIMESIGNATURES:0.000=4=4;
#TICKCOUNTS:0.000=1;
#COMBOS:0.000=1;
#SPEEDS:0.000=1.000=0.000=0;
#SCROLLS:0.000=1.000;
#FAKES:;
#LABELS:0.000=Song Start;
#BGCHANGES:0.000=Interference.avi=1.000=0=0=0=StretchNoLoop====,
99999=-nosongbg-=1.000=0=0=0 // don't automatically add -songbackground-
;
#KEYSOUNDS:;
#ATTACKS:
;

//---------------dance-single - ----------------
#NOTEDATA:;
#CHARTNAME:;
#STEPSTYPE:dance-single;
#DESCRIPTION:;
#CHARTSTYLE:;
#DIFFICULTY:Challenge;
#METER:13;
#RADARVALUES:0.569990,0.716536,0.241003,0.116038,0.214225,447.000000,420.000000,27.000000,13.000000,0.000000,0.000000,0.000000,0.000000,0.000000,0.569990,0.716536,0.241003,0.116038,0.214225,447.000000,420.000000,27.000000,13.000000,0.000000,0.000000,0.000000,0.000000,0.000000;
#CREDIT:MILEN;
#NOTES:
0000
0000
0000
0000
,
0000
0000
0000
0000
,
1000
0000
0100
0000
0010
0000
0001
0000
0200
0000
0000
0000
0000
0310
1000
0010
,
0100
0000
1001
0000
0001
0010
0100
1000
,
0020
0000
0000
0000
0000
0130
0000
0000
0101
0000
0000
0000
0001
1000
0100
0000
,
1000
0010
0100
0001
0011
1000
1010
0001
,
1000
1000
0100
0000
0000
0000
1000
0100
,
0010
0001
0010
0000
0011
0000
0001
0010
,
0100
0010
0001
0010
0100
0000
1000
0010
,
0100
1000
0100
0000
0000
0001
0010
0100
,
0010
0010
0001
0000
0000
0000
0001
0100
,
0010
1000
0010
0000
1010
0000
1000
0100
,
0010
0100
1000
0100
0010
0000
0001
0100
,
1000
0100
0010
0000
0100
0001
0010
0100
,
1000
1000
0010
0000
0000
0000
0100
0001
0010
0001
0010
0000
0001
0000
1000
0010
,
0100
0010
1000
0010
0100
0001
0000
0000
0000
0010
0100
1000
0100
0010
0000
0110
,
0000
0100
0010
0001
0100
0000
0000
0000
1000
0100
0010
1000
0100
0010
0001
0000
,
0000
0000
0100
0010
1000
0001
0010
0100
2000
0000
0000
0000
3001
0000
0001
0000
,
0100
0000
0000
0000
0001
0010
0001
0000
1000
0000
0000
0000
0001
0000
0100
0000
,
0010
0000
1010
0000
1000
0100
0001
0100
,
1000
0100
0010
0000
0001
0100
0010
0001
,
0010
0000
1000
0100
0010
0100
0010
0010
,
0001
0000
0000
0000
0010
0100
0010
0000
1000
0000
0000
0000
0010
0000
0001
0000
,
0100
0000
1100
0000
1000
0010
0100
1000
,
0100
0001
0010
0000
0100
0010
0001
1000
,
0100
0000
0010
0100
0010
0100
0010
0000
0002
0000
0000
0000
1003
0000
0000
1000
,
0000
0000
1000
0000
0010
0000
0000
0010
0000
0000
0010
0000
0001
0000
0000
0001
,
0000
0000
0001
0000
0100
0000
0000
0100
0000
0000
0100
0000
1000
0000
0010
0100
,
0000
0100
0001
0000
0010
0000
0100
1000
0000
1000
0001
0000
0100
0000
0010
1000
,
0000
1000
0100
0000
0010
0000
0001
0100
0001
1000
0200
0000
0310
0000
0010
0000
,
0001
0000
0000
0000
0100
0010
0100
0000
1000
0000
0100
0000
0010
0000
1000
0000
,
0100
0000
0011
0000
0001
0100
1000
0100
,
0001
0010
0100
0000
0001
0100
1000
0001
,
0010
0000
1000
0100
0010
0001
0100
1000
,
0100
0000
0000
0000
0010
0100
0010
0000
0001
0000
0010
0000
1000
0000
0010
0000
,
0100
0000
1001
0000
1000
0001
0010
0100
,
0001
0100
1000
0000
0001
0010
1000
0100
,
0020
0000
0031
0100
0110
0010
1000
1000
,
0100
0010
0001
0001
0100
0010
0100
0100
,
0001
0010
0100
1000
1000
0010
0010
0100
,
0001
0010
1000
1000
0100
0010
1010
0000
,
1100
0000
0011
0000
0101
0000
1001
1000
,
0100
0001
0100
0010
0010
0001
0100
0100
,
0010
1000
0001
0010
0100
0001
0100
0010
,
1000
0010
0100
1000
0010
0100
0101
0000
,
0011
0000
1100
0000
1010
0000
0010
0010
,
0100
0001
1000
1000
0100
0010
0100
0100
,
0001
1000
0010
0001
0001
0100
0100
0010
,
1000
0001
0010
0010
0100
1000
0010
0010
,
0100
0100
0001
0001
1000
1000
0100
0100
,
0001
0010
0001
0100
0100
1000
0010
0010
,
0100
0001
1000
1000
0100
0100
0001
1000
,
0010
0100
1000
1000
0010
0100
0101
0000
,
0011
0000
0000
0000
1100
0000
0000
0000
1020
0000
0000
0000
0130
0000
0000
0100
,
0000
0000
0100
0000
0001
0000
0000
0001
0000
0000
0001
0000
0010
0000
0000
0010
,
0000
0010
0100
1000
0001
0010
0200
0000
,
0000
0310
0000
0000
0110
0000
1000
0000
0100
0010
0001
0000
0100
0000
1000
0000
,
0010
0001
0100
0010
1000
0001
0020
0000
,
2030
0000
0000
0000
3200
0000
0000
0000
0000
0301
0010
0100
0010
0000
0000
0000
,
1001
0000
1000
0010
0001
2000
0002
0000
,
0000
0000
0000
0000
,
0000
0000
0000
3003
;

//---------------dance-double - ----------------
#NOTEDATA:;
#CHARTNAME:;
#STEPSTYPE:dance-double;
#DESCRIPTION:;
#CHARTSTYLE:;
#DIFFICULTY:Challenge;
#METER:13;
#RADARVALUES:0.559789,0.688977,0.214225,0.116038,0.191909,439.000000,415.000000,24.000000,13.000000,0.000000,0.000000,0.000000,0.000000,0.000000,0.559789,0.688977,0.214225,0.116038,0.191909,439.000000,415.000000,24.000000,13.000000,0.000000,0.000000,0.000000,0.000000,0.000000;
#CREDIT:MILEN;
#NOTES:
00000000
00000000
00000000
00000000
,
00000000
00000000
00000000
00000000
,
10000000
00000000
01000000
00000000
00100000
00000000
00010000
00000000
00200000
00000000
00000000
00000000
00000000
00301000
00010000
00001000
,
00010000
00000000
00010100
00000000
00000100
00000010
00000001
00001000
,
00000200
00000000
00000000
00000000
00000000
00000310
00000000
00000000
00000110
00000000
00000000
00000000
00000001
00000100
00000001
00000000
,
00000100
00001000
00010000
00100000
10000000
01000000
00010000
00001000
,
00000010
00000010
00000001
00000000
00000000
00000000
00000010
00000001
,
00000100
00001000
00010000
00000000
00011000
00000000
00001000
00010000
,
00100000
00010000
00001000
00010000
00100000
00000000
10000000
01000000
,
00100000
01000000
00010000
00000000
00000000
00001000
00010000
00100000
,
10000000
10000000
01000000
00000000
00000000
00000000
10000000
01000000
,
00100000
00010000
00100000
00000000
00101000
00000000
00001000
00010000
,
00001000
00000010
00001000
00010000
00001000
00000000
00010000
00001000
,
00000010
00000100
00000010
00000000
00000001
00000100
00001000
00010000
,
00100000
00100000
10000000
00000000
00000000
00000000
01000000
10000000
01000000
10000000
00100000
00000000
00010000
00000000
00001000
00010000
,
00001000
00010000
00000010
00001000
00000010
00001000
00000000
00000000
00000000
00000001
00000100
00000001
00000010
00000001
00000000
00000100
,
00000000
00001000
00010000
00001000
00010000
00000000
00000000
00000000
00100000
10000000
00100000
10000000
01000000
00100000
01000000
00000000
,
00000000
00000000
00010000
00001000
00010000
00001000
00000010
00000100
00000020
00000000
00000000
00000000
00000031
00000000
00000001
00000000
,
00000100
00000000
00001000
00010000
00011000
00000000
00001000
00010000
,
00100000
00000000
10100000
00000000
10000000
01000000
00100000
01000000
,
00010000
01000000
00100000
00000000
00010000
00100000
01000000
00010000
,
00001000
00000000
00010000
00001000
00000010
00000100
00010000
00010000
,
00001000
00000000
00100000
01000000
01100000
00000000
10000000
00100000
,
00010000
00000000
00011000
00000000
00001000
00100000
01000000
00010000
,
00001000
00000010
00000100
00000000
00000010
00000001
00000100
00001000
,
00010000
00000000
00100000
01000000
00100000
00000000
10000000
00000000
00020000
00000000
00000000
00000000
01030000
00000000
00000000
01000000
,
00000000
00000000
01000000
00000000
00001000
00000000
00000000
00001000
00000000
00000000
00001000
00000000
00010000
00000000
00000000
00010000
,
00000000
00000000
00010000
00000000
00000100
00000000
00000000
00000100
00000000
00000000
00000100
00000000
00001000
00000000
00000010
00000100
,
00000000
00000001
00000100
00000000
00000010
00000000
00010000
00001000
00000000
00010000
00000100
00000000
00001000
00000000
00000010
00010000
,
00000000
00001000
00100000
00000000
00010000
00000000
10000000
01000000
10000000
00010000
02000000
00000000
03001000
00000000
00001000
00000000
,
00010000
00000000
00001000
00100000
00110000
00010000
01000000
00100000
,
10000000
00000000
11000000
00000000
01000000
00010000
00001000
00010000
,
00001000
00000100
00000001
00000000
00000010
00000100
00000010
00000001
,
00000100
00000000
00001000
00010000
00000100
00010000
01000000
10000000
,
00100000
00000000
01000000
00010000
10010000
10000000
00100000
01000000
,
00010000
00000000
00110000
00000000
00100000
00001000
00000010
00001000
,
00010000
00000100
00000010
00000000
00000001
00000100
00001000
00010000
,
00002000
00000000
00103000
00010000
01000000
00100000
10000000
10000000
,
01000000
00100000
00010000
00010000
01000000
00001000
00010000
00010000
,
00000100
00001000
00000010
00000100
00000001
00000100
00001000
00000100
,
00000001
00000010
00000100
00000100
00010000
00001000
00101000
00000000
,
00010000
00000000
00010010
00000000
00001000
00000000
00011000
00010000
,
01000000
10000000
01000000
00100000
00100000
00010000
01000000
01000000
,
00001000
00010000
00100000
00010000
00001000
00010000
00100000
00100000
,
10000000
01000000
00100000
00001000
00010000
00000100
00010100
00000000
,
00001000
00000000
01001000
00000000
00010000
00000000
00011000
00001000
,
00100000
00010000
01000000
01000000
00001000
00010000
00000100
00000100
,
00000010
00001000
00010000
01000000
00010000
00001000
00010000
01000000
,
10000000
00100000
01000000
01000000
00010000
00100000
01000000
00010000
,
00001000
00000100
00001000
00010000
00001000
00000100
00001000
00001000
,
00010000
00100000
00001000
00000010
00000010
00000100
00000001
00000001
,
00001000
00000100
00000010
00001000
00000010
00000001
00000010
00001000
,
00010000
00100000
10000000
01000000
00100000
00010000
01010000
00000000
,
00011000
00000000
00000000
00000000
00001100
00000000
00000000
00000000
00000102
00000000
00000000
00000000
00000013
00000000
00000000
00000010
,
00000000
00000000
00000010
00000000
00001000
00000000
00000000
00001000
00000000
00000000
00001000
00000000
00010000
00000000
00000000
00010000
,
00000000
00010000
00100000
10000000
00010000
00100000
02000000
00000000
,
00000000
03010000
00000000
00000000
00011000
00000000
00001000
00000000
00100000
00010000
00100000
00000000
00001000
00000000
00000010
00000000
,
00000001
00001000
00000100
00000010
00000001
00000100
00002000
00000000
,
00023000
00000000
00000000
00000000
00230000
00000000
00000000
00000000
00000000
10300000
01000000
00100000
01000000
00000000
00000000
00000000
,
10010000
00000000
10000000
00100000
00010000
00002000
00020000
00000000
,
00000000
00000000
00000000
00000000
,
00000000
00000000
00000000
00033000
;

//---------------dance-single - ----------------
#NOTEDATA:;
#CHARTNAME:;
#STEPSTYPE:dance-single;
#DESCRIPTION:;
#CHARTSTYLE:;
#DIFFICULTY:Hard;
#METER:12;
#RADARVALUES:0.467979,0.551182,0.214225,0.089260,0.133890,367.000000,343.000000,24.000000,10.000000,0.000000,0.000000,0.000000,0.000000,0.000000,0.467979,0.551182,0.214225,0.089260,0.133890,367.000000,343.000000,24.000000,10.000000,0.000000,0.000000,0.000000,0.000000,0.000000;
#CREDIT:MILEN;
#NOTES:
0000
0000
0000
0000
,
0000
0000
0000
0000
,
1000
0000
0001
0000
0100
0000
0000
0000
0100
0000
0000
0000
0000
0010
1000
0010
,
1000
0000
0001
0000
0010
0100
1000
0001
,
0020
0000
0000
0000
0000
0130
0000
0000
0110
0000
0000
0000
1000
0001
1000
0000
,
0000
0000
0001
0100
1000
0010
0001
0001
,
0100
0010
0100
0000
0001
0000
1000
0000
,
0010
0100
0010
0000
1000
0000
0001
0000
,
0100
0010
1000
0010
0100
0000
0001
0000
,
1000
0100
0010
0000
0100
0000
0110
0000
,
1000
0001
1000
0000
0010
0000
0100
0000
,
0001
1000
0001
0000
0100
0000
0010
0000
,
1000
0001
0100
0001
1000
0000
0010
0000
,
0100
0001
0010
0000
0001
0000
1001
0000
,
1000
0010
1000
0000
0000
0000
0100
0000
0100
0000
0010
0000
0010
0000
0001
0000
,
0100
0001
0100
0000
0010
1000
0000
0000
0000
0001
1000
0100
0000
1000
0000
0100
,
0000
1000
0010
0100
0010
0000
0000
0000
0100
0000
0001
0000
0010
0100
0010
0000
,
0000
1000
0100
0010
0002
0000
1003
0010
,
0100
0000
0010
0000
1000
0000
0001
0100
,
0010
0000
0100
0000
0001
0000
1000
0100
,
0010
0000
0001
0000
1000
0000
0001
0010
,
0100
0000
1000
0000
0001
0000
0100
0010
,
1000
0000
0100
0000
0001
0000
0100
1000
,
0010
0000
0001
0000
0010
0000
1000
0100
,
0010
0000
0001
0010
0100
0000
1000
0010
,
0100
0000
0010
0000
0010
0000
0100
0000
0002
0000
0000
0000
1003
0000
0000
1000
,
0000
0000
1000
0000
0100
0000
0000
0100
0000
0000
0100
0000
0010
0000
0000
0010
,
0000
0000
0010
0000
0001
0000
0000
0001
0000
0000
0001
0000
0100
0000
0000
0010
,
0000
0000
1000
0000
0001
0000
0000
0010
0000
0000
0100
0000
1000
0000
0000
0010
,
0000
0000
0100
0000
0001
0000
0000
1000
0010
1000
0020
0000
0130
0000
0001
0000
,
0010
0000
0001
0000
0100
0000
0010
1000
,
0100
0000
1000
0000
0010
0000
0100
0001
,
1000
0000
0010
0000
0100
0000
0010
1000
,
0001
0000
0100
0000
0010
0000
1000
0100
,
0001
0000
0010
0000
1000
0000
0001
0100
,
1000
0000
0010
0000
0001
0000
1000
0010
,
0100
0000
0001
0100
0010
0000
1000
0100
,
0010
0001
0100
0010
1000
0000
1010
0000
,
0001
0101
1000
1001
,
0100
0000
0010
1000
0100
0010
0002
0000
,
0103
2000
3010
0011
,
0110
0000
1100
0000
1001
0000
0001
0100
,
0010
1000
0010
0100
0001
0000
1000
0100
,
0010
0001
0010
0100
1000
0000
0010
0100
,
0001
0100
0010
1000
0100
0010
0001
0000
,
0011
0000
0110
0000
1100
0000
1000
0010
,
0100
0000
1000
0100
0001
0000
1000
0010
,
0100
0010
0100
0001
1000
0000
0001
0100
,
0010
0000
0001
0010
1000
0000
1100
0000
,
0011
0000
0101
0000
1010
0000
1000
0100
,
0010
0100
1000
0100
0100
0010
0001
0100
,
0001
0010
0001
0100
1000
0100
0010
0010
,
1000
0001
0010
0100
1000
0000
1010
0000
,
0011
0000
0000
0000
1100
0000
0000
0000
0102
0000
0000
0000
1003
0000
0000
1000
,
0000
0000
1000
0000
0010
0000
0000
0010
0000
0000
0010
0000
0001
0000
0000
0001
,
0000
0001
0100
1000
0010
0100
0002
0000
,
0000
1003
0000
0000
1001
0000
0000
0000
0010
0100
0010
0000
0100
0000
0000
0000
,
0001
0010
1000
0001
0100
1000
0010
0000
,
0100
0000
0000
0000
0001
0000
0000
0000
0000
1000
0100
1000
0100
0000
0000
0000
,
0110
0000
0010
0001
0100
1000
2002
0000
,
0000
0000
0000
0000
,
0000
0000
0000
3003
;

//---------------dance-double - ----------------
#NOTEDATA:;
#CHARTNAME:;
#STEPSTYPE:dance-double;
#DESCRIPTION:;
#CHARTSTYLE:;
#DIFFICULTY:Hard;
#METER:12;
#RADARVALUES:0.464153,0.551182,0.169594,0.071408,0.133890,364.000000,345.000000,19.000000,8.000000,0.000000,0.000000,0.000000,0.000000,0.000000,0.464153,0.551182,0.169594,0.071408,0.133890,364.000000,345.000000,19.000000,8.000000,0.000000,0.000000,0.000000,0.000000,0.000000;
#CREDIT:MILEN;
#NOTES:
00000000
00000000
00000000
00000000
,
00000000
00000000
00000000
00000000
,
00001000
00000000
00010000
00000000
01000000
00000000
00000000
00000000
01000000
00000000
00000000
00000000
00000000
10000000
00100000
10000000
,
00100000
00000000
00010000
00000000
00001000
00010000
00001000
00000010
,
00000002
00000000
00000000
00000000
00000000
00001003
00000000
00000000
00001001
00000000
00000000
00000000
00000100
00000010
00000100
00000000
,
00000000
00000000
00000010
00010000
00001000
00100000
00010000
00010000
,
10000000
00100000
01000000
00000000
00100000
00000000
10000000
00000000
,
00010000
01000000
00100000
00000000
01000000
00000000
00001000
00000000
,
00010000
00001000
00000100
00001000
00010000
00000000
00000100
00000000
,
00000010
00000001
00000100
00000000
00000010
00000000
00000110
00000000
,
00000100
00000001
00000010
00000000
00000001
00000000
00001000
00000000
,
00000100
00001000
00000010
00000000
00010000
00000000
00001000
00000000
,
00100000
01000000
00100000
00010000
00100000
00000000
00001000
00000000
,
00010000
01000000
10000000
00000000
00100000
00000000
01100000
00000000
,
10000000
00010000
10000000
00000000
00000000
00000000
00100000
00000000
00100000
00000000
00010000
00000000
00010000
00000000
00001000
00000000
,
00000010
00000001
00000010
00000000
00000100
00000010
00000000
00000000
00000000
00000001
00000100
00001000
00000000
00010000
00000000
00001000
,
00000000
00010000
00100000
01000000
00100000
00000000
00000000
00000000
10000000
00000000
01000000
00000000
00010000
00001000
00010000
00000000
,
00000000
01000000
00010000
00001000
00000020
00000000
00000130
00000010
,
00000001
00000000
00000100
00000000
00001000
00000000
01000000
00100000
,
00010000
00000000
00100000
00000000
10000000
00000000
01000000
00100000
,
00010000
00000000
01000000
00000000
00001000
00000000
00000100
00000010
,
00000001
00000000
00000010
00000000
00001000
00000000
00000100
00000010
,
00001000
00000000
00010000
00000000
01000000
00000000
00100000
00010000
,
01000000
00000000
00001000
00000000
00010000
00000000
00000100
00001000
,
00000010
00000000
00010000
00001000
00100000
00000000
10000000
00100000
,
00010000
00000000
00100000
00000000
00001000
00000000
00010000
00000000
00000020
00000000
00000000
00000000
00000130
00000000
00000000
00000001
,
00000000
00000000
00001000
00000000
00000100
00000000
00000000
00000010
00000000
00000000
00001000
00000000
00010000
00000000
00000000
01000000
,
00000000
00000000
00100000
00000000
00010000
00000000
00000000
10000000
00000000
00000000
00100000
00000000
01000000
00000000
00000000
00010000
,
00000000
00000000
00100000
00000000
01000000
00000000
00000000
00010000
00000000
00000000
00001000
00000000
00000010
00000000
00000000
00000100
,
00000000
00000000
00001000
00000000
00000001
00000000
00000000
00000100
00000010
00000100
00000020
00000000
00000130
00000000
00000001
00000000
,
00001000
00000000
00000100
00000000
00000010
00000000
00001000
00010000
,
01000000
00000000
00100000
00000000
00010000
00000000
10000000
01000000
,
00100000
00000000
01000000
00000000
00010000
00000000
00001000
00010000
,
00000100
00000000
00001000
00000000
00000010
00000000
00000001
00000010
,
00000100
00000000
00001000
00000000
00010000
00000000
00100000
10000000
,
01000000
00000000
00010000
00000000
00001000
00000000
00100000
01000000
,
00010000
00000000
00001000
00000010
00000100
00000000
00001000
00000100
,
00000010
00000001
00000100
00000010
00000100
00000000
00001001
00000000
,
00000100
00011000
01000000
10010000
,
00100000
00000000
10000000
01000000
00100000
00010000
01000000
00000000
,
00001000
00010000
00000100
00000110
,
00000001
00000000
00000110
00000000
00001000
00000000
00000001
00000100
,
00001000
00010000
00001000
00010000
00100000
00000000
10000000
01000000
,
00010000
00001000
00010000
00001000
00000010
00000000
00000001
00000100
,
00000010
00010000
00001000
01000000
00100000
10000000
00010000
00000000
,
01010000
00000000
10000000
00000000
10100000
00000000
00100000
01000000
,
00010000
00100000
01000000
00010000
00001000
00000000
00100000
00010000
,
01000000
00001000
00010000
00000100
00001000
00000000
00000010
00010000
,
00001000
00000100
00000010
00010000
00001000
00000000
00101000
00000000
,
00010000
00000000
00010010
00000000
00001000
00000000
00010000
00001000
,
00000100
00000010
00001000
00000001
00000010
00000100
00001000
00000010
,
00010000
00001000
01000000
00010000
00100000
01000000
00010000
00001000
,
00000100
00001000
00010000
00100000
10000000
00000000
11000000
00000000
,
01100000
00000000
00000000
00000000
00110000
00000000
00000000
00000000
00012000
00000000
00000000
00000000
00003010
00000000
00000000
00000001
,
00000000
00000000
00000100
00000000
00001000
00000000
00000000
00010000
00000000
00000000
00100000
00000000
10000000
00000000
00000000
01000000
,
00000000
00010000
00001000
00010000
00000100
00000010
00000002
00000000
,
00000000
00001003
00000000
00000000
00001001
00000000
00000000
00000000
00000100
00000010
00000100
00000000
00000010
00000000
00000000
00000000
,
00001000
00000100
00000010
00001000
00010000
01000000
10000000
00000000
,
00100000
00000000
00000000
00000000
00010000
00000000
00000000
00000000
00000000
00001000
00010000
00001000
00010000
00000000
00000000
00000000
,
00011000
00000000
00000010
00000100
00001000
00010000
00022000
00000000
,
00000000
00000000
00000000
00000000
,
00000000
00000000
00000000
00033000
;

//---------------dance-single - ----------------
#NOTEDATA:;
#CHARTNAME:;
#STEPSTYPE:dance-single;
#DESCRIPTION:;
#CHARTSTYLE:;
#DIFFICULTY:Beginner;
#METER:4;
#RADARVALUES:0.154293,0.165355,0.000000,0.008926,0.000000,121.000000,121.000000,0.000000,1.000000,0.000000,0.000000,0.000000,0.000000,0.000000,0.154293,0.165355,0.000000,0.008926,0.000000,121.000000,121.000000,0.000000,1.000000,0.000000,0.000000,0.000000,0.000000,0.000000;
#CREDIT:MILEN;
#NOTES:
0000
0000
0000
0000
,
0000
0000
0000
0000
,
1000
0000
1000
0000
,
1000
0000
0001
0000
,
0001
0000
0001
0000
,
0100
0000
0100
0100
,
0100
0000
0000
0000
,
0001
0000
0001
0000
,
1000
0000
1000
0000
,
0001
0000
1000
0000
,
0001
0000
0000
0000
,
1000
0000
1000
0000
,
0001
0000
0001
0000
,
1000
0000
0001
0000
,
1000
0000
0100
0100
,
0010
0000
0000
0010
,
0000
0010
0000
0010
,
0000
0010
0010
0001
,
0000
0100
0000
0001
,
0000
0100
0000
0001
,
0000
1000
0000
0001
,
0000
1000
0000
0010
,
0000
1000
0000
0010
,
0000
1000
0000
0001
,
0000
1000
0000
0001
,
0000
1000
1000
1000
,
0000
0100
0000
0010
,
0000
0001
0000
0010
,
0000
0100
0000
1000
,
0000
0010
0010
0100
,
0000
0000
0000
0001
,
0000
1000
0000
0100
,
0000
0100
0000
0100
,
0000
0000
0000
1000
,
0000
0000
0000
1000
,
0000
0001
0000
0010
,
0000
0010
0000
0010
,
0000
0000
0001
0001
,
0000
0100
0000
0001
,
0000
0010
0000
0001
,
0000
0100
0000
0100
,
0000
1000
0000
0010
,
0000
0001
0000
1000
,
0000
0010
0000
0100
,
0000
0010
0000
0010
,
0010
0010
0000
1000
,
0000
0100
0000
1000
,
0000
0010
0000
1000
,
0000
0100
0000
0100
,
0000
0001
0000
0010
,
0000
1000
0000
0001
,
0000
0100
0000
0010
,
0000
1000
0000
0001
,
0001
0001
0000
0001
,
0000
0010
0000
0100
,
0000
1000
1000
1000
,
0000
0010
0000
0001
,
0000
0100
0100
1000
,
0000
0100
0000
0010
,
0000
0001
0001
0002
,
0000
0000
0000
0000
,
0000
0000
0000
0003
;

//---------------dance-single - ----------------
#NOTEDATA:;
#CHARTNAME:;
#STEPSTYPE:dance-single;
#DESCRIPTION:;
#CHARTSTYLE:;
#DIFFICULTY:Easy;
#METER:7;
#RADARVALUES:0.249929,0.303150,0.116038,0.062482,0.000000,196.000000,183.000000,13.000000,7.000000,0.000000,0.000000,0.000000,0.000000,0.000000,0.249929,0.303150,0.116038,0.062482,0.000000,196.000000,183.000000,13.000000,7.000000,0.000000,0.000000,0.000000,0.000000,0.000000;
#CREDIT:MILEN;
#NOTES:
0000
0000
0000
0000
,
0000
0000
0000
0000
,
1000
0000
0001
0000
1000
0000
0000
0001
,
0001
1000
0010
0100
,
0010
0000
0000
0010
0010
0000
0100
0000
,
0010
1000
0001
1000
,
0010
0010
0000
0001
,
0100
0001
0010
0000
,
0001
0000
1000
0000
,
0010
0000
0100
0000
,
0010
0010
0000
1000
,
0100
1000
0001
0000
,
1000
0000
0010
0000
,
0100
0000
0010
0010
,
1001
0000
0000
1000
1000
0000
0001
0000
,
0100
0000
0000
0000
0000
0001
0000
1000
,
0000
0010
0010
0000
0000
0100
0100
0100
,
0000
0010
0200
0301
,
0000
0010
0000
0001
,
0100
0010
0000
1000
,
0000
0100
0000
1000
,
0010
0100
0000
0001
,
1001
1000
0000
0010
,
0000
0100
0000
0010
,
1000
0100
0000
0010
,
0001
0100
0100
0010
,
0000
1000
0000
0001
,
0000
0100
0000
0010
,
1000
0001
0100
1000
,
0010
0000
0001
0000
1000
1000
1000
0000
,
0010
0100
0000
0001
,
0100
0010
0000
1000
,
0010
0001
0010
1000
,
0010
0001
0010
0100
,
0100
0000
0000
0001
,
0010
0100
0000
1000
,
0100
0010
0000
0001
,
0100
0010
1000
1001
,
0000
1001
0000
2002
,
3003
0001
1000
0001
,
0001
0100
0100
1000
,
0010
0001
1000
0010
,
0000
0100
0000
0001
,
0000
1000
0000
0100
,
0000
0010
0000
0001
,
1000
0001
0100
0110
,
0000
0110
0000
0220
,
0330
0010
0100
0010
,
0010
1000
1000
0100
,
0001
0010
0100
0010
,
1000
0001
0100
1000
,
0000
0010
0000
0001
,
0000
1000
0000
0010
,
0100
0010
1000
1001
,
0000
0000
1001
0000
0000
0100
0100
0000
,
0010
1000
0001
1001
,
0000
0110
0000
1001
,
1000
0000
0010
0010
0010
0000
0100
0000
,
0001
1000
0100
0010
,
0001
1000
0020
0200
,
0000
0000
0000
0000
,
0000
0000
0000
0330
;

//---------------dance-single - ----------------
#NOTEDATA:;
#CHARTNAME:;
#STEPSTYPE:dance-single;
#DESCRIPTION:;
#CHARTSTYLE:;
#DIFFICULTY:Medium;
#METER:10;
#RADARVALUES:0.376168,0.413386,0.133890,0.053556,0.089260,295.000000,280.000000,15.000000,6.000000,0.000000,0.000000,0.000000,0.000000,0.000000,0.376168,0.413386,0.133890,0.053556,0.089260,295.000000,280.000000,15.000000,6.000000,0.000000,0.000000,0.000000,0.000000,0.000000;
#CREDIT:MILEN;
#NOTES:
0000
0000
0000
0000
,
0000
0000
0000
0000
,
1000
0000
0001
0000
0100
0000
0000
0000
0100
0000
0000
0000
0000
0001
0000
1000
,
0000
0000
1001
0000
1000
0001
1000
0010
,
0100
0000
0000
0000
0000
0010
0000
0000
0010
0000
0000
0000
1000
0000
0001
0000
,
0000
0000
1001
0000
1000
0001
0100
0010
,
0100
0100
0000
0001
,
1000
0001
1000
0010
,
0100
0001
0100
0000
0001
0000
1000
0000
,
0010
1000
0010
0000
1000
0000
0001
0000
,
0010
0010
0000
0001
,
1000
0001
1000
0010
,
0100
0010
0100
0000
0010
0100
0010
0000
,
1000
0100
0010
0001
,
0100
0100
0000
0010
1000
0010
0100
0001
,
0010
0000
0000
0010
0000
0000
0000
0000
0000
0001
0000
0100
0000
0100
0000
0010
,
0000
1000
0100
0000
0100
0000
0000
0000
1000
0000
0100
0000
0010
0000
0010
0000
,
0000
0100
0010
0001
0200
0000
0310
0000
,
1000
0010
1000
0100
,
0001
0100
0001
0010
,
1000
0100
0001
0010
,
1000
0100
0110
0001
,
0100
0001
0100
1000
,
0010
1000
0010
0001
,
0100
1000
0010
0001
,
1000
0000
0010
0000
0100
0000
0001
0000
2000
0000
0000
0000
3010
0000
0000
0010
,
0000
0000
0000
0000
0100
0000
0000
0100
0000
0000
0000
0000
0001
0000
0000
0001
,
0000
0000
0000
0000
1000
0000
0000
1000
0000
0000
0000
0000
0100
0000
0000
0010
,
0000
0000
0100
0000
0001
0000
0000
1000
0000
0000
0001
0000
0100
0000
0000
0010
,
0000
0100
2000
0000
0001
3001
0001
0100
,
0010
0000
0100
0000
0001
0000
1000
0010
,
0100
0000
0010
0000
1000
0000
0001
0010
,
0100
0000
0010
0000
0001
0000
1000
0100
,
0010
0100
1000
0010
,
0110
0000
0000
0000
0100
0001
0010
0001
,
0100
1000
0010
0001
,
1000
0010
0100
1000
,
0001
0010
0100
0101
,
0100
1100
0100
0101
,
0001
0000
0010
0100
0010
0100
1000
0000
,
0010
0110
0100
0001
,
0001
0000
1000
0000
1000
0000
0010
0100
,
0001
0000
1000
0000
0001
0000
0100
0010
,
1000
0000
0100
0010
0001
0010
0100
0000
,
0010
0001
0100
1100
,
0010
0011
1000
1100
,
0100
0101
0100
1100
,
1000
0000
0010
0100
0010
0100
0001
0000
,
0010
0110
0100
1000
,
1000
0000
0001
0000
0001
0000
0010
0100
,
1000
0000
0001
0000
1000
0000
0100
0010
,
0001
0000
0100
0010
1000
0010
0100
0000
,
0010
0000
1000
0000
0100
0000
0001
0010
,
0100
0000
1000
0000
0100
0000
0010
0000
0002
0000
0000
0000
1003
0000
0000
1000
,
0000
0000
0000
0000
0010
0000
0000
0010
0000
0000
0000
0000
0001
0000
0000
0001
,
0000
0000
0100
0010
1000
0010
0100
0000
,
0000
0001
0000
0000
0001
0000
0000
0000
1000
0000
0010
0000
0000
0000
0000
0000
,
0001
0100
1000
0010
0100
0010
0001
0000
,
0010
0000
1000
0000
0000
0100
0100
0000
,
0001
0000
0010
0100
0010
0000
2002
0000
,
0000
0000
0000
0000
,
0000
0000
0000
3003
;

//---------------dance-double - ----------------
#NOTEDATA:;
#CHARTNAME:;
#STEPSTYPE:dance-double;
#DESCRIPTION:;
#CHARTSTYLE:;
#DIFFICULTY:Easy;
#METER:7;
#RADARVALUES:0.248653,0.303150,0.160668,0.062482,0.000000,195.000000,177.000000,18.000000,7.000000,0.000000,0.000000,0.000000,0.000000,0.000000,0.248653,0.303150,0.160668,0.062482,0.000000,195.000000,177.000000,18.000000,7.000000,0.000000,0.000000,0.000000,0.000000,0.000000;
#CREDIT:MILEN;
#NOTES:
00000000
00000000
00000000
00000000
,
00000000
00000000
00000000
00000000
,
00001000
00000000
00010000
00000000
00001000
00000000
00000000
00010000
,
00010000
00001000
00000010
00001000
,
00010000
00000000
00000000
00100000
00100000
00000000
00010000
00000000
,
00001000
00000100
00001000
00010000
,
01000000
01000000
00000000
10000000
,
00100000
10000000
01000000
00000000
,
00010000
00000000
00001000
00000000
,
00000010
00000000
00000100
00000000
,
00000010
00000010
00000000
00000001
,
00000100
00000001
00000010
00000000
,
00001000
00000000
00010000
00000000
,
01000000
00000000
00100000
00100000
,
10010000
00000000
00000000
10000000
10000000
00000000
00010000
00000000
,
01000000
00000000
00000000
00000000
00000000
00001000
00000000
00010000
,
00000000
00001000
00001000
00000000
00000000
00000100
00000100
00000100
,
00000000
00000001
00002000
00003010
,
00000000
00000010
00000000
00000010
,
00010000
00001000
00000000
01000000
,
00000000
01000000
00000000
01000000
,
00001000
00010000
00000000
00001000
,
00011000
00010000
00000000
00001000
,
00000000
00000100
00000000
00000001
,
00000010
00001000
00000000
00010000
,
01000000
10000000
10000000
10010000
,
00000000
00010000
00000000
00011000
,
00000000
00001000
00000000
00001001
,
00000000
00000001
00000000
00000100
,
00001000
00000000
00010000
00000000
01000000
01000000
01000000
00000000
,
10000000
00100000
00000000
01000000
,
00010000
00100000
00000000
01000000
,
00010000
00001000
00010000
01000000
,
00010000
00001000
00000010
00000100
,
00000100
00000000
00000000
00000010
,
00000001
00000100
00000000
00000010
,
00001000
00000100
00000000
00000010
,
00001000
00010000
00001000
00011000
,
00000000
00011000
00000000
00022000
,
00033000
00001000
00010000
01000000
,
00000000
11000000
00000000
10000000
,
01000000
00100000
00010000
00100000
,
00000000
00001000
00000000
00010000
,
00000000
00001000
00000010
00000100
,
00000000
00000010
00000000
00000001
,
00000100
00001000
00010000
00011000
,
00000000
00011000
00000000
00022000
,
00033000
00010000
00001000
00000100
,
00000000
00000101
00000000
00000001
,
00000100
00000010
00001000
00000010
,
00000000
00010000
00000000
00001000
,
00000000
00010000
00100000
01000000
,
00000000
00100000
00000000
10000000
,
01000000
00010000
00001000
00011000
,
00000000
00000000
00011000
00000000
00000000
00000010
00000010
00000000
,
00000100
00000010
00000001
00000101
,
00000000
00001100
00000000
00011000
,
00010000
00000000
00100000
00100000
00100000
00000000
10000000
00000000
,
01000000
00100000
01000000
00010000
,
00001000
00010000
00000200
00000020
,
00000000
00000000
00000000
00000000
,
00000000
00000000
00000000
00000330
;

//---------------dance-double - ----------------
#NOTEDATA:;
#CHARTNAME:;
#STEPSTYPE:dance-double;
#DESCRIPTION:;
#CHARTSTYLE:;
#DIFFICULTY:Medium;
#METER:9;
#RADARVALUES:0.371067,0.413386,0.133890,0.053556,0.089260,291.000000,276.000000,15.000000,6.000000,0.000000,0.000000,0.000000,0.000000,0.000000,0.371067,0.413386,0.133890,0.053556,0.089260,291.000000,276.000000,15.000000,6.000000,0.000000,0.000000,0.000000,0.000000,0.000000;
#CREDIT:MILEN;
#NOTES:
// measure 0
00000000
00000000
00000000
00000000
,  // measure 1
00000000
00000000
00000000
00000000
,  // measure 2
00001000
00000000
00010000
00000000
00001000
00000000
00000000
00000000
00001000
00000000
00000000
00000000
00000000
00010000
00000000
00001000
,  // measure 3
00000000
00000000
00011000
00000000
00010000
00000010
00010000
00001000
,  // measure 4
00100000
00000000
00000000
00000000
00000000
00001000
00000000
00000000
00001000
00000000
00000000
00000000
00010000
00000000
00001000
00000000
,  // measure 5
00000000
00000000
00011000
00000000
00001000
00100000
00001000
00010000
,  // measure 6
00000010
00000010
00000000
00000100
,  // measure 7
00000001
00000100
00000001
00001000
,  // measure 8
00000100
00010000
00000100
00000000
00001000
00000000
00000010
00000000
,  // measure 9
00000100
00000001
00000100
00000000
00000010
00000000
00010000
00000000
,  // measure 10
00100000
00100000
00000000
01000000
,  // measure 11
00010000
01000000
00010000
10000000
,  // measure 12
00100000
01000000
00100000
00000000
01000000
00100000
01000000
00000000
,  // measure 13
00010000
10000000
00100000
00010000
,  // measure 14
00001000
00001000
00000000
00010000
00000100
00010000
00000100
00001000
,  // measure 15
00000010
00000000
00000000
00000010
00000000
00000000
00000000
00000000
00000000
00000100
00000000
00000001
00000000
00000100
00000000
00000001
,  // measure 16
00000000
00001000
00000100
00000000
00000100
00000000
00000000
00000000
00000010
00000000
00001000
00000000
00010000
00000000
00010000
00000000
,  // measure 17
00000000
00001000
00010000
00100000
20000000
00000000
30010000
00000000
,  // measure 18
01000000
00010000
01000000
00001000
,  // measure 19
00010000
00001000
00010000
00000100
,  // measure 20
00001000
00000001
00000100
00000010
,  // measure 21
00010000
00001000
00011000
00010000
,  // measure 22
00000100
00010000
00000100
00001000
,  // measure 23
00000010
00001000
00000010
00010000
,  // measure 24
00001000
01000000
00010000
10000000
,  // measure 25
01000000
00000000
10000000
00000000
01000000
00000000
10000000
00000000
00200000
00000000
00000000
00000000
01300000
00000000
00000000
01000000
,  // measure 26
00000000
00000000
00000000
00000000
00001000
00000000
00000000
00001000
00000000
00000000
00000000
00000000
00010000
00000000
00000000
00010000
,  // measure 27
00000000
00000000
00000000
00000000
00000100
00000000
00000000
00000100
00000000
00000000
00000000
00000000
00001000
00000000
00000000
00000010
,  // measure 28
00000000
00000000
00000100
00000000
00000001
00000000
00000000
00000100
00000000
00000000
00000010
00000000
00010000
00000000
00000000
00001000
,  // measure 29
00000000
00010000
02000000
00000000
13000000
10000000
10000000
01000000
,  // measure 30
00100000
00000000
01000000
00000000
00010000
00000000
00001000
00010000
,  // measure 31
00100000
00000000
00010000
00000000
00001000
00000000
00000010
00001000
,  // measure 32
00010000
00000000
00000100
00000000
00001000
00000000
00000100
00000010
,  // measure 33
00000001
00000100
00001000
00010000
,  // measure 34
00011000
00000000
00000000
00000000
00100000
00010000
00100000
00010000
,  // measure 35
01000000
00100000
10000000
00010000
,  // measure 36
00100000
01000000
00010000
00001000
,  // measure 37
00000010
00000001
00000100
00000110
,  // measure 38
00001000
00001001
00000010
00000110
,  // measure 39
00000000
00000000
00000100
00000001
00000100
00000001
00000010
00000000
,  // measure 40
00001000
00011000
00010000
01000000
,  // measure 41
10000000
00000000
00100000
00000000
10000000
00000000
01000000
00010000
,  // measure 42
00001000
00000000
00010000
00000000
00100000
00000000
00010000
00001000
,  // measure 43
00000010
00000000
00001000
00000000
00010000
00000000
00001000
00000100
,  // measure 44
00000001
00000010
00001000
00011000
,  // measure 45
01000000
01010000
00100000
01100000
,  // measure 46
00010000
10010000
01000000
01100000
,  // measure 47
00000000
00000000
00100000
10000000
00100000
10000000
01000000
00000000
,  // measure 48
00010000
00011000
00001000
00000010
,  // measure 49
00000001
00000000
00000100
00000000
00000001
00000000
00000010
00001000
,  // measure 50
00010000
00000000
00001000
00000000
00000100
00000000
00001000
00010000
,  // measure 51
01000000
00000000
00010000
00000000
00001000
00000000
00010000
00100000
,  // measure 52
10000000
00000000
01000000
00000000
00010000
00000000
00001000
00010000
,  // measure 53
00001000
00000000
00010000
00000000
00000010
00000000
00001000
00000000
00000002
00000000
00000000
00000000
00000103
00000000
00000000
00000100
,  // measure 54
00000000
00000000
00000000
00000000
00001000
00000000
00000000
00001000
00000000
00000000
00000000
00000000
00010000
00000000
00000000
00010000
,  // measure 55
00000000
00000000
00100000
10000000
00100000
01000000
00010000
00000000
,  // measure 56
00000000
10000000
00000000
00000000
10000000
00000000
00000000
00000000
01000000
00000000
01000000
00000000
00000000
00000000
00000000
00000000
,  // measure 57
00010000
00001000
00010000
00001000
00000010
00000100
00000010
00000000
,  // measure 58
00000001
00000000
00000100
00000000
00000000
00001000
00001000
00000000
,  // measure 59
00010000
00000000
00100000
01000000
00100000
00000000
20020000
00000000
,  // measure 60
00000000
00000000
00000000
00000000
,  // measure 61
00000000
00000000
00000000
30030000
;
