#VERSION:0.83;
#TITLE:ヒャダインのじょーじょーゆーじょー;
#SUBTITLE:;
#ARTIST:ヒャダイン;
#TITLETRANSLIT:Hyadain no Joujou Yuujou;
#SUBTITLETRANSLIT:;
#ARTISTTRANSLIT:Hyadain;
#GENRE:J-MUSIC;
#ORIGIN:;
#CREDIT:MUINELIM;
#BANNER:Hyadain no Joujou Yuujou.png;
#BACKGROUND:Hyadain no Joujou Yuujou-bg.png;
#PREVIEWVID:;
#JACKET:Hyadain no Joujou Yuujou-jacket.png;
#CDIMAGE:;
#DISCIMAGE:;
#LYRICSPATH:;
#CDTITLE:;
#MUSIC:Hyadain no Joujou Yuujou.ogg;
#OFFSET:0.038000;
#SAMPLESTART:56.956299;
#SAMPLELENGTH:14.258556;
#SELECTABLE:YES;
#DISPLAYBPM:100.000000:200.000000;
#BPMS:0.000=200.020,
146.000=100.100,
166.000=200.200;
#STOPS:252.000=0.300;
#DELAYS:;
#WARPS:;
#TIMESIGNATURES:0.000=4=4;
#TICKCOUNTS:0.000=4;
#COMBOS:0.000=1;
#SPEEDS:0.000=1.000=0.000=0;
#SCROLLS:0.000=1.000;
#FAKES:;
#LABELS:0.000=Song Start;
#BGCHANGES:0.000=Hyadain no Joujou Yuujou.avi=1.000=1=0=0=StretchNoLoop==CrossFade==,
99999=-nosongbg-=1.000=0=0=0 // don't automatically add -songbackground-
;
#KEYSOUNDS:;
#ATTACKS:
;

//---------------dance-single - ----------------
#NOTEDATA:;
#CHARTNAME:;
#STEPSTYPE:dance-single;
#DESCRIPTION:;
#CHARTSTYLE:;
#DIFFICULTY:Beginner;
#METER:4;
#RADARVALUES:0.193967,0.263688,0.011039,0.088310,0.000000,123.000000,122.000000,1.000000,8.000000,0.000000,0.000000,0.000000,0.000000,0.000000,0.193967,0.263688,0.011039,0.088310,0.000000,123.000000,122.000000,1.000000,8.000000,0.000000,0.000000,0.000000,0.000000,0.000000;
#CREDIT:MILEN;
#DISPLAYBPM:200.000000;
#NOTES:
// measure 0
0000
0000
0000
0000
,  // measure 1
0000
0000
0000
0000
,  // measure 2
0000
0000
0000
0000
,  // measure 3
0000
0000
0000
0000
,  // measure 4
0000
0000
0100
0000
,  // measure 5
0100
0000
0100
0000
,  // measure 6
0100
0000
0010
0000
,  // measure 7
0010
0000
0010
0000
,  // measure 8
0010
0000
1000
0000
,  // measure 9
0001
0000
0100
0000
,  // measure 10
0010
0000
1000
0000
,  // measure 11
1000
0000
0000
0001
,  // measure 12
0001
0000
1000
0000
,  // measure 13
0100
0000
0010
0000
,  // measure 14
0001
0000
0001
0000
,  // measure 15
0010
0000
0100
0000
,  // measure 16
1000
0000
1000
0000
,  // measure 17
0100
0000
0010
0000
,  // measure 18
0000
0010
0010
0000
,  // measure 19
0001
0000
0200
0000
,  // measure 20
0300
0000
0100
0000
,  // measure 21
0001
0000
1000
0000
,  // measure 22
0010
0000
0100
0000
,  // measure 23
0010
0000
1000
0000
,  // measure 24
0001
0000
0100
0000
,  // measure 25
0010
0000
0100
0000
,  // measure 26
0001
0000
1000
0000
,  // measure 27
0010
0000
0200
0000
,  // measure 28
0300
0100
0100
0000
,  // measure 29
0000
0000
0100
0000
,  // measure 30
0000
0100
0100
0000
,  // measure 31
0100
0000
0100
0000
,  // measure 32
0100
0000
0001
0000
,  // measure 33
1000
0000
0001
0000
,  // measure 34
1000
0000
0001
0000
,  // measure 35
1000
0000
0001
0001
,  // measure 36
0001
0000
0100
0000
,  // measure 37
0100
0000
0100
0000
,  // measure 38
0100
0000
0100
0000
,  // measure 39
0100
0000
0200
0000
,  // measure 40
0000
0000
0000
0000
,  // measure 41
0300
0000
0020
0000
,  // measure 42
0000
0030
0010
0000
,  // measure 43
1000
0000
0001
0000
,  // measure 44
0100
0000
0010
0000
,  // measure 45
1000
0000
0001
0000
,  // measure 46
0100
0000
0010
0000
,  // measure 47
1000
0000
0001
0000
,  // measure 48
0100
0000
0010
0000
,  // measure 49
1000
1000
0000
0100
,  // measure 50
0100
0100
0100
0000
,  // measure 51
0010
0000
0001
0000
,  // measure 52
1000
0000
0100
0000
,  // measure 53
0010
0000
0001
0000
,  // measure 54
1000
0000
0001
0000
,  // measure 55
0001
0000
1000
0000
,  // measure 56
1000
0000
0001
0000
,  // measure 57
1000
0000
0002
0000
,  // measure 58
0003
0000
2000
0000
,  // measure 59
3000
0000
0010
0000
,  // measure 60
0100
0000
0010
0000
,  // measure 61
0100
0000
0010
0000
,  // measure 62
0100
0000
0010
0010
,  // measure 63
0000
0010
0000
1000
,  // measure 64
0000
0001
0000
0100
,  // measure 65
0000
0010
0000
0010
,  // measure 66
0000
0000
0100
0100
,  // measure 67
0000
2002
0000
0000
,  // measure 68
0000
3003
0000
0000
;

//---------------dance-single - ----------------
#NOTEDATA:;
#CHARTNAME:;
#STEPSTYPE:dance-single;
#DESCRIPTION:;
#CHARTSTYLE:;
#DIFFICULTY:Easy;
#METER:7;
#RADARVALUES:0.307508,0.376697,0.088310,0.132465,0.000000,195.000000,187.000000,8.000000,12.000000,0.000000,0.000000,0.000000,0.000000,0.000000,0.307508,0.376697,0.088310,0.132465,0.000000,195.000000,187.000000,8.000000,12.000000,0.000000,0.000000,0.000000,0.000000,0.000000;
#CREDIT:MILEN;
#DISPLAYBPM:200.000000;
#NOTES:
0000
0000
0000
0000
,
0000
0000
0000
0000
,
0000
0000
0000
0000
,
0000
0000
0000
0000
,
0000
0000
0010
0000
,
1000
0000
0001
0000
,
0100
0010
0100
0000
,
0001
0000
1000
0000
,
0010
0100
0010
0000
,
0010
0000
0010
1000
,
0100
0010
0001
0000
,
0001
0000
0000
1000
,
0001
2000
3001
0000
,
0001
0000
0100
0000
,
0100
0000
1000
0000
,
1000
0000
0010
0000
,
0010
0000
0001
0000
,
1000
0000
0001
0000
,
0100
0010
0100
0000
,
0010
0100
0020
0000
,
0000
0030
0010
0000
,
1000
0000
0100
0000
,
0010
0000
0001
0000
,
1000
0000
0100
0000
,
0010
0000
0001
0000
,
1000
0000
0010
0000
,
0100
0000
0001
1000
,
0001
1000
0001
0010
,
0100
1000
0010
0000
,
0010
0000
0010
1000
,
0100
0000
0010
0001
,
0100
0001
0010
0001
,
0100
0000
0010
0000
,
0010
0000
0010
1000
,
0100
0000
0010
0001
,
0100
0001
0010
0001
,
0200
0300
0110
0000
,
0110
0000
0110
0000
,
0110
0000
0110
0000
,
0110
0000
0010
1000
,
0001
0000
0100
0000
0010
0000
0010
0010
,
0020
0000
0130
0001
,
0100
0001
1000
0100
,
0010
0001
1000
0100
,
0010
0000
1000
0100
,
0010
0001
1000
0100
,
0010
0000
0001
0100
,
0010
1000
0001
0100
,
0010
0000
0001
0100
,
0010
2000
3000
0001
,
1000
1001
0010
1000
,
0100
0010
0001
0100
,
0010
1000
0001
0010
,
0100
1000
0010
0100
,
0010
0010
1000
1000
,
0001
0001
0100
0100
,
0010
0010
1000
0100
,
0010
0001
2000
3000
,
0020
0030
0200
0300
,
0002
0003
1000
0010
,
0100
0001
0010
0100
,
1000
0010
0100
0001
,
0100
0010
0100
0001
,
0000
1000
0100
0010
,
0001
1000
0010
0100
,
0100
0020
0000
0000
,
0000
0030
1000
0001
,
1000
2002
0000
0000
,
0000
3003
0000
0000
;

//---------------dance-single - ----------------
#NOTEDATA:;
#CHARTNAME:;
#STEPSTYPE:dance-single;
#DESCRIPTION:;
#CHARTSTYLE:;
#DIFFICULTY:Medium;
#METER:11;
#RADARVALUES:0.490436,0.602716,0.099349,0.209736,0.000000,311.000000,302.000000,9.000000,19.000000,0.000000,0.000000,0.000000,0.000000,0.000000,0.490436,0.602716,0.099349,0.209736,0.000000,311.000000,302.000000,9.000000,19.000000,0.000000,0.000000,0.000000,0.000000,0.000000;
#CREDIT:MILEN;
#DISPLAYBPM:200.000000;
#NOTES:
0000
0000
0000
0000
,
0000
0000
0000
0000
,
0000
0000
0000
0000
,
0000
0000
0000
0000
,
0000
0000
1000
0010
,
1000
0100
0000
1000
0000
0010
0000
1000
,
0000
0100
1000
0000
0001
0000
0010
0000
,
0001
0100
0000
0001
0000
0010
0000
0001
,
0000
0100
0001
0000
1000
0000
1000
0000
,
0001
0001
0100
0010
,
1000
0001
1001
0100
,
1001
0000
0100
0100
0000
1000
0100
0010
,
0002
1003
1000
0010
,
1000
0100
1000
0010
,
1000
0100
1000
0000
0001
0000
0010
0000
,
0001
0100
0001
0010
,
0001
0100
0001
0000
2000
0000
0000
0000
,
3002
0000
0000
0203
0000
0000
0000
0310
,
0000
0010
1000
0000
0100
0000
0010
0000
,
0001
0000
0100
0100
0000
0010
1000
0010
,
1000
0010
1000
0010
1000
0000
0100
0000
,
0010
0001
0100
0010
,
1000
0000
0001
0010
0001
0000
0100
0000
,
0010
1000
0001
0010
,
0100
0000
1000
0010
2000
0000
0000
0000
,
3002
0000
0000
0203
0000
0000
0000
0310
,
0000
0010
1000
0100
0010
0000
0001
0000
,
0100
0000
0010
0100
0000
0000
0010
0000
,
1000
0001
0010
0100
,
1000
0000
0010
0000
0100
0001
0100
0001
,
0100
0001
1000
1000
,
0001
0000
0001
0000
1000
0100
0010
0001
,
0100
0000
0010
0010
,
1000
0000
1000
0000
0001
0010
0100
1000
,
0010
0100
0001
1000
,
0100
0000
0010
0000
0001
0100
0001
0010
,
0001
1001
1000
0100
,
0010
0000
0001
0001
0001
0000
0100
0000
,
0010
0000
1000
1000
1000
0000
0001
0000
,
0010
0100
2000
3020
,
0230
0000
0302
0000
1003
0100
0010
0001
,
2002
0003
0001
0000
,
3001
1000
0001
1000
0001
0000
0100
0000
,
0010
0000
1000
0000
0100
0000
0010
0001
,
0100
0001
0010
0100
,
1000
0000
0010
0000
0100
0001
0010
0001
,
0100
0110
0010
1000
,
0001
0000
0010
0000
0100
0000
1000
0010
,
0100
0010
1000
0001
,
1000
0000
1001
0000
0000
0010
0100
0010
,
0100
0010
0110
0000
0010
1000
0100
0000
,
1000
0000
0001
0000
0010
0001
0100
0000
,
0001
0000
1000
0000
0010
1000
0100
0000
,
1000
0000
0001
0000
0010
0001
0100
0001
,
0010
0000
0010
0000
0001
0100
0010
0000
,
1000
0100
0010
0000
0001
0100
0010
0000
,
1000
0100
0010
0000
0002
0000
2003
0000
,
3020
0000
0230
0000
0301
0010
0001
0010
,
0100
1000
0100
1000
0001
0010
0100
1000
,
0100
0010
0001
0000
1000
0000
0010
0000
,
0100
0001
0010
0100
,
1000
1001
0001
0100
,
0010
1000
0100
0010
,
1001
1000
0010
0100
,
0001
0000
0010
0100
0010
0100
0010
0000
,
0001
0000
0100
0010
1000
0010
0100
0010
,
1000
0100
0000
0010
0001
0100
0010
1000
,
0002
2000
0000
0000
0000
0000
0000
0000
,
0000
3003
0000
0000
;

//---------------dance-single - ----------------
#NOTEDATA:;
#CHARTNAME:;
#STEPSTYPE:dance-single;
#DESCRIPTION:;
#CHARTSTYLE:;
#DIFFICULTY:Hard;
#METER:13;
#RADARVALUES:0.690710,0.941743,0.309085,0.353240,0.082791,438.000000,410.000000,28.000000,32.000000,0.000000,0.000000,0.000000,0.000000,0.000000,0.690710,0.941743,0.309085,0.353240,0.082791,438.000000,410.000000,28.000000,32.000000,0.000000,0.000000,0.000000,0.000000,0.000000;
#CREDIT:MILEN;
#DISPLAYBPM:200.000000;
#NOTES:
0000
0000
0000
0000
,
0000
0000
0000
0000
,
0000
0000
0000
0000
,
0000
0000
0000
0000
0000
0001
0010
0100
,
1000
0001
0010
0100
1000
0000
1010
0000
,
0001
0020
0000
0032
0000
0203
0000
0320
,
0000
1030
0100
0010
0001
0000
0101
0000
,
1000
0020
0000
0230
0000
0302
0000
2003
,
0000
3100
0010
0000
0100
0000
0110
0000
,
0010
0001
0000
0100
0000
0010
0000
1000
,
0001
1001
0010
0010
,
1000
0100
0010
0001
0000
0001
0010
0100
,
1000
0010
0100
0000
0110
0000
0010
0000
,
1000
0100
0000
0001
0000
0100
0000
1000
,
0000
0010
0100
0001
0010
0000
0100
0000
,
1000
0010
0000
0001
0000
0010
0000
1000
,
0000
0100
0010
0001
0202
0000
0303
0000
,
2200
3300
0000
2020
0000
3000
0000
0130
,
0000
0100
0010
1000
0100
0000
0010
0001
,
0000
0001
1000
0020
0000
0130
0001
0010
,
0100
1000
0010
0100
0101
0000
0001
0000
,
1000
0100
0000
0001
0000
0100
0000
1000
,
0000
0010
0100
0001
0011
0000
1000
0000
,
0010
0001
0010
1000
0000
0100
0000
0010
,
0000
0001
0100
0010
2020
0000
3030
0000
,
2200
3300
0000
0202
0000
0300
0000
1003
,
0000
1000
0100
0010
0001
0000
0100
0000
,
0010
1000
0001
0010
0100
1000
0100
0001
,
0100
1000
0100
0010
0001
0100
0010
0100
,
0001
0010
0100
0010
0001
0100
0010
0100
,
0001
0000
1000
0100
0010
0100
1000
0010
,
0100
1000
0100
0010
1000
0100
0010
0100
,
1000
0000
0010
0100
0001
0100
1000
0100
,
0001
0100
1000
0100
0001
0010
1000
0010
,
0001
0010
1000
0010
0001
0100
1000
0100
,
0001
0010
1000
0010
0001
0100
0010
1000
,
0001
0000
1001
0000
1000
0010
0100
0010
,
1000
0000
0010
0000
0100
0010
0100
0000
0001
0000
0100
0000
0010
0000
0100
0000
,
0001
0000
0100
0000
0010
0100
0010
0000
1000
0000
0001
0000
0100
0000
0010
0000
,
1000
0000
0000
0000
0000
0000
0001
0000
0000
0000
0000
0000
0010
0000
0000
0100
0000
0000
1000
0000
0000
0000
0000
0000
0010
0000
0000
0000
0100
0000
0000
0000
0001
0000
0000
0000
0100
0000
0000
0000
0010
0000
0000
0000
1000
0000
0000
0000
,
0010
0100
0001
0010
0100
1000
0001
0100
0010
1000
0001
0100
,
0220
0000
0030
0000
0310
0001
0100
0010
,
1000
1000
1000
1000
0001
0100
1000
0100
,
0001
0000
1000
0100
0010
0001
0100
0010
,
1000
0000
1010
0000
1000
0010
0001
0010
,
1000
0000
0001
0010
0100
1000
0010
0100
,
0001
0000
0101
0000
1000
0100
0001
0100
,
1000
0000
0010
0100
0001
0010
0100
1000
,
0010
0000
0110
0000
1000
0010
0001
0010
,
1000
0010
0002
0000
0000
0013
0100
0001
,
0010
0100
1000
0010
0100
0001
0100
0001
,
0100
1000
0100
1000
0100
0001
1000
0010
,
0001
0000
0010
1000
0010
1000
0010
0001
,
0010
0001
0010
1000
0001
0100
1000
0010
,
0100
0000
0110
0000
1000
0100
0020
0000
,
0031
0010
0200
0000
1300
0100
0020
0000
,
0031
0010
0200
0000
1300
0010
0100
0001
,
0010
0100
1000
0010
0100
0001
0100
1000
,
0100
0001
0100
1000
0100
0001
0100
1000
,
0100
0001
0100
1000
0110
0000
1010
0000
,
0101
0000
1010
0000
1000
0100
0010
0001
,
0100
0000
0110
0000
0010
1000
0001
0010
,
0100
1000
0010
0100
0001
1000
0100
0010
,
0002
0103
1100
1010
,
0011
0000
0001
0010
0100
1000
0010
0100
,
0001
0000
1000
0100
0001
0100
1000
0010
,
0100
0020
0000
0130
0100
0100
0100
0100
,
0100
2002
0000
0000
0000
0000
0000
0000
,
0000
3003
0000
0000
;

//---------------dance-double - ----------------
#NOTEDATA:;
#CHARTNAME:;
#STEPSTYPE:dance-double;
#DESCRIPTION:;
#CHARTSTYLE:;
#DIFFICULTY:Easy;
#METER:8;
#RADARVALUES:0.299623,0.376697,0.055194,0.121426,0.000000,190.000000,185.000000,5.000000,11.000000,0.000000,0.000000,0.000000,0.000000,0.000000,0.299623,0.376697,0.055194,0.121426,0.000000,190.000000,185.000000,5.000000,11.000000,0.000000,0.000000,0.000000,0.000000,0.000000;
#CREDIT:MILEN;
#DISPLAYBPM:200.000000;
#NOTES:
00000000
00000000
00000000
00000000
,
00000000
00000000
00000000
00000000
,
00000000
00000000
00000000
00000000
,
00000000
00000000
00000000
00000000
,
00000000
00000000
01000000
00000000
,
00001000
00000000
00010000
00000000
,
01000000
00000000
00010000
00000000
,
00001000
00000000
00000010
00000000
,
00001000
00000000
00010000
00000000
,
00000100
00000000
00001000
00000010
,
00010000
00001000
00100000
00010000
,
01000000
00000000
00000000
00001000
,
00010000
00002000
00013000
00000000
,
00010000
00000000
01000000
00000000
,
10000000
00000000
00100000
00000000
,
00010000
00000000
00001000
00000000
,
00000100
00000000
00000001
00000000
,
00000010
00000000
00001000
00000000
,
00010000
00001000
00010000
00000000
,
00001000
00010000
00002000
00000000
,
00000000
00003000
00010000
00000000
,
00001000
00000000
00000010
00000000
,
00000001
00000000
00000100
00000000
,
00001000
00000000
00010000
00000000
,
00100000
00000000
10000000
00000000
,
01000000
00000000
00010000
00000000
,
00001000
00000000
00100000
00010000
,
01000000
00001000
00010000
00000100
,
00001000
00000010
00010000
00000000
,
00001000
00000000
00010000
00001000
,
00000100
00000000
00001000
00010000
,
01000000
00010000
00001000
00010000
,
01000000
00000000
00010000
00000000
,
00001000
00000000
00010000
00001000
,
00000010
00000000
00001000
00010000
,
00100000
00010000
00001000
00010000
,
00200000
00300000
10000000
00000000
,
00010000
00000000
00001000
00000000
,
00000001
00000000
00001000
00000000
,
00010000
00000000
10000000
01000000
,
00010000
00001000
00000010
00000001
,
00002002
00003003
00001000
00000100
,
00000010
00000011
00001000
00000100
,
00000010
00000001
00000100
00001000
,
00010000
00000000
00001000
00010000
,
00100000
10000000
01000000
00100000
,
00010000
00000000
01000000
00001000
,
00010000
00000100
00001000
00000010
,
00010000
00000000
00001000
00100000
,
00010000
02000000
03000000
00100000
,
10000000
11000000
00100000
00010000
,
01000000
00100000
00010000
00100000
,
10000000
01000000
00100000
00001000
,
00010000
00000100
00000010
00000001
,
00000100
00000110
00001000
00000100
,
00010000
00001000
01000000
00010000
,
10000000
01000000
00100000
00010000
,
00001000
00000100
00000020
00000000
,
00000001
00000000
00001000
00000000
,
00000001
00000030
00000001
00000100
,
00001000
00010000
00001000
00000010
,
00001000
00010000
01000000
00010000
,
00001000
00010000
00100000
20000000
,
30000000
10000000
01000000
00100000
,
00010000
00001000
00000010
00000100
,
00000001
00000020
00000000
00000000
,
00000000
00000030
00001000
00010000
,
00001000
00022000
00000000
00000000
,
00000000
00033000
00000000
00000000
;

//---------------dance-double - ----------------
#NOTEDATA:;
#CHARTNAME:;
#STEPSTYPE:dance-double;
#DESCRIPTION:;
#CHARTSTYLE:;
#DIFFICULTY:Medium;
#METER:10;
#RADARVALUES:0.441550,0.489706,0.176620,0.165581,0.000000,280.000000,264.000000,16.000000,15.000000,0.000000,0.000000,0.000000,0.000000,0.000000,0.441550,0.489706,0.176620,0.165581,0.000000,280.000000,264.000000,16.000000,15.000000,0.000000,0.000000,0.000000,0.000000,0.000000;
#CREDIT:MILEN;
#DISPLAYBPM:200.000000;
#NOTES:
00000000
00000000
00000000
00000000
,
00000000
00000000
00000000
00000000
,
00000000
00000000
00000000
00000000
,
00000000
00000000
00000000
00000000
,
00000000
00000000
00001000
00010000
,
00100000
10000000
01000000
10000000
,
00100000
00010000
00001000
00000100
,
00000001
00000010
00000001
00000100
,
00001000
00011000
01000000
00000000
,
01000000
00000000
01000000
00100000
,
10000000
01000000
00010000
00001000
,
00011000
00000000
00010000
00010000
00000000
00000100
00001000
00000100
,
00002000
00003001
00000001
00000100
,
00000001
00000010
00000001
00000100
,
00001000
00010000
00000100
00010000
,
00001000
00010000
00000100
00010000
,
00001000
00010000
02000000
00000000
,
10000000
00000000
00000000
00010000
00000000
00000000
00000000
03100000
,
00000000
00100000
00100000
00000000
00010000
00000000
01000000
00000000
,
00001000
00000000
00010000
00010000
00000000
00000000
00001000
00000000
,
00100000
00010000
10000000
00100000
,
10000000
01000000
10000000
00100000
,
00010000
00001000
00100000
00001000
,
00010000
00001000
00100000
00001000
,
00010000
00001000
00000020
00000000
,
00000001
00000000
00000000
00001000
00000000
00000000
00000000
00000130
,
00000000
00000100
00000100
00000000
00001000
00000000
00000010
00000000
,
00010000
00000000
00001000
00001000
00000000
00000000
00010000
00000000
,
00000100
00001000
00000001
00000100
,
00000010
00000000
00001000
00000000
00000001
00000100
00000001
00000000
,
00000101
00000100
00001000
00010000
,
00100000
00000000
10000000
00000000
01000000
00100000
01000000
00000000
,
00010000
00000000
00001000
00010000
,
00100000
00000000
10000000
00000000
01000000
00100000
01000000
00000000
,
11000000
10000000
00100000
00010000
,
00001000
00000000
00000100
00000000
00000001
00001000
00000001
00000000
,
00000011
00000100
00000010
00010000
,
00001000
00000000
00100000
01000000
10000000
00000000
00100000
00000000
,
01000000
00000000
00001000
00010000
00000100
00000000
00000010
00000000
,
00000001
00000100
00002000
01000000
,
00010000
00000000
00103000
00000000
00100000
00010000
01000000
00001000
,
00022000
00030000
00010000
00000000
,
00013000
00001000
00010000
00001000
00010000
00000000
01000000
00000000
,
10000000
00100000
01000000
00010000
,
00110000
00100000
00001000
00010000
,
00001000
00000010
00000001
00000100
,
00000010
00001010
00001000
00000100
,
00010000
01000000
10000000
00100000
,
01100000
01000000
00010000
00100000
,
00001000
00000000
00011000
00000000
00000000
00010000
00000100
00010000
,
00000100
00010000
00000100
00000000
00001100
00000000
00001000
00000000
,
00000001
00000100
00001000
00010000
,
00110000
00100000
10000000
01000000
,
00100000
00000000
00010000
00000000
00100000
00001000
00100000
00001000
,
00010000
00011000
00001000
01000000
,
00001000
00000100
00001000
01000000
,
00001000
00000100
00000001
00000010
,
00000100
00001000
00000020
00020030
,
00032000
00203000
02300000
23000000
,
30200000
01300000
01100000
00100000
,
10000000
01000000
00100000
00010000
,
01000000
00001000
00010000
00100000
,
00010000
00001000
00000010
00000001
,
00001001
00001000
00000100
00010000
,
00001000
00000000
00100000
01000000
00100000
01000000
00100000
00000000
,
10000000
00100000
00010000
00001000
,
00000010
00000010
00000000
00000100
00000001
00001000
00000100
00010000
,
00001000
00022000
00000000
00000000
00000000
00000000
00000000
00000000
,
00000000
00033000
00000000
00000000
;

//---------------dance-double - ----------------
#NOTEDATA:;
#CHARTNAME:;
#STEPSTYPE:dance-double;
#DESCRIPTION:;
#CHARTSTYLE:;
#DIFFICULTY:Hard;
#METER:14;
#RADARVALUES:0.689133,0.979413,0.419472,0.441550,0.082791,437.000000,399.000000,38.000000,40.000000,0.000000,0.000000,0.000000,0.000000,0.000000,0.689133,0.979413,0.419472,0.441550,0.082791,437.000000,399.000000,38.000000,40.000000,0.000000,0.000000,0.000000,0.000000,0.000000;
#CREDIT:MILEN;
#DISPLAYBPM:200.000000;
#NOTES:
00000000
00000000
00000000
00000000
,
00000000
00000000
00000000
00000000
,
00000000
00000000
00000000
00000000
,
00000000
00000000
00000000
00000000
00000000
10000000
01000000
00100000
,
00001000
00010000
00000100
00000010
00000001
00000000
00000101
00000000
,
00001000
00001100
00000000
00010100
00000000
00011000
00000000
01001000
,
00000000
01000000
00100000
10000000
01000000
00000000
01100000
00000000
,
00100000
00101000
00000000
00011000
00000000
00010010
00000000
00001100
,
00000000
00000100
00000010
00000000
00000001
00000000
00000100
00000000
,
00001000
00010000
00000000
01000000
00000000
00010000
00000000
00001000
,
00000010
00000110
00000001
00000001
,
00000100
00001000
00010000
00100000
00000000
00100000
00010000
00001000
,
00000010
00000100
00001000
00000000
00001001
00000000
00000001
00000000
,
00000100
00002000
00000000
00023000
00000000
02030000
00000000
23000000
,
00000000
30100000
01000000
00010000
00100000
00000000
01000000
00000000
,
00010000
00002000
00000000
00003020
00000000
00000032
00000000
00000203
,
00000000
00001300
00010000
01000000
22000000
00000000
03000000
00000000
,
00200000
30000000
00000000
00020000
00000000
00300000
00000000
00031000
,
00000000
00001000
00010000
00100000
01000000
00000000
00100000
10000000
,
00000000
10000000
01000000
00200000
00000000
01300000
00010000
00001000
,
00010000
01000000
00010000
00001000
00011000
00000000
00010000
00000000
,
00100000
20000000
00000000
32000000
00000000
03020000
00000000
00032000
,
00000000
00003010
00000001
00000100
00000110
00000000
00000010
00000000
,
00001000
00000100
00000010
00000002
00000000
00000203
00000000
00002300
,
00000000
00013000
00000100
00000010
00000022
00000000
00000030
00000000
,
00000200
00000003
00000000
00002000
00000000
00000300
00000000
00013000
,
00000000
00010000
00100000
10000000
01000000
00000000
01100000
00000000
,
00100000
01000000
10000000
00100000
00010000
00001000
00100000
00010000
,
00001000
00000100
00010000
00001000
00000010
00000001
00000200
00000000
,
00000310
00001000
00000200
00000000
00000310
00000001
00000100
00001000
,
00010000
00000000
00100000
10000000
02000000
00000000
03100000
00010000
,
02000000
00000000
03100000
10000000
01000000
00010000
00001000
00010000
,
00011000
00000000
00001000
00010000
01000000
10000000
00100000
01000000
,
00100000
10000000
01000000
00010000
00001000
00000010
00000001
00000100
,
00000010
00000100
00000001
00000010
00001000
00010000
01000000
00100000
,
00010000
01000000
00100000
00010000
00001000
00000100
00000010
00001000
,
00000100
00000000
00000101
00000000
00000001
00000100
00001000
00010000
,
00100000
00000000
10000000
00000000
01000000
00100000
01100000
00000000
10000000
00000000
01000000
00000000
00010000
00000000
00001000
00000000
,
00000010
00000000
00000001
00000000
00000100
00000010
00000110
00000000
00000001
00000000
00000100
00000000
00001000
00000000
00010000
00000000
,
01000000
00000000
00000000
00000000
00000000
00000000
10000000
00000000
00000000
00000000
00000000
00000000
00100000
00000000
00000000
01000000
00000000
00000000
01010000
00000000
00000000
00000000
00000000
00000000
10000000
00000000
00000000
00000000
01000000
00000000
00000000
00000000
00100000
00000000
00000000
00000000
00010000
00000000
00000000
00000000
01000000
00000000
00000000
00000000
00100000
00000000
00000000
00000000
,
00010000
00001000
00000100
00000010
00001000
00000100
00000010
00000001
00000100
00001000
00010000
00100000
,
02200000
00000000
00300000
00000000
03010000
00100000
00001000
00010000
,
00000100
00001000
00000010
00010000
00001000
01000000
10000000
01000000
,
00001000
00000000
00010000
00000000
01000000
00000000
10000000
00100000
,
00010000
00000000
00011000
00000000
00010000
00000010
00000001
00000010
,
00010000
00000000
00001000
00000000
00000100
00000000
00000001
00000010
,
00001000
00000000
00011000
00000000
00010000
00000100
00000001
00000100
,
00010000
00000000
00001000
00000000
00010000
00000000
01000000
10000000
,
00100000
00000000
00011000
00000000
00001000
00100000
10000000
00100000
,
00001000
00000000
00022000
00033000
00000000
00010000
00001000
00000100
,
00000010
00010000
00001000
00000100
00000010
00001000
00000100
00000001
,
00000100
00010000
00001000
00100000
00010000
01000000
00100000
10000000
,
00010000
00000000
01000000
00100000
00010000
00001000
00100000
10000000
,
00100000
00010000
01000000
00100000
00010000
00001000
00000100
00000010
,
00001000
00000000
00000101
00000000
00000001
00000100
00002000
00000000
,
00013000
01000000
20000000
00000000
30100000
00010000
00002000
00000000
,
00003010
00000001
00000200
00000000
00001300
00010000
00100000
10000000
,
01000000
00100000
01000000
00010000
00001000
00000100
00000010
00000001
,
00000010
00000100
00001000
00010000
00100000
01000000
10000000
01000000
,
00100000
00010000
00001000
00000100
00000101
00000000
00001100
00000000
,
00011000
00000000
01010000
00000000
10000000
01000000
00100000
00010000
,
01000000
00000000
01001000
00000000
00001000
00010000
00100000
10000000
,
01000000
00010000
00001000
00000010
00000001
00000100
00001000
00010000
,
00200000
10300000
11000000
01100000
,
00101000
00000000
00001000
00010000
00000100
00000010
00000001
00000100
,
00000110
00000000
00000001
00000100
00010000
00000100
00000001
00000010
,
00000100
00002000
00000000
00003010
00010000
00001000
00100000
00010000
,
01000000
20200000
00000000
00000000
00000000
00000000
00000000
00000000
,
00000000
30300000
00000000
00000000
;
