#VERSION:0.83;
#TITLE:Hidden Ending;
#SUBTITLE:;
#ARTIST:ARForest;
#TITLETRANSLIT:;
#SUBTITLETRANSLIT:;
#ARTISTTRANSLIT:;
#GENRE:VARIETY;
#ORIGIN:;
#CREDIT:MILEN;
#BANNER:Hidden Ending.png;
#BACKGROUND:Hidden Ending-bg.png;
#PREVIEWVID:;
#JACKET:Hidden Ending-jacket.png;
#CDIMAGE:;
#DISCIMAGE:;
#LYRICSPATH:;
#CDTITLE:;
#MUSIC:Hidden Ending.ogg;
#OFFSET:-0.079000;
#SAMPLESTART:91.342155;
#SAMPLELENGTH:11.368423;
#SELECTABLE:YES;
#DISPLAYBPM:190.000000;
#BPMS:0.000=190.000;
#STOPS:;
#DELAYS:;
#WARPS:;
#TIMESIGNATURES:0.000=4=4;
#TICKCOUNTS:0.000=4;
#COMBOS:0.000=1;
#SPEEDS:0.000=1.000=0.000=0;
#SCROLLS:0.000=1.000;
#FAKES:;
#LABELS:0.000=Song Start;
#BGCHANGES:;
#KEYSOUNDS:;
#ATTACKS:
;

//---------------dance-single - ----------------
#NOTEDATA:;
#CHARTNAME:;
#STEPSTYPE:dance-single;
#DESCRIPTION:;
#CHARTSTYLE:;
#DIFFICULTY:Beginner;
#METER:6;
#RADARVALUES:0.237695,0.351084,0.015922,0.063689,0.000000,209.000000,207.000000,2.000000,8.000000,0.000000,0.000000,0.000000,0.000000,0.000000,0.237695,0.351084,0.015922,0.063689,0.000000,209.000000,207.000000,2.000000,8.000000,0.000000,0.000000,0.000000,0.000000,0.000000;
#CREDIT:MILEN;
#DISPLAYBPM:190.000000;
#NOTES:
0000
0000
0000
0000
,
0000
0000
0000
0000
,
0000
0000
0000
0000
,
0000
0000
0000
0000
,
0000
1000
0000
1000
,
0000
1000
0000
0000
,
0000
0001
0000
0001
,
0000
0001
0000
0000
,
0100
0100
0000
0010
,
0000
1000
0000
0010
,
0100
0010
0000
0100
,
0000
0001
0000
0100
,
0010
0100
0000
0010
,
0000
1000
0000
0010
,
0100
0010
0000
0100
,
0000
0001
0000
0100
,
0010
0100
0000
0001
,
0000
1000
0000
0010
,
0100
0010
0000
1000
,
0000
0001
0000
0100
,
0010
0200
0000
0000
,
0000
0000
0000
0000
,
0000
0000
0000
0000
,
0300
0001
1000
0001
,
1001
1000
0000
0100
,
0000
0010
0000
0001
,
0000
1000
0000
0100
,
0000
0010
0000
0001
,
0000
1000
0000
0010
,
0000
0100
0000
0001
,
0000
1000
0000
0010
,
0000
0100
0000
0001
,
0000
1000
0010
1000
,
0000
1000
0000
0001
,
0000
0001
0010
0001
,
0000
0001
0000
1000
,
0000
1000
0100
1000
,
0000
1000
0000
0001
,
0000
0001
0100
0001
,
0000
0001
0000
1000
,
0000
0010
0000
0010
,
0000
0010
0000
0000
,
0000
0100
0000
0100
,
0000
0100
0000
0000
,
0000
0001
0000
0001
,
0000
0001
0000
0000
,
0000
1000
0000
1000
,
0000
1000
0000
0000
,
0000
0010
0000
0100
,
0000
0001
0000
0100
,
0000
0010
0000
1000
,
0000
0010
0000
0100
,
0000
0001
0000
0010
,
0000
0001
0000
1000
,
0000
0100
0000
1000
,
0000
0010
0000
0100
,
0000
0010
1000
0010
,
0000
0100
0001
0100
,
0000
0001
0010
0001
,
0000
1000
0100
1000
,
0000
0001
0100
0010
,
0000
1000
0010
0100
,
0000
0001
1000
0100
,
0000
1000
0001
1001
,
0000
0000
1000
0000
0000
1000
0000
0000
,
1000
0000
0000
1000
0000
0000
1000
0000
,
0000
0000
0001
0000
0000
0001
0000
0000
,
0001
0000
0000
0001
0000
0000
0001
0000
,
0000
0100
0000
0010
,
0000
1000
0000
0001
,
0000
0100
0010
1000
,
0001
0200
0000
0300
,
0100
0010
0000
0010
,
0000
0010
1000
0100
,
0010
0001
0000
0001
,
0000
0001
0100
0010
,
1000
0010
0000
0010
,
0000
0010
0100
0001
,
0010
0100
0000
0100
,
0000
0100
1000
0100
,
0010
0001
1000
0100
,
0000
1000
0001
0010
,
0000
0001
1000
0010
,
0000
1000
0001
0100
,
0000
0010
0100
0010
,
0000
1000
0001
1000
,
0000
0010
0100
0001
,
1000
0010
0100
0001
,
1000
0020
0000
0000
,
0000
0000
0000
0000
,
0030
0200
0000
0000
,
0000
0000
0000
0000
,
0300
0002
0000
0000
,
0000
0000
0000
0000
,
0003
2000
0000
0000
,
3000
0020
0030
0100
,
0200
0000
0000
0000
,
0000
0000
0000
0000
,
0300
0000
0000
0000
;

//---------------dance-single - ----------------
#NOTEDATA:;
#CHARTNAME:;
#STEPSTYPE:dance-single;
#DESCRIPTION:;
#CHARTSTYLE:;
#DIFFICULTY:Challenge;
#METER:17;
#RADARVALUES:0.909838,1.209289,0.501548,0.398054,0.680673,800.000000,737.000000,63.000000,50.000000,0.000000,0.000000,0.000000,0.000000,0.000000,0.909838,1.209289,0.501548,0.398054,0.680673,800.000000,737.000000,63.000000,50.000000,0.000000,0.000000,0.000000,0.000000,0.000000;
#CREDIT:MILEN;
#DISPLAYBPM:190.000000;
#NOTES:
0000
0000
0000
0000
,
0000
0000
0000
0000
,
0000
0000
0000
0000
,
0000
0000
0000
0000
,
0000
0000
1100
1100
0000
1010
1010
0000
,
0101
0101
0000
0011
0011
0000
0000
0000
,
0000
0000
0101
0101
0000
1100
1100
0000
,
1010
1010
0000
0011
0011
0000
0001
0100
,
0010
0000
1000
0000
1001
0000
1001
0000
0001
0000
0100
0010
0000
0100
0010
0000
,
1000
0000
0100
0000
0010
0000
0001
0000
0100
0000
0010
1000
0000
0010
1000
0000
,
0001
0000
0010
0000
0100
0000
1000
0000
0010
0000
0100
0001
0000
0100
0001
0000
,
1000
0000
0010
0000
0110
0000
0100
0000
1001
0000
0001
0100
0000
0010
1000
0000
,
0100
0010
0100
0010
0100
0000
1000
0000
0010
0000
0100
0001
0000
0100
0001
0000
,
0010
0000
0100
0000
1000
0000
0010
0000
0100
0000
0001
0010
0000
0001
0010
0000
,
0100
0000
0010
0000
0001
0000
0100
0000
0010
0000
1000
0100
0000
1000
0100
0000
,
0010
0000
0001
0000
1001
0000
0100
0000
0110
0000
0010
1000
0000
0001
0100
0000
,
0010
0100
0010
0100
0020
0000
1030
0000
0100
0000
0020
0000
0031
0000
0100
0000
,
0020
0000
1030
0000
0100
0000
0020
0000
0031
0000
0100
0000
0010
1000
0010
0000
,
0100
0001
0100
0001
2000
0000
3010
0000
0100
0000
0002
0000
0013
0000
0100
0000
,
2000
0000
3010
0000
0100
0000
0002
0000
0013
0000
0100
0000
1000
0010
1000
0010
,
0100
0001
0100
0001
0200
0000
0000
0000
0000
0000
0000
0000
0000
0000
0000
0000
,
0000
0000
0000
0000
,
0000
0000
0000
0000
,
0000
0000
0000
0000
0310
1000
0010
1000
0001
1000
0000
0000
0002
0000
0203
0000
,
0310
1000
0100
0000
1100
0000
1000
0000
0001
0000
0011
0000
0000
0000
0010
0000
,
0001
0000
0100
0000
0010
0000
0000
0010
1000
0000
1001
0000
0000
0000
0001
0000
,
0100
0010
1010
1000
0001
0101
0000
0100
,
0010
0000
1000
0100
1000
0000
0000
1000
0001
0000
0100
0001
0100
0000
0010
0000
,
1000
0000
0100
0010
0100
0000
0010
0000
0001
0000
0101
0000
0000
0000
0100
0000
,
0010
0000
1000
0000
0001
0000
0000
0001
0010
0000
0110
0000
0000
0000
0100
0000
,
1000
0010
1010
0100
0001
0011
0000
0010
,
0100
0000
1000
0010
1000
0000
0001
0100
0001
0000
0100
0010
0100
0000
0001
1000
,
0001
1000
0010
0100
0001
0000
0010
0000
0100
0000
1100
0000
1000
0000
0010
0000
,
0100
0000
0001
0000
1000
0000
0000
1000
0100
0000
0110
0000
0010
0000
0001
0000
,
1000
0010
0110
0100
0001
1001
1000
0010
,
0100
0000
0001
0010
0001
0000
0000
0001
1000
0000
0010
0100
0010
0000
0100
0000
,
0001
0000
1000
0100
1000
0000
0010
0000
0100
0000
0101
0000
0010
0000
1000
0000
,
1100
0000
0100
0000
0010
0000
0000
0010
0001
0000
0101
0000
0100
0000
0010
0000
,
1000
0000
0001
0000
0011
0000
0010
0100
0010
0000
0100
0000
1000
0000
0100
0000
,
1100
0000
0010
0001
0010
0000
0001
0100
0001
0000
1000
0010
1000
0000
0100
1000
,
0100
1000
0100
0010
0002
0000
0000
0000
0100
0000
0000
0000
1000
0000
0000
0000
,
0010
0000
0100
0000
1003
0000
1000
0010
,
0100
0001
2000
0000
0010
0000
0001
0000
,
0100
0000
0000
0000
0010
0000
0000
0000
3001
0000
0000
0000
0001
0100
0010
1000
,
0001
0100
0010
1000
0200
0000
0000
0000
0010
0000
0000
0000
0001
0000
0000
0000
,
0010
0000
1000
0000
0010
0000
0301
0100
,
1000
0010
0200
0000
1000
0000
0010
0000
,
0001
0000
0010
0000
1300
0100
0001
0010
,
0100
0010
0120
0000
1000
0000
0001
0000
,
0000
1000
0000
0000
0001
0000
0200
0000
,
0330
1002
0100
0010
,
0000
0100
0000
0000
0010
0000
2000
0000
,
3003
0210
0001
1000
,
0000
0001
0000
0000
1000
1300
1010
0010
,
0100
0001
0011
0010
0100
0001
0100
1000
,
0100
0000
0001
0000
0100
0000
0010
0000
0001
0000
0100
0000
0010
1000
0010
1000
,
0010
1000
0010
1000
0010
0000
1000
0000
0100
0000
0020
0000
0000
0000
0031
0000
,
0010
0000
0200
0000
1300
0010
1000
0010
0100
0000
0002
0000
0000
0000
0013
0100
,
0010
0100
0010
0100
1000
0000
0010
0100
0001
0000
0010
0100
1000
0000
0010
0100
,
0001
0100
0001
1000
0010
1000
0010
0100
0001
0000
0020
0000
0000
0000
0130
1000
,
0100
0000
0010
0000
0110
0000
0100
0010
0001
0000
0200
0000
0000
0000
0310
0000
,
1000
0000
0001
0000
0100
0010
1000
0010
0100
0000
0002
0000
0000
0000
0103
0001
,
0100
0001
0100
0001
0010
0001
0010
0001
0010
0000
0100
1000
0100
1000
0100
1000
,
0010
1000
0010
0100
0001
0010
0100
0000
0110
0000
0010
0000
0100
0010
0100
1000
,
0200
0000
0310
0001
0101
0010
1000
1100
,
0010
0001
0101
0010
1000
1100
0010
0001
,
0101
0110
1010
0100
0001
0011
0100
1000
,
1010
0000
0010
0100
0001
0000
0011
0000
0100
0000
1000
0000
1010
0000
0010
0100
,
0001
0100
0010
0100
0001
0000
0001
0000
0010
0000
0010
0000
0100
0000
0100
0000
,
1000
1000
0010
0010
0001
0001
1000
1000
,
0100
0000
0100
0000
0001
0010
0001
0010
0100
1000
0100
1000
0001
0100
0001
0100
,
0010
1000
0010
1000
0002
0000
0000
0000
0000
0000
0000
0000
0000
0000
0000
0000
,
0103
0010
1000
0001
0200
0000
0310
1000
0010
0000
2010
0000
0000
0000
3010
0000
,
0100
0000
0001
0000
0010
0000
0100
0010
0100
0000
1000
0000
0010
0100
0001
0000
,
1000
0010
0100
0001
0010
0100
0010
0100
1000
0000
0100
0000
0010
0100
0010
0100
,
1000
0000
0100
0000
0010
0100
1000
0000
0010
0100
0001
0000
1000
0100
0010
0000
,
0001
0100
0001
0100
0010
0000
1000
0100
0010
0000
0012
0000
0000
0000
0013
0000
,
0100
0000
1000
0000
0010
0000
0100
0001
0100
0000
0010
0000
0100
0001
0100
0000
,
0010
1000
0010
1000
0001
0010
0100
0000
1000
0000
0010
0100
0001
0000
1000
0000
,
0001
0010
0100
0000
1000
0010
0100
0001
0010
0100
2000
0000
3002
0000
0103
0010
,
1000
0010
0100
0010
1000
0000
0100
0010
0100
0000
0120
0000
0000
0000
0130
0000
,
1000
0000
0010
0000
0100
0000
0001
0010
0100
0000
0010
0000
0001
0010
0100
0000
,
0010
0001
0010
0001
0100
0010
1000
0000
0100
0010
0001
0000
1000
0010
0100
0000
,
0001
0010
0100
0000
1000
0010
0100
0001
1000
0100
0010
0001
0100
0010
1000
0001
,
0010
0100
0010
0100
1000
0000
0010
0100
0001
0000
2001
0000
0000
0000
3001
0000
,
0100
0000
0010
0000
1000
0000
0100
0010
0100
0000
0001
0000
0100
0010
0100
0000
,
1000
0010
0100
0001
1000
0100
0010
0100
1000
0000
0001
0010
0100
0010
0001
0000
,
1000
0010
0100
0001
0010
0100
0010
0100
0010
1000
0010
1000
0010
0100
0010
0001
,
1000
0100
0010
0002
2000
0000
0000
0000
0000
0000
0000
0000
0000
0000
0000
0000
,
0000
0000
0000
0000
,
3003
0210
0000
0000
,
0000
0000
0000
0000
,
0000
0302
0000
0023
,
0000
0230
0000
2300
,
0000
3020
0032
0023
,
0230
2300
3200
0302
,
2000
0000
0000
0000
,
0000
0000
0000
0000
,
3003
0000
0000
0000
;

//---------------dance-double - ----------------
#NOTEDATA:;
#CHARTNAME:;
#STEPSTYPE:dance-double;
#DESCRIPTION:;
#CHARTSTYLE:;
#DIFFICULTY:Challenge;
#METER:18;
#RADARVALUES:0.863209,1.209289,0.406015,0.732420,0.624945,759.000000,708.000000,51.000000,92.000000,0.000000,0.000000,0.000000,0.000000,0.000000,0.863209,1.209289,0.406015,0.732420,0.624945,759.000000,708.000000,51.000000,92.000000,0.000000,0.000000,0.000000,0.000000,0.000000;
#CREDIT:MILEN;
#DISPLAYBPM:190.000000;
#NOTES:
// measure 0
00000000
00000000
00000000
00000000
,  // measure 1
00000000
00000000
00000000
00000000
,  // measure 2
00000000
00000000
00000000
00000000
,  // measure 3
00000000
00000000
00000000
00000000
,  // measure 4
00000000
00000000
00001000
01001000
00000000
00010000
00010100
00000000
,  // measure 5
00001000
00101000
00000000
00010000
00010010
00000000
00000000
00000000
,  // measure 6
00000000
00000000
00001000
00101000
00000000
00010000
00010010
00000000
,  // measure 7
00001000
01001000
00000000
00010000
00010100
00000000
00000100
00001000
,  // measure 8
00000100
00000010
00000011
00000011
00000001
00000100
00001000
00010000
,  // measure 9
00001000
00000100
00001000
00010000
01000000
00010000
00001000
00010000
,  // measure 10
01000000
10000000
00100000
00010000
00100000
01000000
00010000
00100000
,  // measure 11
01000000
00000000
00010000
00000000
00001000
00000000
00000010
00000000
00000101
00000000
00000100
00001000
00000000
00000100
00000001
00000000
,  // measure 12
00000010
00000100
00000010
00000100
00001000
00000000
00000010
00000000
00010000
00000000
00001000
00000000
00100000
00000000
01000000
00000000
,  // measure 13
10000000
00100000
00010000
00001000
00010000
01000000
00010000
00001000
,  // measure 14
00000100
00001000
00010000
00001000
00000010
00000001
00000100
00001000
,  // measure 15
00010000
00000000
00100000
00000000
10000000
00000000
01000000
00000000
00110000
00000000
00100000
10000000
00000000
00100000
00010000
00000000
,  // measure 16
01000000
00100000
01000000
00100000
10000000
00000000
01000000
00000000
00100000
00000000
00010000
00000000
00001000
00000000
00000100
00000000
,  // measure 17
00001000
00010000
00100000
00010000
00001000
00000100
00000010
00000001
,  // measure 18
00000100
00000010
00000100
00000010
00001000
00000000
00000001
00000000
00000100
00000000
00000010
00000000
00001000
00000000
00010000
00000000
,  // measure 19
01000000
00000000
00100000
00000000
10000000
00000000
00010000
00000000
00100000
00000000
01000000
00000000
00010000
00001000
00010000
00001000
,  // measure 20
00010000
00001000
00010000
00001000
00022000
00000000
00000000
00000000
00000000
00000000
00000000
00000000
00000000
00000000
00000000
00000000
,  // measure 21
00000000
00000000
00000000
00000000
,  // measure 22
00000000
00000000
00000000
00000000
,  // measure 23
00000000
00000000
00033000
00000000
00010000
00000010
00010000
00001000
00100000
00001000
00000000
00000000
00020000
00000000
02030000
00000000
,  // measure 24
13000000
00100000
01000000
00000000
01010000
00000000
00001000
00000000
00010000
00000000
00001100
00000000
00000000
00000000
00001000
00000000
,  // measure 25
00000100
00000000
00000010
00000000
00000001
00000000
00000000
00000100
00000000
00000000
00000220
00000000
00000330
00000000
00000010
00000000
,  // measure 26
00001000
00000100
00001100
00010000
00001000
01010000
00000000
01000000
,  // measure 27
00100000
00000000
10000000
00010000
01000000
00000000
00000000
00100000
00000000
00000000
10000000
01000000
00100000
00000000
01000000
00000000
,  // measure 28
10000000
00000000
01000000
00010000
00001000
00000000
00100000
00000000
01000000
00000000
11000000
00000000
00000000
00000000
10000000
00000000
,  // measure 29
00100000
00000000
00010000
00000000
00001000
00000000
00000000
00000100
00000000
00000000
00000202
00000000
00000303
00000000
00000001
00000000
,  // measure 30
00001000
00000010
00001010
00010000
00001000
00110000
00000000
00100000
,  // measure 31
01000000
00000000
10000000
00100000
01000000
00000000
00010000
01000000
00100000
00000000
10000000
00100000
01000000
00000000
00010000
01000000
,  // measure 32
00010000
01000000
00001000
00010000
00000100
00000000
00000010
00000000
00000001
00000000
00000101
00000000
00001000
00000000
00000010
00000000
,  // measure 33
00010000
00000000
00001000
00000000
00100000
00000000
00000000
01000000
00000000
00000000
11000000
00000000
10000000
00000000
00100000
00000000
,  // measure 34
01000000
00010000
00110000
00001000
00010000
00001010
00000010
00000100
,  // measure 35
00000001
00000000
00001000
00000100
00000010
00000000
00000000
00000100
00000000
00000000
00001000
00000010
00000001
00000000
00000010
00000000
,  // measure 36
00000100
00000000
00001000
00010000
00001000
00000000
00100000
00000000
01000000
00000000
11000000
00000000
00100000
00000000
01000000
00000000
,  // measure 37
01010000
00000000
00010000
00000000
10000000
00000000
00000000
01000000
00000000
00000000
01100000
00000000
00100000
00000000
00001000
00000000
,  // measure 38
00010000
00000000
00000100
00000000
00001100
00000000
00001000
00000100
00000010
00000000
00000100
00000000
00001000
00000000
00000100
00000000
,  // measure 39
00000101
00000000
00000001
00000100
00001000
00000000
00000100
00010000
00001000
00000000
00010000
00001000
01000000
00000000
00010000
01000000
,  // measure 40
10000000
01000000
10000000
01000000
00200000
00000000
00000000
00000000
20300000
00000000
00000000
00000000
32000000
00000000
00000000
00000000
,  // measure 41
03200000
00000000
00302000
00000000
00023000
00000000
00030100
00000010
,  // measure 42
00000001
00001000
00000020
00000000
00020030
00000000
00032000
00000000
,  // measure 43
00203000
00000000
00000000
00000000
02300000
00000000
00000000
00000000
23000000
00000000
00000000
00000000
30010000
01000000
00010000
01000000
,  // measure 44
00001000
00010000
00001000
00010000
00000200
00000000
00000000
00000000
00000320
00000000
00000000
00000000
00002030
00000000
00000000
00000000
,  // measure 45
00023000
00000000
02030000
00000000
03200000
00000000
00310000
01000000
,  // measure 46
00100000
00010000
00002000
00000000
00003020
00000000
00000032
00000000
,  // measure 47
00002003
00000000
00003200
00000000
00000310
00001000
00010000
00100000
,  // measure 48
01000000
00100000
10200000
00000000
00320000
00000000
00032000
00000000
,  // measure 49
00000000
00000100
00000000
00000000
00023000
00000000
00230000
00000000
,  // measure 50
10300000
12000000
03020000
00032000
,  // measure 51
00000000
00000010
00000000
00000000
00023000
00000000
02030000
00000000
,  // measure 52
13000000
10200000
00320000
00032000
,  // measure 53
00000000
00000001
00000000
00000000
00013000
00010000
00110000
00100000
,  // measure 54
10000000
01000000
01100000
00100000
00001000
00010000
00000100
00000010
,  // measure 55
00000001
00000000
00000100
00000000
00000010
00000000
00001000
00000000
00000100
00000000
00000010
00000000
00000001
00000100
00000001
00000100
,  // measure 56
00000001
00000100
00000001
00000100
00001000
00000000
00010000
00000000
00100000
00000000
20000000
00000000
00000000
00000000
31000000
00000000
,  // measure 57
00100000
00000000
00020000
00000000
01030000
00001000
01000000
00001000
00010000
00000000
00000200
00000000
00000000
00000000
00000310
00000001
,  // measure 58
00000010
00000001
00000010
00000001
00000100
00000000
00001000
00000100
00000010
00000000
00001000
00000100
00000010
00000000
00000001
00000100
,  // measure 59
00000010
00000100
00000010
00010000
00001000
00010000
00001000
00100000
01000000
00000000
20000000
00000000
00000000
00000000
30100000
01000000
,  // measure 60
00010000
00000000
10000000
00000000
01000000
00000000
00100000
00001000
00010000
00000000
00000200
00000000
00000000
00000000
00000310
00000000
,  // measure 61
00000001
00000000
00001000
00000000
00000010
00010000
00001000
00010000
00000010
00000000
00000200
00000000
00000000
00000000
00000301
00000010
,  // measure 62
00000001
00000010
00000001
00000010
00000100
00001000
00000100
00001000
00010000
00000000
00010000
01000000
00010000
01000000
00100000
10000000
,  // measure 63
00100000
10000000
00010000
00100000
01000000
10000000
00100000
00000000
00010000
00000000
00100000
00000000
01000000
00100000
00010000
00001000
,  // measure 64
00000200
00000000
00000002
00000303
00000000
00000022
00000033
00000000
,  // measure 65
00002020
00003030
00000000
00022000
00033000
00000000
02020000
03030000
,  // measure 66
00000000
11000000
20200000
30300000
00000000
02002000
03003000
00000000
,  // measure 67
00020200
00000000
00030300
00000000
00000000
00000000
00000022
00000000
00000033
00000000
00000000
00000000
00001001
00000000
00001000
00000100
,  // measure 68
00000010
00000100
00001000
00000100
00000001
00000000
00000001
00000000
00001000
00000000
00001000
00000000
00010000
00000000
00010000
00000000
,  // measure 69
00001000
00001000
00010000
00010000
10000000
10000000
00010000
00010000
,  // measure 70
00001000
00000000
00001000
00000000
00010000
00001000
00010000
00001000
00000100
00000010
00000100
00000010
00001000
00000001
00001000
00000001
,  // measure 71
00000100
00001000
00000100
00001000
00020000
00000000
00000000
00000000
00000000
00000000
00000000
00000000
00000000
00000000
00000000
00000000
,  // measure 72
00130000
10000000
00100000
10000000
02000000
00000000
03100000
00010000
00100000
00000000
00102000
00000000
00000000
00000000
00103000
00000000
,  // measure 73
00100000
00000000
00001000
00000000
00010000
00000000
00000100
00000010
00000100
00000000
00001000
00000000
00000010
00000100
00000010
00000000
,  // measure 74
00000001
00000010
00000100
00000010
00001000
00000100
00001000
00000100
00000001
00000000
00000100
00000000
00001000
00000100
00001000
00000100
,  // measure 75
00000001
00000000
00000100
00000000
00001000
00000100
00001000
00000000
00000100
00010000
00000100
00000000
00010000
00001000
00010000
00000000
,  // measure 76
00001000
01000000
00001000
01000000
00100000
00000000
10000000
01000000
00100000
00000000
00120000
00000000
00000000
00000000
00130000
00000000
,  // measure 77
01000000
00000000
10000000
00000000
00100000
00000000
00010000
00001000
00010000
00000000
01000000
00000000
00010000
00001000
00010000
00000000
,  // measure 78
00100000
10000000
00100000
10000000
01000000
00100000
00010000
00000000
00100000
00000000
00001000
00010000
00000100
00000000
00001000
00000000
,  // measure 79
00000010
00000100
00000001
00000000
00001000
00000100
00001000
00000100
00000010
00000001
00000200
00000000
00000320
00000000
00010030
00001000
,  // measure 80
00010000
00001000
00100000
01000000
10000000
00000000
00100000
01000000
00010000
00000000
00210000
00000000
00000000
00000000
00301000
00000000
,  // measure 81
00001000
00000000
00010000
00000000
00000100
00000000
00000010
00000001
00000010
00000000
00001000
00000000
00000010
00000001
00000010
00000000
,  // measure 82
00001000
00010000
00001000
00010000
00100000
10000000
01000000
00000000
00100000
01000000
10000000
00000000
00100000
00010000
00001000
00000000
,  // measure 83
00000100
00000001
00000010
00000000
00000100
00001000
00000100
00001000
00000010
00010000
00000010
00010000
00001000
00100000
00001000
00100000
,  // measure 84
00010000
01000000
00010000
01000000
10000000
00000000
01000000
00100000
00010000
00000000
00012000
00000000
00000000
00000000
00003010
00000000
,  // measure 85
00000010
00000000
00000001
00000000
00000100
00000000
00001000
00010000
00001000
00000000
00000010
00000000
00001000
00010000
00001000
00000000
,  // measure 86
00100000
00010000
00100000
00010000
00100000
01000000
10000000
01000000
00010000
00000000
00001000
00000010
00000001
00000010
00000100
00000000
,  // measure 87
00010000
00001000
00010000
00001000
00100000
01000000
00100000
01000000
10000000
00100000
01000000
00010000
00100000
00001000
00010000
00000100
,  // measure 88
00001000
00000010
00000100
00000002
00002000
00000000
00000000
00000000
00000000
00000000
00000000
00000000
00000000
00000000
00000000
00000000
,  // measure 89
00000000
00000000
00000000
00000000
,  // measure 90
00003003
00000120
00000000
00000000
,  // measure 91
00000000
00020030
00000000
00000000
,  // measure 92
00000000
00032000
00000000
00203000
,  // measure 93
00000000
02300000
00000000
23000000
,  // measure 94
00000000
30200000
00320000
00032000
,  // measure 95
00003200
00000302
00000023
00002030
,  // measure 96
00020000
00000000
00000000
00000000
,  // measure 97
00000000
00000000
00000000
00000000
,  // measure 98
00033000
00000000
00000000
00000000
;

//---------------dance-single - ----------------
#NOTEDATA:;
#CHARTNAME:;
#STEPSTYPE:dance-single;
#DESCRIPTION:;
#CHARTSTYLE:;
#DIFFICULTY:Hard;
#METER:15;
#RADARVALUES:0.735832,0.936224,0.374171,0.565237,0.294560,647.000000,600.000000,47.000000,71.000000,0.000000,0.000000,0.000000,0.000000,0.000000,0.735832,0.936224,0.374171,0.565237,0.294560,647.000000,600.000000,47.000000,71.000000,0.000000,0.000000,0.000000,0.000000,0.000000;
#CREDIT:MILEN;
#DISPLAYBPM:190.000000;
#NOTES:
0000
0000
0000
0000
,
0000
0000
0000
0000
,
0000
0000
0000
0000
,
0000
0000
0000
0000
,
0000
0000
0001
0101
0000
1000
1100
0000
,
0001
0101
0000
1000
1100
0000
0000
0000
,
0000
0000
0001
0011
0000
1000
1010
0000
,
0001
0011
0000
1000
1010
0000
0010
0100
,
0001
1000
1001
0001
0100
0010
0100
0001
,
0010
0100
0010
0001
0100
0010
1000
1000
,
0001
0001
1000
0010
0100
0010
1000
0100
,
0010
0100
1000
0010
0100
0001
1000
1000
,
0010
0010
0100
0001
1000
0010
0100
0001
,
0010
0100
0010
0001
1000
0100
0010
0010
,
0001
0001
0100
0010
0100
0001
1000
0010
,
0100
0010
1000
0001
0010
0100
1000
1000
,
0001
0001
1001
1000
0010
0100
0001
0100
,
1000
0100
0001
0100
0010
1000
0100
0100
,
0010
0010
0001
0100
0010
1000
0010
0001
,
0010
0100
0001
0010
0100
1000
0010
0010
,
0100
0100
2002
0000
0000
0000
0000
0000
,
0000
0000
0000
0000
,
0000
0000
0000
0000
,
3003
0000
0000
0000
0001
0100
0001
0000
1000
0200
0000
0000
0310
0000
0010
0000
,
0001
0100
0010
0000
2010
0000
0000
0000
3010
0000
0100
0000
0000
0000
0100
0000
,
0001
0000
0010
0000
0100
0000
0000
0100
0000
0000
0200
0000
0000
0000
1300
0000
,
0010
0100
0102
0000
0103
0010
0000
0010
,
1000
0000
0100
0000
0010
0000
0000
0010
0000
0000
0010
0002
0000
0000
0103
0000
,
0010
1000
2001
0000
3001
0100
0000
0100
,
0010
0000
1000
0000
0001
0000
0000
0001
0000
0000
0002
0000
0000
0000
0013
0000
,
0100
1000
1020
0000
0130
0001
0000
0001
,
0010
0000
0100
1000
0100
0000
0010
0100
0010
0000
0001
0200
0000
0000
0000
0000
,
0310
1000
0010
0000
2010
0000
0000
0000
3100
0000
0010
0000
0000
0000
0010
0000
,
0001
0000
0100
0000
0010
0000
0000
0010
0000
0000
0020
0000
0000
0000
1030
0000
,
0100
0010
0012
0000
0103
0010
0000
0010
,
1000
0000
0001
0000
0010
0000
0000
0010
0000
0000
0010
0200
0000
0000
1300
0000
,
0010
0100
0120
0000
0130
0001
0000
0001
,
1000
0000
0100
0000
0010
0000
0000
0010
0000
0000
0020
0000
0000
0000
0031
0000
,
0100
0010
2010
0000
3001
0100
0000
0100
,
0010
0000
1000
0010
1000
0000
0010
0100
0010
0000
0100
0002
0000
0000
0013
0000
,
0010
0100
1000
0000
0010
0000
0010
0000
0100
0000
0001
0000
0001
0000
0100
0000
,
0010
0010
0100
0001
0002
0000
0000
0000
,
0000
0000
0103
0100
0010
1000
1000
0010
,
0100
0100
0010
1000
2000
0000
0000
0000
,
0000
0000
3100
0100
0010
0001
0001
0010
,
1000
1000
0010
0001
0002
0000
0000
0000
,
0000
0000
0013
0010
0100
1000
1000
0100
,
0001
0001
0100
1000
2000
0000
3010
0100
,
0001
1000
1001
0001
0100
1000
0100
0001
,
1000
0100
0001
0100
1000
0000
0010
0000
,
0100
0000
0001
1000
0010
0001
0010
1000
,
0001
0010
1000
0010
0001
0000
0100
0000
,
0010
0000
1000
0100
0001
0100
1000
0001
,
0010
1000
0010
0001
0100
0000
0010
0000
,
1000
0000
0001
0100
1000
0100
0001
1000
,
0010
0001
0010
1000
0001
0100
0010
1000
,
0100
0010
0001
0100
0010
2000
0000
3100
,
0010
0000
0001
0000
0100
0010
0100
0000
0010
0000
2000
0000
0000
0000
3001
0100
,
0001
0000
0010
0000
0100
0000
0000
0100
1000
0000
0000
1000
0010
0000
0000
0010
,
0100
0001
0100
0001
0100
0000
0010
0000
1000
0000
0002
0000
0000
0000
0013
0100
,
0010
0000
0100
0000
1000
0000
0000
0100
0010
0000
0002
0000
0000
0000
0103
0000
,
0010
0000
1000
0000
0001
0010
0001
0000
0010
0000
0200
0000
0000
0000
1300
0010
,
1000
0000
0010
0000
0100
0001
0100
0000
0010
0000
0000
0010
1000
0000
0000
1000
,
0100
0000
0000
0100
0010
0000
0000
0010
0001
0000
0100
0000
0010
1000
0010
1000
,
0002
0003
0022
0033
0000
0202
0303
0000
,
2200
3300
0000
2020
3030
0000
0220
0330
,
0000
1001
2002
3003
0000
2020
3030
0000
,
2200
3300
0000
0202
0303
0000
0022
0033
,
0001
0010
0100
1000
0010
0000
0100
0000
0001
0000
0100
0000
1000
0000
0100
0000
,
0001
0100
0010
1000
0010
0001
0010
1000
,
0010
0000
0100
0000
0001
0010
0100
0000
1000
0010
0100
0000
0001
0010
0100
0000
,
1000
0010
1000
0010
0200
0000
0000
0000
0000
0000
0000
0000
0000
0000
0000
0000
,
0310
1000
0001
0100
0020
0000
0000
0000
1030
0000
1100
0000
0000
0000
0100
0000
,
0101
0000
0001
0011
0000
0010
1010
0000
,
1000
0000
1001
0000
0001
0100
0010
0000
1000
0000
0001
0010
0100
0000
1000
0000
,
0001
0100
0010
0000
0001
0000
0010
0000
1000
0000
0010
0000
0001
0000
0010
0000
,
0100
0010
2000
0000
3100
0110
0000
0010
,
0011
0000
0001
0101
0000
0100
1100
0000
,
1000
0000
1010
0000
0010
0100
0001
0000
0010
0000
0100
0010
0001
0000
0100
0000
,
0010
1000
0100
0000
0010
0100
0010
0000
0100
0010
0002
0000
2003
0000
3010
0000
,
0010
0100
0010
0100
0002
0000
0000
0000
0013
0000
0110
0000
0000
0000
0100
0000
,
1100
0000
1000
1010
0000
0010
0011
0000
,
0001
0000
0101
0000
0100
0010
1000
0000
0001
0000
0010
0100
1000
0000
0010
0000
,
0001
0010
0100
1000
0100
0001
0010
0100
,
1000
0010
0100
0001
1000
0010
0000
0000
0100
0000
0001
0010
0000
0000
0100
0010
,
0100
0000
0010
0000
0100
1000
0000
0000
0010
0000
0100
0001
0000
0000
1000
0001
,
1000
0000
0010
0000
0100
0001
0000
0000
0010
0000
0100
1000
0000
0000
0010
0000
,
0100
0010
0100
0000
0010
1000
0000
0000
1000
0100
0000
0000
0100
0020
0000
0000
,
0031
0010
0100
2000
0002
0000
0000
0000
0000
0000
0000
0000
0000
0000
0000
0000
,
0000
0000
0000
0000
,
3003
0120
0000
0000
,
0000
0000
0000
0000
,
0000
2030
0000
3200
,
0000
0320
0000
0032
,
0000
0203
2300
3200
,
0320
0032
0023
2030
,
0002
0000
0000
0000
,
0000
0000
0000
0000
,
3003
0000
0000
0000
;

//---------------dance-single - ----------------
#NOTEDATA:;
#CHARTNAME:;
#STEPSTYPE:dance-single;
#DESCRIPTION:;
#CHARTSTYLE:;
#DIFFICULTY:Easy;
#METER:10;
#RADARVALUES:0.367347,0.585140,0.222910,0.095533,0.000000,323.000000,295.000000,28.000000,12.000000,0.000000,0.000000,0.000000,0.000000,0.000000,0.367347,0.585140,0.222910,0.095533,0.000000,323.000000,295.000000,28.000000,12.000000,0.000000,0.000000,0.000000,0.000000,0.000000;
#CREDIT:MILEN;
#DISPLAYBPM:190.000000;
#NOTES:
0000
0000
0000
0000
,
0000
0000
0000
0000
,
0000
0000
0000
0000
,
0000
0000
0000
0000
,
0000
0000
1000
0000
0000
0001
0000
0000
,
1000
0000
0000
1001
0000
0000
0000
0000
,
0000
0000
0001
0000
0000
1000
0000
0000
,
0001
0000
0000
1001
0000
0000
0100
0000
,
0100
0010
1000
0010
,
0100
0010
1000
0010
,
0010
0100
0001
0100
,
0010
0100
0001
0100
,
0100
0010
1000
0010
,
0100
0001
0100
0010
,
0010
1000
0100
1000
,
0001
0010
0001
1000
,
1001
0010
0100
0001
,
0100
1000
0100
0001
,
0100
0010
1000
0010
,
0001
0010
1000
0010
,
0100
2002
0000
0000
,
0000
0000
0000
0000
,
0000
0000
0000
0000
,
3003
0000
0001
1000
0001
0000
0100
0000
,
0100
0010
1000
0100
,
1000
1010
0000
0100
,
0000
0010
1000
0100
,
1000
1010
0000
0100
,
0000
0010
0001
0100
,
0001
0011
0000
0100
,
0000
0010
0001
0100
,
0001
0011
0000
0100
,
0000
0010
1000
0001
,
1000
1001
0000
0100
,
0000
0010
0001
1000
,
0001
1001
0000
0100
,
0000
1000
0001
1000
,
0010
0110
0000
0100
,
0000
0001
1000
0001
,
0010
0110
0000
0100
,
1000
0000
0001
0000
0000
0100
0000
0000
,
0010
0000
0000
1010
0000
0000
0000
0000
,
0000
0000
1000
0000
0000
0100
0000
0000
,
0010
0000
0000
0011
0000
0000
0000
0000
,
0000
0000
0001
0000
0000
0010
0000
0000
,
0100
0000
0000
1100
0000
0000
0000
0000
,
0000
0000
1000
0000
0000
0010
0000
0000
,
0100
0000
0000
0101
0000
0000
0001
0000
,
0001
1000
0100
0010
,
0000
0100
0010
0001
,
0000
0100
0010
1000
,
0000
0010
0100
0001
,
0000
0001
0010
0100
,
0000
0010
0100
1000
,
0000
0001
0100
0010
,
1000
0001
0100
0010
,
1000
0001
1001
0000
,
1001
0100
0100
0000
,
0010
1000
0100
0001
,
0100
1000
0100
0010
,
0001
0100
0010
1001
,
0000
0010
0100
1001
,
0000
0001
0010
1000
,
0010
0001
0010
0100
,
2000
0000
3001
0000
0000
0010
0000
0000
,
1000
0000
0000
0100
0000
0000
0001
0000
,
1001
0000
1000
0000
0000
0010
0000
0000
,
0001
0000
0000
0100
0000
0000
1000
0000
,
1001
0001
0100
0001
,
0100
1000
0010
1000
,
0010
0001
0100
1000
,
0010
0002
0000
0003
,
0100
0010
0100
0000
0001
0000
0100
0000
,
1000
0100
0001
0100
,
1000
0100
0001
0010
,
0100
1000
0010
0110
,
0110
1000
0010
0001
,
0010
1000
0010
0001
,
0010
1000
0100
0010
,
0001
0100
0110
0110
,
0001
1000
0001
0000
0100
0000
1000
0000
,
0001
1000
0010
0001
,
1000
0001
0100
1000
,
0010
0100
0010
1001
,
1001
0000
1000
0010
1000
0000
0001
0000
,
1000
0000
0001
0010
0001
0000
1000
0000
,
0001
0000
1000
0100
1000
0000
0001
0100
,
0001
0000
1000
0010
1000
0010
0100
0001
,
0100
0001
0200
0000
0000
0000
0000
0000
,
0000
0000
0000
0000
,
0300
0020
0000
0000
,
0000
0000
0000
0000
,
0030
2000
0000
0000
,
3000
0002
0000
0000
,
0003
0020
0030
0200
,
0300
1000
0001
0020
,
0200
0000
0000
0000
,
0000
0000
0000
0000
,
0330
0000
0000
0000
;

//---------------dance-single - ----------------
#NOTEDATA:;
#CHARTNAME:;
#STEPSTYPE:dance-single;
#DESCRIPTION:;
#CHARTSTYLE:;
#DIFFICULTY:Medium;
#METER:12;
#RADARVALUES:0.536805,0.702168,0.143300,0.382132,0.000000,472.000000,454.000000,18.000000,48.000000,0.000000,0.000000,0.000000,0.000000,0.000000,0.536805,0.702168,0.143300,0.382132,0.000000,472.000000,454.000000,18.000000,48.000000,0.000000,0.000000,0.000000,0.000000,0.000000;
#CREDIT:MILEN;
#DISPLAYBPM:190.000000;
#NOTES:
0000
0000
0000
0000
,
0000
0000
0000
0000
,
0000
0000
0000
0000
,
0000
0000
0000
0000
,
0000
0000
0001
0100
0000
0010
1000
0000
,
0001
0100
0000
0010
1000
0000
0000
0000
,
0000
0000
1000
0100
0000
0010
0001
0000
,
1000
0100
0000
0010
0001
0000
0100
0010
,
0100
0010
1000
0000
0001
0000
0010
0100
,
0010
0000
0001
0000
1000
0000
0100
0010
,
0100
0000
1000
0000
0001
0000
0010
0100
,
0010
0000
0001
0000
1000
0000
0010
0100
,
0001
1000
0100
0000
0010
0000
0001
0100
,
0001
0000
0010
0000
0100
0000
1000
0010
,
1000
0000
0100
0000
0010
0000
0001
0100
,
0001
0000
0010
0000
0100
0000
1000
0010
,
0100
0001
1000
0000
0100
0000
0010
0100
,
0010
0000
0001
0000
0010
0000
0100
0010
,
0100
0000
1000
0000
0100
0000
0010
0100
,
0010
0000
0001
0000
0010
0000
0100
0010
,
0100
1000
2002
0000
0000
0000
0000
0000
,
0000
0000
0000
0000
,
0000
0000
0000
0000
,
3003
0000
0001
0100
0020
0000
1030
0001
,
0100
0100
0010
0000
0100
0001
0000
0100
,
0010
0000
0100
0000
0010
1000
0000
0010
,
0100
0000
0010
0000
0100
0001
0000
0100
,
1000
0000
0100
0000
0010
1000
0000
0010
,
0001
0000
0010
0000
0100
0001
0000
0010
,
0001
0000
0100
0000
0010
1000
0000
0100
,
1000
0000
0010
0100
0001
0000
0100
0010
,
1000
0000
0001
0010
0100
1000
0010
0100
,
0001
0000
1000
0000
0100
0001
0000
0100
,
0010
0000
0001
0000
0010
1000
0000
0010
,
0100
0000
1000
0000
0010
0001
0000
0010
,
0100
0000
0001
0000
0100
1000
0000
0100
,
0010
0000
1000
0000
0100
0001
0000
1000
,
0010
0000
0001
0000
0010
1000
0000
0001
,
0100
0000
1000
0010
0100
0000
0001
0100
,
0010
0000
1000
0100
0010
0001
0100
0010
,
1000
0001
0010
0000
0100
0000
1000
0000
,
0010
0001
1000
0200
,
0302
0013
0100
1000
,
0001
0010
0100
2000
,
3020
0130
0001
1000
,
0010
0001
1000
0200
,
0320
1030
0001
0010
,
0100
0000
1000
0000
0010
0100
0001
0010
,
0100
1000
1001
0000
0020
0000
0130
0000
,
0001
0010
0200
1300
,
0010
0100
0002
1003
,
0100
0010
0002
0103
,
0010
1000
0002
0013
,
0100
1000
0020
0130
,
0001
1000
0200
0310
,
0001
0100
0020
1030
,
0001
0000
0010
0100
0010
0200
0000
1300
,
0010
1000
0010
0100
0001
0020
0000
0031
,
0100
0010
1000
0010
0100
0010
0001
0010
,
0100
0010
1000
0100
0010
0002
0000
0103
,
0010
1000
0001
0010
0100
2000
0000
3010
,
0100
0001
1000
0100
0010
0002
0000
0103
,
0010
1000
0001
0010
0100
0001
0100
1000
,
0100
0001
0100
0010
0001
0100
0010
1000
,
0002
0000
0103
0000
0000
0110
0000
0000
,
1010
0000
0000
0101
0000
0000
1001
0000
,
0000
0010
0100
0000
0000
1100
0000
0000
,
1010
0000
0000
0101
0000
0000
0011
0000
,
0010
0100
1000
0000
0100
0010
0001
0000
,
1000
0010
0100
0000
0001
0100
0010
0000
,
1000
0001
0010
0100
0001
0100
1000
0010
,
0100
0001
0022
0000
0003
0000
0130
1000
,
1010
0000
0110
0000
0200
0301
0000
0002
,
0013
0000
0020
1030
0000
2000
3100
0000
,
0100
0001
0010
0000
0100
0010
0001
0000
,
1000
0100
0010
0000
0100
1000
0010
0000
,
0100
0001
1000
0100
0020
0031
0000
0002
,
0103
0000
0200
1300
0000
2000
3010
0000
,
0010
0100
1000
1000
0100
0010
0010
0100
,
0001
0001
0100
1000
1000
0100
0010
0001
,
0100
0010
0110
0000
0020
1030
0000
2000
,
3100
0000
0200
0301
0000
0002
0013
0000
,
0010
1000
0100
0000
0010
0100
1000
0000
,
0001
0010
0100
0000
0010
0001
0100
0000
,
1000
0100
0010
1000
0010
0100
0001
0100
,
0110
0000
0010
0001
0010
0100
1000
0100
,
0110
0000
0010
1000
0100
0001
0100
0010
,
0001
0100
1000
1000
0100
0100
0001
0001
,
0010
0010
2002
0000
0000
0000
0000
0000
,
0000
0000
0000
0000
,
3003
0120
0000
0000
,
0000
0000
0000
0000
,
0000
2030
0000
0000
,
0000
3200
0000
0000
,
0000
0320
0000
0032
,
0000
0203
0320
2030
,
0002
0000
0000
0000
,
0000
0000
0000
0000
,
3003
0000
0000
0000
;

//---------------dance-double - ----------------
#NOTEDATA:;
#CHARTNAME:;
#STEPSTYPE:dance-double;
#DESCRIPTION:;
#CHARTSTYLE:;
#DIFFICULTY:Easy;
#METER:9;
#RADARVALUES:0.341189,0.429103,0.175144,0.095533,0.000000,300.000000,278.000000,22.000000,12.000000,0.000000,0.000000,0.000000,0.000000,0.000000,0.341189,0.429103,0.175144,0.095533,0.000000,300.000000,278.000000,22.000000,12.000000,0.000000,0.000000,0.000000,0.000000,0.000000;
#CREDIT:MILEN;
#DISPLAYBPM:190.000000;
#NOTES:
00000000
00000000
00000000
00000000
,
00000000
00000000
00000000
00000000
,
00000000
00000000
00000000
00000000
,
00000000
00000000
00000000
00000000
,
00000000
00000000
00001000
00000000
00000000
00010000
00000000
00000000
,
00001000
00000000
00000000
00011000
00000000
00000000
00000000
00000000
,
00000000
00000000
00010000
00000000
00000000
00001000
00000000
00000000
,
00010000
00000000
00000000
00011000
00000000
00000000
00001000
00000000
,
00010000
00000100
00001000
00000010
,
00001000
00000100
00001000
00000010
,
00010000
00001000
00100000
00010000
,
01000000
00010000
00100000
00010000
,
01000000
00001000
00010000
00000100
,
00001000
00000010
00010000
00001000
,
00100000
00010000
01000000
00001000
,
00010000
00000100
00001000
00000001
,
00001001
00001000
00000100
00010000
,
00001000
00100000
00010000
01000000
,
00001000
00010000
00000100
00001000
,
00000010
00010000
00001000
00100000
,
00010000
20020000
00000000
00000000
,
00000000
00000000
00000000
00000000
,
00000000
00000000
00000000
00000000
,
30030000
00000000
10000000
00010000
10000000
00000000
01000000
00000000
,
01000000
00010000
00001000
00000010
,
00000001
00000101
00000000
00000100
,
00000000
00001000
00010000
00100000
,
10000000
11000000
00000000
01000000
,
00000000
00010000
00001000
00000100
,
00000001
00000011
00000000
00000010
,
00000000
00001000
00010000
01000000
,
10000000
10100000
00000000
00100000
,
00000000
00010000
00001000
00000100
,
00000001
00001001
00000000
00000010
,
00000000
00001000
00010000
00100000
,
10000000
10010000
00000000
01000000
,
00000000
00010000
00001000
00000010
,
00000001
00001001
00000000
00000100
,
00000000
00001000
00010000
01000000
,
10000000
10010000
00000000
01000000
,
10000000
00000000
00010000
00000000
00000000
01000000
00000000
00000000
,
00001000
00000000
00000000
00011000
00000000
00000000
00000000
00000000
,
00000000
00000000
00010000
00000000
00000000
00000100
00000000
00000000
,
00001000
00000000
00000000
00001001
00000000
00000000
00000000
00000000
,
00000000
00000000
00001000
00000000
00000000
00000010
00000000
00000000
,
00010000
00000000
00000000
00011000
00000000
00000000
00000000
00000000
,
00000000
00000000
00001000
00000000
00000000
00100000
00000000
00000000
,
00010000
00000000
00000000
10010000
00000000
00000000
10000000
00000000
,
10000000
01000000
00000000
00010000
,
00000000
00001000
00000000
00000010
,
00000000
00000001
00000000
00000100
,
00000000
00001000
00000000
00010000
,
00000000
00100000
00000000
10000000
,
00000000
01000000
00000000
00010000
,
00000000
00001000
00000000
00000100
,
00000000
00000001
00000010
00000000
,
00001000
00010000
00011000
00000000
,
00011000
00010000
00001000
00000000
,
00010000
00000010
00001000
00000010
,
00010000
00000010
00001000
00000100
,
00010000
00001000
00100000
01000000
,
00000000
00010000
00001000
00000100
,
00000000
00000001
00000010
00000100
,
00000010
00000001
00000010
00000100
,
00020000
00000000
00031000
00000000
00000000
00010000
00000000
00000000
,
00001000
00000000
00000000
00010000
00000000
00000000
00001000
00000000
,
00011000
00000000
00010000
00000000
00000000
00001000
00000000
00000000
,
00010000
00000000
00000000
00001000
00000000
00000000
00010000
00000000
,
00011000
00001000
00100000
00001000
,
00100000
00000010
00010000
00000010
,
00010000
00001000
01000000
00000100
,
00010000
00002000
00000000
00003000
,
00010000
00001000
00010000
00000000
00001000
00000000
00000010
00000000
,
00000001
00000010
00001000
00000010
,
00000001
00000010
00001000
00010000
,
01000000
10000000
00100000
00010000
,
00011000
00001000
00010000
01000000
,
10000000
01000000
00010000
01000000
,
10000000
01000000
00010000
00001000
,
00000010
00000001
00000100
00001000
,
00010000
00001000
00010000
00000000
00100000
00000000
10000000
00000000
,
01000000
00010000
00001000
00000010
,
00000001
00000100
00001000
00010000
,
00100000
10000000
01000000
00010000
,
00011000
00001000
00000100
00001000
,
00010000
01000000
00010000
00001000
,
00000010
00001000
00010000
00100000
,
00010000
00001000
00000010
00000001
,
00000100
00002000
00000000
00000000
,
00000000
00000000
00000000
00000000
,
00003000
00020000
00000000
00000000
,
00000000
00000000
00000000
00000000
,
00030000
00200000
00000000
00000000
,
00300000
20000000
00000000
00000000
,
30000000
02000000
03000000
00200000
,
00300000
00001000
00010000
00000200
,
00000020
00000000
00000000
00000000
,
00000000
00000000
00000000
00000000
,
00000330
00000000
00000000
00000000
;

//---------------dance-double - ----------------
#NOTEDATA:;
#CHARTNAME:;
#STEPSTYPE:dance-double;
#DESCRIPTION:;
#CHARTSTYLE:;
#DIFFICULTY:Medium;
#METER:12;
#RADARVALUES:0.512921,0.702168,0.127377,0.286599,0.000000,451.000000,435.000000,16.000000,36.000000,0.000000,0.000000,0.000000,0.000000,0.000000,0.512921,0.702168,0.127377,0.286599,0.000000,451.000000,435.000000,16.000000,36.000000,0.000000,0.000000,0.000000,0.000000,0.000000;
#CREDIT:MILEN;
#DISPLAYBPM:190.000000;
#NOTES:
00000000
00000000
00000000
00000000
,
00000000
00000000
00000000
00000000
,
00000000
00000000
00000000
00000000
,
00000000
00000000
00000000
00000000
,
00000000
00000000
00001000
01000000
00000000
00001000
00010000
00000000
,
00001000
00100000
00000000
00001000
00010000
00000000
00000000
00000000
,
00000000
00000000
00010000
00000010
00000000
00010000
00001000
00000000
,
00010000
00000100
00000000
00010000
00001000
00000000
00001000
00010000
,
00001000
00010000
00001000
00000000
00010000
00000000
01000000
00000000
,
10000000
00100000
00010000
00001000
,
00010000
00001000
00000100
00000001
,
00000010
00000000
00001000
00000000
00010000
00000000
00001000
00010000
,
00001000
00010000
00001000
00000000
00010000
00000000
00100000
00000000
,
10000000
01000000
00010000
00001000
,
00010000
00001000
00000010
00000001
,
00000100
00000000
00001000
00000000
00010000
00000000
00001000
00010000
,
00001000
00010000
00001000
00000000
00010000
00000000
00001000
00000000
,
00000010
00001000
00010000
00100000
,
00010000
00001000
00000100
00001000
,
00010000
00000000
01000000
00000000
00010000
00000000
00001000
00010000
,
00001000
00010000
00022000
00000000
00000000
00000000
00000000
00000000
,
00000000
00000000
00000000
00000000
,
00000000
00000000
00000000
00000000
,
00033000
00000000
00001000
00010000
00200000
00000000
10300000
01000000
,
00100000
00100000
00010000
00000000
01000000
00001000
00000000
00001000
,
00010000
00000000
00000100
00000000
00001000
00000010
00000000
00000010
,
00000100
00000000
00000001
00000000
00001000
00000100
00000000
00000100
,
00000010
00000000
00000001
00000000
00000100
00001000
00000000
00001000
,
00010000
00000000
00100000
00000000
10000000
01000000
00000000
01000000
,
00100000
00000000
00010000
00000000
01000000
00001000
00000000
00001000
,
00010000
00000000
00000100
00001000
00000010
00000000
00000100
00000001
,
00000010
00000000
00000100
00001000
00000010
00010000
00001000
00100000
,
00010000
00000000
01000000
00000000
00100000
10000000
00000000
10000000
,
01000000
00000000
00010000
00000000
00001000
00100000
00000000
00100000
,
01000000
00000000
00010000
00000000
00001000
00000010
00000000
00000010
,
00000001
00000000
00000100
00000000
00000010
00010000
00000000
00010000
,
00001000
00000000
00100000
00000000
01000000
10000000
00000000
10000000
,
00100000
00000000
01000000
00000000
00010000
00100000
00000000
00100000
,
00001000
00000000
00010000
00000100
00001000
00000000
00000100
00010000
,
00001000
00000000
00100000
00010000
00100000
01000000
10000000
00100000
,
01000000
00010000
10000000
00000000
01000000
00000000
00100000
00000000
,
00010000
01000000
00001000
00020000
,
00030200
00000310
00000001
00001000
,
00000010
00010000
00001000
00200000
,
02300000
13000000
00100000
00010000
,
00001000
00000100
00000001
00000020
,
00000230
00001300
00000010
00010000
,
00001000
00000000
00100000
00000000
01000000
10000000
00100000
00010000
,
00001000
00010000
00011000
00000000
00200000
00000000
01300000
00000000
,
10000000
00100000
00020000
00031000
,
00000100
00000001
00000020
00000130
,
00001000
00000010
00020000
00031000
,
00100000
00010000
20000000
31000000
,
00100000
00001000
00020000
00030100
,
00000010
00000001
00000200
00000310
,
00010000
00001000
00200000
01300000
,
10000000
00000000
00100000
01000000
00100000
02000000
00000000
03001000
,
00010000
00001000
00010000
00001000
00010000
00000200
00000000
00001300
,
00000010
00001000
00000001
00000000
00000100
00000000
00001000
00000000
,
00010000
00100000
00010000
00100000
10000000
02000000
00000000
03100000
,
00010000
00100000
00010000
00100000
00001000
00020000
00000000
00030010
,
00001000
00000010
00001000
00000010
00000100
00000002
00000000
00001003
,
00000100
00000010
00000001
00000000
00000010
00000000
00001000
00000000
,
00010000
00000000
00100000
10000000
00100000
10000000
01000000
00100000
,
00020000
00000000
01030000
00000000
00000000
01001000
00000000
00000000
,
00011000
00000000
00000000
00010100
00000000
00000000
00001100
00000000
,
00000000
00001000
00000010
00000000
00000000
00010010
00000000
00000000
,
00011000
00000000
00000000
00101000
00000000
00000000
00110000
00000000
,
00100000
01000000
10000000
00000000
01000000
00100000
00010000
00000000
,
00100000
00001000
00010000
00000000
00000010
00010000
00001000
00000000
,
00100000
00010000
01000000
00001000
00010000
00000100
00001000
00000010
,
00000100
00000001
00002002
00000000
00000003
00000000
00003100
00010000
,
00011000
00000000
01001000
00000000
01000000
00010000
00000000
00010000
,
10000000
00000000
10000000
00100000
00000000
00100000
01000000
00000000
,
01000000
00010000
00100000
00000000
00100000
01000000
00010000
00000000
,
00010000
00001000
00000010
00000000
00000010
00000001
00000100
00000000
,
00000100
00000010
00001000
00000001
00000100
00001000
00000000
00001000
,
00010000
00000000
00010000
01000000
00000000
01000000
10000000
00000000
,
10000000
00100000
01000000
00000000
10000000
01000000
00010000
00000000
,
00100000
01000000
00010000
00000000
00001000
00000010
00000001
00000100
,
00000010
00001000
00001001
00000000
00000001
00000100
00000000
00000100
,
00000010
00000000
00000010
00010000
00000000
00010000
00001000
00000000
,
00001000
00100000
01000000
00000000
01000000
10000000
00100000
00000000
,
00100000
00010000
00001000
00000000
00001000
00000100
00000010
00000000
,
00000010
00001000
00000010
00000100
00000001
00000010
00000100
00010000
,
00001000
00000000
00100000
01000000
10000000
00100000
01000000
00001000
,
00010000
00000000
00000100
00000010
00000001
00001000
00000100
00010000
,
00001000
00100000
00010000
10000000
01000000
00100000
00001000
00010000
,
00000100
00000010
00002002
00000000
00000000
00000000
00000000
00000000
,
00000000
00000000
00000000
00000000
,
00003003
00000210
00000000
00000000
,
00000000
00000000
00000000
00000000
,
00000000
00002300
00000000
00000000
,
00000000
00023000
00000000
00000000
,
00000000
00230000
00000000
20300000
,
00000000
32000000
03200000
00302000
,
00020000
00000000
00000000
00000000
,
00000000
00000000
00000000
00000000
,
00033000
00000000
00000000
00000000
;

//---------------dance-double - ----------------
#NOTEDATA:;
#CHARTNAME:;
#STEPSTYPE:dance-double;
#DESCRIPTION:;
#CHARTSTYLE:;
#DIFFICULTY:Hard;
#METER:15;
#RADARVALUES:0.696026,0.936224,0.222910,0.748342,0.270677,612.000000,584.000000,28.000000,94.000000,0.000000,0.000000,0.000000,0.000000,0.000000,0.696026,0.936224,0.222910,0.748342,0.270677,612.000000,584.000000,28.000000,94.000000,0.000000,0.000000,0.000000,0.000000,0.000000;
#CREDIT:MILEN;
#DISPLAYBPM:190.000000;
#NOTES:
00000000
00000000
00000000
00000000
,
00000000
00000000
00000000
00000000
,
00000000
00000000
00000000
00000000
,
00000000
00000000
00000000
00000000
,
00000000
00000000
00002000
00013000
00000000
00020000
01030000
00000000
,
02000000
13000000
00000000
20000000
30100000
00000000
00000000
00000000
,
00000000
00000000
00020000
00031000
00000000
00002000
00003100
00000000
,
00000200
00000301
00000000
00000002
00000013
00000000
00001000
00010000
,
00001000
00010000
00011000
00001000
00100000
01000000
10000000
00010000
,
00100000
01000000
00010000
00001000
00000010
00000100
00001000
00000000
,
00000001
00000000
00001001
00001000
00000100
00000010
00001000
00010000
,
01000000
00100000
00010000
10000000
00100000
01000000
00010000
00000000
,
10000000
00000000
10010000
00010000
00100000
01000000
00010000
00001000
,
00000010
00000100
00001000
00000001
00000100
00000010
00001000
00000000
,
00000001
00000000
00001001
00001000
00000100
00010000
00001000
00100000
,
00010000
10000000
01000000
00100000
00001000
00010000
00000100
00000000
,
00000010
00000010
00001001
00001000
00000100
00000001
00000100
00000010
,
00000001
00000100
00001000
00010000
00100000
10000000
01000000
00000000
,
00100000
00000000
10010000
00010000
00100000
10000000
00100000
01000000
,
10000000
00100000
00010000
00001000
00000100
00000001
00000010
00000000
,
00000100
00000100
00002002
00000000
00000000
00000000
00000000
00000000
,
00000000
00000000
00000000
00000000
,
00000000
00000000
00000000
00000000
,
00003003
00000000
00000000
00000000
00001000
00000010
00001000
00000000
00000100
00020000
00000000
00000000
00031000
00000000
00001000
00000000
,
00100000
00010000
01000000
00000000
01200000
00000000
00000000
00000000
01300000
00000000
00010000
00000000
00000000
00000000
10000000
00000000
,
01000000
00000000
00100000
00000000
00010000
00000000
00000000
01000000
00000000
00000000
00002000
00000000
00000000
00000000
00013000
00000000
,
00000100
00001000
00001020
00000000
00001030
00000001
00000000
00000001
,
00000100
00000000
00000010
00000000
00010000
00000000
00000000
00001000
00000000
00000000
00100000
00020000
00000000
00000000
01030000
00000000
,
00100000
10000000
10200000
00000000
10300000
01000000
00000000
01000000
,
00100000
00000000
00001000
00000000
00010000
00000000
00000000
00000100
00000000
00000000
00000020
00000000
00000000
00000000
00000031
00000000
,
00000100
00000010
00020010
00000000
00030010
00001000
00000000
00001000
,
00000100
00000000
00010000
00000000
00001000
00000000
00100000
00000000
01000000
00000000
10000000
00200000
00000000
00000000
00000000
00000000
,
01300000
00010000
01000000
00000000
01002000
00000000
00000000
00000000
01003000
00000000
00010000
00000000
00000000
00000000
00010000
00000000
,
00100000
00000000
01000000
00000000
00010000
00000000
00000000
00001000
00000000
00000000
00000020
00000000
00000000
00000000
00000031
00000000
,
00001000
00000010
00000210
00000000
00000310
00001000
00000000
00001000
,
00000100
00000000
00000010
00000000
00000001
00000000
00000000
00000100
00000000
00000000
00001000
00020000
00000000
00000000
00130000
00000000
,
10000000
01000000
21000000
00000000
31000000
00100000
00000000
00100000
,
00001000
00000000
00010000
00000000
00100000
00000000
00000000
00001000
00000000
00000000
00000020
00000000
00000000
00000000
00000130
00000000
,
00000001
00001000
00001020
00000000
00001030
00000100
00000000
00000100
,
00000010
00000000
00000001
00000000
00000100
00000000
00001000
00000000
00010000
00000000
00100000
20000000
00000000
00000000
31000000
00000000
,
01000000
00100000
01000000
00000000
00100000
00000000
00100000
00000000
00001000
00000000
00010000
00000000
00010000
00000000
01000000
00000000
,
00100000
00100000
00001000
00010000
00020000
00000000
00000000
00000000
,
00000000
00000000
00030100
00000100
00000010
00001000
00001000
00010000
,
00000100
00000100
00000010
00001000
00002000
00000000
00000000
00000000
,
00000000
00000000
01003000
01000000
00100000
00010000
00010000
00001000
,
01000000
01000000
00100000
00010000
00020000
00000000
00000000
00000000
,
00000000
00000000
00030010
00000010
00000100
00001000
00001000
00010000
,
00000010
00000010
00000100
00001000
00002000
00000000
00013000
00100000
,
10000000
01000000
01100000
00100000
00010000
01000000
00001000
00010000
,
00001000
01000000
00010000
01000000
00001000
00000000
00010000
00000000
,
00000100
00000000
00001000
00000010
00010000
00001000
00010000
00000010
,
00001000
00000010
00010000
00001000
00000100
00000000
00000001
00000000
,
00001000
00000000
00000100
00000010
00000001
00000100
00001000
00010000
,
00100000
10000000
01000000
00100000
10000000
00000000
00100000
00000000
,
00010000
00000000
01000000
00100000
00010000
00001000
00010000
01000000
,
00010000
00001000
00000010
00001000
00010000
00001000
00000100
00000001
,
00000010
00000100
00000001
00000100
00001000
00000020
00000000
00010030
,
00001000
00000000
00100000
00000000
01000000
10000000
01000000
00000000
00100000
00000000
02000000
00000000
00000000
00000000
13000000
00100000
,
10000000
00000000
01000000
00000000
00100000
00000000
00000000
00100000
00001000
00000000
00000000
00001000
00010000
00000000
00000000
00010000
,
00000100
00000000
00001000
00000100
00000010
00000000
00000001
00000000
00000100
00000000
00000020
00000000
00000000
00000000
00010030
00001000
,
00010000
00000000
00100000
00000000
01000000
00000000
00000000
00100000
10000000
00000000
02000000
00000000
00000000
00000000
03100000
00000000
,
00100000
00000000
00001000
00000000
00010000
00000100
00010000
00000000
00001000
00000000
00000020
00000000
00000000
00000000
00000031
00000100
,
00000001
00000000
00001000
00000000
00000100
00000010
00000100
00000000
00001000
00000000
00000000
00001000
00000010
00000000
00000000
00000010
,
00010000
00000000
00000000
00010000
00001000
00000000
00000000
00001000
00100000
00000000
00100000
00000000
01000000
10000000
01000000
10000000
,
02000000
03000000
20020000
30030000
00000000
00220000
00330000
00000000
,
00022000
00033000
00000000
00002020
00003030
00000000
00002002
00003003
,
00000000
00000110
00000220
00000330
00000000
00020020
00030030
00000000
,
00202000
00303000
00000000
00020200
00030300
00000000
02002000
03003000
,
01000000
00010000
01000000
00100000
10000000
00000000
01000000
00000000
00010000
00000000
01000000
00000000
10000000
00000000
01000000
00000000
,
00010000
00001000
00000010
00000001
00000010
00001000
00000010
00000001
,
00000010
00000000
00001000
00000000
00010000
00000100
00010000
00000000
00001000
01000000
00001000
00000000
00010000
00000010
00010000
00000000
,
00001000
00100000
00001000
00100000
02000000
00000000
00000000
00000000
00000000
00000000
00000000
00000000
00000000
00000000
00000000
00000000
,
13000000
00100000
01000000
00010000
00200000
00000000
00000000
00000000
00302000
00000000
00013000
00000000
00000000
00000000
00020000
00000000
,
00030100
00000000
00000200
00000310
00000000
00000020
00000031
00000000
,
00000002
00000000
00000103
00000000
00000100
00000010
00001000
00000000
00000001
00000000
00000010
00000100
00001000
00000000
00000001
00000000
,
00000100
00000010
00001000
00000000
00000100
00000000
00010000
00000000
00000100
00000000
00001000
00000000
00000100
00000000
00010000
00000000
,
00000100
00000010
00000002
00000000
00000203
00001300
00000000
00002000
,
00013000
00000000
00020000
01030000
00000000
02000000
13000000
00000000
,
20000000
00000000
30100000
00000000
00100000
01000000
00010000
00000000
00100000
00000000
01000000
00100000
00010000
00000000
01000000
00000000
,
00100000
10000000
01000000
00000000
00100000
00001000
00010000
00000000
00001000
00010000
00000200
00000000
00000320
00000000
00000031
00000000
,
00000001
00000100
00000001
00000100
00000002
00000000
00000000
00000000
00002003
00000000
00003010
00000000
00000000
00000000
00000020
00000000
,
00010030
00000000
00020000
00031000
00000000
00002000
00103000
00000000
,
00200000
00000000
01300000
00000000
01000000
10000000
01000000
00000000
00100000
00000000
00001000
00010000
00001000
00000000
00100000
00000000
,
01000000
10000000
00100000
00010000
00001000
00000100
00000001
00000010
,
00000100
00000010
00000100
00000000
00000010
00000001
00000000
00000000
00000100
00000000
00001000
00010000
00000000
00000000
00100000
10000000
,
00100000
00000000
10000000
00000000
01000000
00010000
00000000
00000000
00001000
00000000
00000010
00000001
00000000
00000000
00000100
00000001
,
00000100
00000000
00001000
00000000
00010000
01000000
00000000
00000000
00010000
00000000
00001000
00000100
00000000
00000000
00001000
00000000
,
00010000
00100000
00010000
00000000
00001000
00010000
00000000
00000000
00010000
01000000
00000000
00000000
01000000
20000000
00000000
00000000
,
30100000
00010000
00001000
00020000
00002000
00000000
00000000
00000000
00000000
00000000
00000000
00000000
00000000
00000000
00000000
00000000
,
00000000
00000000
00000000
00000000
,
00033000
00012000
00000000
00000000
,
00000000
00000000
00000000
00000000
,
00000000
00203000
00000000
02300000
,
00000000
03020000
00000000
00032000
,
00000000
00003020
00000032
00000203
,
00002300
00023000
00230000
20300000
,
00020000
00000000
00000000
00000000
,
00000000
00000000
00000000
00000000
,
30030000
00000000
00000000
00000000
;
