#VERSION:0.83;
#TITLE:Hey (Rock ver.);
#SUBTITLE:;
#ARTIST:Lee Ji Eun;
#TITLETRANSLIT:;
#SUBTITLETRANSLIT:;
#ARTISTTRANSLIT:;
#GENRE:K-POP;
#ORIGIN:;
#CREDIT:MILEN;
#BANNER:Hey (Rock ver.).png;
#BACKGROUND:Hey (Rock ver.)-bg.png;
#PREVIEWVID:;
#JACKET:Hey (Rock ver.)-jacket.png;
#CDIMAGE:;
#DISCIMAGE:;
#LYRICSPATH:;
#CDTITLE:;
#MUSIC:Hey (Rock ver.).ogg;
#OFFSET:-0.050000;
#SAMPLESTART:41.647224;
#SAMPLELENGTH:12.759148;
#SELECTABLE:YES;
#DISPLAYBPM:150.000000;
#BPMS:0.000=150.010;
#STOPS:;
#DELAYS:;
#WARPS:;
#TIMESIGNATURES:0.000=4=4;
#TICKCOUNTS:0.000=4;
#COMBOS:0.000=1;
#SPEEDS:0.000=1.000=0.000=0;
#SCROLLS:0.000=1.000;
#FAKES:;
#LABELS:0.000=Song Start;
#BGCHANGES:;
#KEYSOUNDS:;
#ATTACKS:
;

//---------------dance-single - ----------------
#NOTEDATA:;
#CHARTNAME:;
#STEPSTYPE:dance-single;
#DESCRIPTION:;
#CHARTSTYLE:;
#DIFFICULTY:Beginner;
#METER:4;
#RADARVALUES:0.160244,0.243036,0.050987,0.042489,0.000000,132.000000,126.000000,6.000000,5.000000,0.000000,0.000000,0.000000,0.000000,0.000000,0.160244,0.243036,0.050987,0.042489,0.000000,132.000000,126.000000,6.000000,5.000000,0.000000,0.000000,0.000000,0.000000,0.000000;
#CREDIT:MILEN;
#DISPLAYBPM:150.000000;
#NOTES:
0000
0000
0000
0000
,
0000
0000
0000
0000
,
0000
0000
0000
0000
,
0000
0000
0000
0000
,
0000
0000
0000
0000
,
0000
0000
1000
0000
,
1000
0000
0001
0000
,
0001
0000
1000
0000
,
0001
0000
1001
0000
,
0000
0000
0010
0000
,
0010
0000
1000
0000
,
1000
0000
0001
0000
,
0001
0000
0100
0000
,
0100
0000
0010
0000
,
0010
0000
1000
0000
,
1000
0000
0001
0000
,
0001
0000
0100
0000
,
0100
0000
0010
0000
,
1000
0000
0010
0000
,
0010
0000
0100
0000
,
0001
0000
0100
0000
,
0100
0000
0001
0000
,
0010
0000
0001
0000
,
0001
0000
1000
0000
,
0100
0000
1000
0000
,
1000
0000
1001
0000
,
0010
0010
0010
0000
,
0100
0100
0100
0000
,
0010
0010
0010
0000
,
1000
0000
0001
0000
,
0100
0000
1000
0000
,
0010
0000
0001
0000
,
0100
0000
1000
0000
,
0010
0000
0001
0000
,
1000
0000
1001
0000
,
0000
0000
0001
0000
,
0000
0000
1000
0000
,
0000
0000
0001
0000
,
1000
0000
0010
0000
,
0000
0000
0100
0000
,
0000
0000
0010
0000
,
0100
0000
1001
0000
,
0000
0000
1001
0000
,
0000
0000
2000
0000
,
3000
0000
0002
0000
,
0003
0000
0200
0000
,
0300
0000
0020
0000
,
0030
0000
1000
0000
,
0001
0000
0100
0000
,
0010
0000
1000
0000
,
0100
0000
0010
0000
,
0001
0001
0001
0000
,
1000
1000
1000
0000
,
0001
0001
0001
0000
,
0100
0000
0010
0000
,
1000
0000
0100
0000
,
0001
0000
0010
0000
,
1000
0000
0100
0000
,
0010
0000
0001
0000
,
1000
0000
0010
0000
,
0001
0000
0100
0000
,
1000
0000
0010
0000
,
0100
0000
1001
0000
,
0000
0000
1000
0000
,
1000
0000
0001
0000
,
0001
0000
1000
0000
,
0001
0000
0100
0100
,
0100
0000
0100
0100
,
0100
0000
0100
0100
,
0100
0100
0020
0000
,
0000
0000
0000
0000
,
0000
0000
0030
0000
;

//---------------dance-single - ----------------
#NOTEDATA:;
#CHARTNAME:;
#STEPSTYPE:dance-single;
#DESCRIPTION:;
#CHARTSTYLE:;
#DIFFICULTY:Easy;
#METER:6;
#RADARVALUES:0.267073,0.365829,0.195449,0.067982,0.000000,220.000000,197.000000,23.000000,8.000000,0.000000,0.000000,0.000000,0.000000,0.000000,0.267073,0.365829,0.195449,0.067982,0.000000,220.000000,197.000000,23.000000,8.000000,0.000000,0.000000,0.000000,0.000000,0.000000;
#CREDIT:MILEN;
#DISPLAYBPM:150.000000;
#NOTES:
0000
0000
0000
0000
,
0000
0000
0000
0000
,
0000
0000
0000
0000
,
0000
0000
0000
0000
,
0000
0000
0000
0000
,
0000
0000
1000
0001
,
1000
0000
0001
1000
,
0001
0000
1000
0001
,
1000
0001
1001
0000
,
0000
0000
0100
0010
,
0100
0000
0010
1000
,
0010
0000
1000
0001
,
1000
0000
0001
0100
,
0001
0000
0100
0010
,
1000
0000
0010
0100
,
0001
0000
1000
0100
,
0010
0000
0001
0010
,
0100
0000
1000
0001
,
1001
0000
0100
0010
,
0100
0100
0001
1000
,
1001
0000
0010
0100
,
0010
0010
1000
0001
,
1001
0000
0100
0010
,
0100
0100
0001
1000
,
0010
0100
0002
0000
,
0000
0003
2000
3000
,
0010
0100
0110
0000
,
0100
0010
0110
0000
,
0100
0001
1000
0010
,
0100
0010
2000
3001
,
0000
0001
0001
0100
,
0100
1000
1000
0010
,
0010
0001
1000
0001
,
0100
0010
0100
0000
,
0110
0000
1001
0000
,
0000
0000
1000
0000
,
0000
0000
0001
0000
,
0000
0000
0100
0000
,
0010
0000
0100
0000
,
0000
0000
0010
0000
,
0100
0000
0010
0000
,
1000
0001
1001
0100
,
0010
0100
0110
0010
,
1000
0001
0200
0300
,
0010
1000
0100
0010
,
0001
0000
0200
0300
,
0010
1000
0100
0010
,
0001
0100
0110
1000
,
0100
0000
0110
0001
,
0100
0000
0110
0010
,
1000
0100
0110
0010
,
0001
1000
1001
0000
,
1000
0001
1001
0000
,
1000
0100
0010
0001
,
1000
0001
0020
0130
,
0000
0100
0100
1000
,
1000
0010
0010
0001
,
0001
0100
0010
0100
,
1000
0001
1001
0000
,
0110
0000
0100
0100
,
0001
0001
0010
0010
,
1000
1000
0100
0010
,
0100
0001
1001
0000
,
0110
0000
1000
0000
,
0010
0000
0001
0000
,
0100
0000
1000
0000
,
0010
0000
0001
0001
,
1000
0001
0110
1000
,
0001
1000
0110
0001
,
1000
0001
2002
0000
,
0000
0000
0000
0000
,
0000
0000
0000
3003
;

//---------------dance-single - ----------------
#NOTEDATA:;
#CHARTNAME:;
#STEPSTYPE:dance-single;
#DESCRIPTION:;
#CHARTSTYLE:;
#DIFFICULTY:Medium;
#METER:9;
#RADARVALUES:0.343553,0.456489,0.152960,0.297422,0.000000,283.000000,265.000000,18.000000,35.000000,0.000000,0.000000,0.000000,0.000000,0.000000,0.343553,0.456489,0.152960,0.297422,0.000000,283.000000,265.000000,18.000000,35.000000,0.000000,0.000000,0.000000,0.000000,0.000000;
#CREDIT:MILEN;
#DISPLAYBPM:150.000000;
#NOTES:
0000
0000
0000
0000
,
0000
0000
0000
0000
,
0000
0000
0000
0000
,
0000
0000
0000
0000
,
0000
0000
0000
0000
,
0000
0000
1000
0100
,
0010
0001
1000
0010
,
0100
0001
0010
0100
,
1000
0000
0001
1001
0000
0000
0000
0000
,
0000
0010
0010
0000
0100
0000
0001
0000
,
0010
0001
0100
0010
,
1000
0100
1000
0010
,
0100
0001
1000
0100
,
0010
0100
0000
0100
0010
0000
0001
0000
,
0100
0001
0010
0100
,
1000
0010
1000
0100
,
0010
0001
1000
0010
,
0100
0010
0000
0010
0100
0000
0001
0000
,
0011
0000
0000
0010
0000
0001
0000
0100
,
0100
0010
0010
1000
,
1100
0000
0000
0100
0000
1000
0000
0010
,
0010
0100
0100
0001
,
1001
0000
0000
1000
0000
0010
0000
0100
,
0100
0001
2000
3010
,
0002
0000
0103
0100
0000
0000
1000
0000
,
0001
0000
0100
0010
0000
0100
0010
0000
,
1000
0001
1000
0000
0001
0000
0110
0000
,
1000
0000
1000
0110
,
0001
0000
0001
0100
,
1000
0000
0010
0000
0001
1000
0001
0000
,
1001
2000
3010
0020
,
0130
0200
0301
0002
,
1003
2000
3100
0200
,
0310
0020
0031
1001
,
1000
0100
0010
0000
0200
0000
0000
0000
,
0300
0000
2000
0000
,
3000
0000
0020
0000
,
0030
0000
0002
0003
,
0200
0300
2000
0000
,
3000
0000
0002
0000
,
0003
0000
0200
0300
,
0020
0000
0130
0100
0000
0001
1000
0001
,
1000
0001
1000
0001
0000
1000
0001
1000
,
0001
1000
0002
0000
1003
0000
1000
0000
,
0100
0010
0001
0100
,
0010
1000
0010
0000
0100
0000
0001
0000
,
0010
0100
1000
0010
,
0100
0001
0100
0000
0010
0000
1000
0000
,
1100
0100
0010
0001
,
0011
0000
0010
0000
0100
1000
0100
0000
,
0010
0001
0010
0000
0100
0010
0100
0000
,
1000
0001
1000
0000
0001
0000
1100
0000
,
0010
0000
1000
0011
,
0100
0000
0001
0010
,
1000
0000
0100
0000
0001
1000
0001
0000
,
1001
2000
3100
0200
,
0310
0020
0031
0002
,
1003
2000
3010
0020
,
0130
0200
0001
1000
,
0301
0010
0100
0000
2000
0000
3010
0000
,
0200
0301
0020
0130
,
2000
3001
0200
0310
,
0002
0103
0020
1030
,
1000
0100
0010
0001
0100
0000
0110
0000
,
1000
0001
1000
0000
0010
0000
0110
0000
,
0001
1000
0001
0000
0100
0000
0110
0000
,
1000
0001
0000
0001
0000
0001
0100
0010
,
1000
1000
0000
1000
0000
0001
0010
0100
,
1000
1000
0000
1000
0000
0001
0100
0010
,
1000
1000
0000
2002
0000
0000
0000
0000
,
0000
0000
0000
0000
,
0000
0000
0000
3003
0000
0110
0000
0000
;

//---------------dance-single - ----------------
#NOTEDATA:;
#CHARTNAME:;
#STEPSTYPE:dance-single;
#DESCRIPTION:;
#CHARTSTYLE:;
#DIFFICULTY:Hard;
#METER:11;
#RADARVALUES:0.474661,0.547787,0.424888,0.271928,0.000000,391.000000,341.000000,50.000000,32.000000,0.000000,0.000000,0.000000,0.000000,0.000000,0.474661,0.547787,0.424888,0.271928,0.000000,391.000000,341.000000,50.000000,32.000000,0.000000,0.000000,0.000000,0.000000,0.000000;
#CREDIT:MILEN;
#DISPLAYBPM:150.000000;
#NOTES:
0000
0000
0000
0000
,
0000
0000
0000
0000
,
0000
0000
0000
0000
,
0000
0000
0000
0000
,
0000
0000
0000
0000
,
0000
0000
0000
0000
1000
0100
1000
0001
,
1000
0100
1000
1000
0000
0001
0010
0001
,
1000
0001
0010
0001
0000
0001
0100
0010
,
1000
0001
0100
0220
0000
0000
0000
0000
,
0330
0000
1001
0000
1000
0100
0010
0000
,
0001
0010
0100
0100
0000
1000
0010
0100
,
0001
1000
0010
0001
0000
1000
0000
0001
,
0000
0100
1000
0020
0000
0130
0100
0001
,
1000
1001
0000
0000
0001
0100
0010
0000
,
1000
0010
0100
0100
0000
0001
0010
0100
,
1000
0001
0010
1000
0000
0001
0000
1000
,
0000
0100
0001
0020
0000
0130
0100
1000
,
0001
1001
0000
0000
1010
0000
0101
0000
,
2020
0000
3030
1000
0000
0100
0000
0010
,
0001
1001
0011
1100
,
0022
0000
0033
0001
0000
0100
0000
0010
,
1000
1001
0011
1100
,
2020
0000
3030
0010
0000
1000
0000
0001
,
0100
0000
0101
0000
0001
0010
0100
0000
,
1000
0010
0100
0100
0000
0010
1000
0001
,
0100
0010
1000
1001
0000
0010
0100
0001
,
1000
0100
0010
0001
0100
0000
1010
0000
,
1000
0100
0010
0001
0100
0000
1010
0000
,
1000
0100
0010
0001
0100
0000
1000
0100
,
0001
0010
0100
0001
0100
1000
0020
0000
,
0130
0101
0011
1100
,
1010
0011
0101
1010
,
1100
0000
0110
0000
0010
0001
0100
1000
,
0100
0001
0010
0100
2000
0000
3010
0000
,
0002
0103
0220
0000
,
0300
0000
2000
0000
,
0030
0000
0002
0000
,
3000
0000
0020
0000
,
0003
0000
0200
0000
,
0030
0000
2000
0000
,
0300
0000
0020
3000
,
0000
0000
0100
0130
0000
0100
0001
0010
,
0100
1000
0010
0001
0000
1000
0100
0001
,
0010
0100
1000
0001
0201
0000
0310
0000
,
1002
0000
0103
0100
0000
1000
0100
0001
,
0000
0010
0100
1000
1020
0000
0130
0000
,
2001
0000
3010
0010
0000
0001
0010
1000
,
0000
0100
0010
0001
0100
1000
0100
0010
,
0000
1000
0100
0001
0000
1000
0100
0010
,
0000
1000
0100
0001
0010
0100
0001
0100
,
1000
0010
0100
0001
2000
0000
3002
0000
,
1003
0010
0100
0001
0010
0000
1100
0000
,
1000
0010
0100
0001
0010
0000
1100
0000
,
1000
0010
0100
0001
0010
0000
1000
0010
,
0001
0100
0010
0001
0010
1000
0200
0000
,
0310
0011
0101
1010
,
1100
0101
0011
1100
,
1010
0000
0110
0000
0100
0001
0010
1000
,
0010
0001
0100
0010
2000
0000
3002
0000
,
0103
0010
0010
0010
1000
0100
0001
0000
,
1000
0010
0001
0000
0001
0100
1000
0000
,
0001
0010
1000
0000
1000
0100
0010
1000
,
0010
0001
0100
1000
0100
0010
0100
0001
,
0010
0100
1000
0001
1001
0000
0010
0000
,
1000
0100
0001
1000
,
0010
0001
0100
1000
,
0010
0000
0100
0110
0000
0001
0100
1000
,
0001
0010
0100
0101
0000
1000
0010
0001
,
1000
0100
0010
1010
0000
0001
0100
0010
,
1000
0001
0010
0220
0000
0000
0000
0000
,
0000
0000
0000
0000
,
0000
0000
0000
0330
0000
1001
0000
0000
;

//---------------dance-double - ----------------
#NOTEDATA:;
#CHARTNAME:;
#STEPSTYPE:dance-double;
#DESCRIPTION:;
#CHARTSTYLE:;
#DIFFICULTY:Easy;
#METER:5;
#RADARVALUES:0.239151,0.304857,0.127466,0.067982,0.000000,197.000000,182.000000,15.000000,8.000000,0.000000,0.000000,0.000000,0.000000,0.000000,0.239151,0.304857,0.127466,0.067982,0.000000,197.000000,182.000000,15.000000,8.000000,0.000000,0.000000,0.000000,0.000000,0.000000;
#CREDIT:MILEN;
#DISPLAYBPM:150.000000;
#NOTES:
00000000
00000000
00000000
00000000
,
00000000
00000000
00000000
00000000
,
00000000
00000000
00000000
00000000
,
00000000
00000000
00000000
00000000
,
00000000
00000000
00000000
00000000
,
00000000
00000000
00001000
00010000
,
00001000
00000000
00010000
00001000
,
00010000
00000000
00001000
00010000
,
00001000
00010000
00011000
00000000
,
00000000
00000000
00001000
00100000
,
00001000
00000000
00010000
00000010
,
00010000
00000000
00001000
01000000
,
00001000
00000000
00010000
00000100
,
00010000
00000000
00001000
00010000
,
00000100
00000000
00010000
00001000
,
00100000
00000000
00001000
00010000
,
00000010
00000000
00010000
00001000
,
01000000
00000000
00001000
00010000
,
00011000
00000000
00001000
00100000
,
01000000
00100000
00001000
00010000
,
00011000
00000000
00010000
00000100
,
00000010
00000100
00010000
00001000
,
00011000
00000000
00010000
00100000
,
01000000
00010000
00100000
00001000
,
00010000
00000100
00002000
00000000
,
00000000
00003000
00000002
00000003
,
00000100
00001000
00010000
00000000
,
00010000
00001000
00000100
00000000
,
00000100
00001000
00010000
00100000
,
00010000
00001000
00010000
00011000
,
00000000
00001000
00001000
00000000
,
00000010
00000000
00000001
00000000
,
00000100
00000000
00001000
00010000
,
01000000
10000000
00010000
00000000
,
10010000
00000000
01100000
00000000
,
00000000
00000000
00010000
00000000
,
00000000
00000000
00001000
00000000
,
00000000
00000000
00000110
00000000
,
00000000
00000000
00001000
00000000
,
00000000
00000000
00010000
00000000
,
00000000
00000000
00100000
10000000
,
01000000
00100000
00010000
01000000
,
00001000
00010000
00000100
00001000
,
00000010
00010000
00022000
00033000
,
00001000
00100000
01000000
00100000
,
00001000
00000000
00022000
00033000
,
00010000
00000100
00000010
00000100
,
00010000
00000000
00001000
00010000
,
00000100
00000000
00010000
00001000
,
01000000
00000000
00001000
00010000
,
00100000
00000000
00010000
00001000
,
00000010
00001000
00010000
00000000
,
00010000
00001000
00000010
00000000
,
00000010
00001000
00010000
01000000
,
00010000
00001000
00010000
00011000
,
00000000
00001000
00001000
00000000
,
00000100
00000000
00000001
00000000
,
00000010
00000000
00001000
00010000
,
00100000
10000000
00010000
00000000
,
10010000
00000000
10000000
00000000
,
00100000
00000000
00010000
00000000
,
00001000
00000000
00000100
00000001
,
00001000
00000001
00001001
00000000
,
00000110
00000000
00000001
00000000
,
00000100
00000000
00001000
00000000
,
00010000
00000000
00100000
00000000
,
10000000
00000000
01000000
00010000
,
00001000
00000100
00001000
00010000
,
00100000
00010000
00001000
00000010
,
00001000
00010000
00022000
00000000
,
00000000
00000000
00000000
00000000
,
00000000
00000000
00000000
00033000
;

//---------------dance-double - ----------------
#NOTEDATA:;
#CHARTNAME:;
#STEPSTYPE:dance-double;
#DESCRIPTION:;
#CHARTSTYLE:;
#DIFFICULTY:Medium;
#METER:8;
#RADARVALUES:0.339911,0.456489,0.237937,0.118969,0.000000,280.000000,252.000000,28.000000,14.000000,0.000000,0.000000,0.000000,0.000000,0.000000,0.339911,0.456489,0.237937,0.118969,0.000000,280.000000,252.000000,28.000000,14.000000,0.000000,0.000000,0.000000,0.000000,0.000000;
#CREDIT:MILEN;
#DISPLAYBPM:150.000000;
#NOTES:
00000000
00000000
00000000
00000000
,
00000000
00000000
00000000
00000000
,
00000000
00000000
00000000
00000000
,
00000000
00000000
00000000
00000000
,
00000000
00000000
00000000
00000000
,
00000000
00000000
10000000
01000000
,
00100000
00001000
00010000
00000100
,
00000010
00000001
00001000
00000010
,
00010000
00000000
00001000
00011000
00000000
00000000
00000000
00000000
,
00000000
00010000
00011000
00000000
00001000
00000000
00100000
00000000
,
01000000
10000000
00100000
01000000
,
00010000
00100000
00001000
00010000
,
00000100
00000010
00000001
00001000
,
00000010
00010000
00000000
00001000
00100000
00000000
00010000
00000000
,
01000000
00100000
10000000
00010000
,
00100000
01000000
10000000
00100000
,
01000000
00001000
00010000
00000100
,
00000010
00000001
00000000
00001000
00000100
00000000
00010000
00000000
,
00011000
00000000
00000000
00001000
00000000
00010000
00000000
01000000
,
00000000
11000000
10000000
00100000
,
01100000
00000000
00000000
01000000
00000000
00010000
00000000
00100000
,
00000000
00101000
00001000
00010000
,
00010010
00000000
00000000
00000010
00000000
00000100
00000000
00000001
,
00000000
00001001
00002000
00003100
,
00020000
00000000
00031000
00001000
00000000
00000000
00001000
00000000
,
00010000
00000000
00100000
10000000
00000000
10000000
00100000
00000000
,
00010000
00001000
00010000
00000000
00000100
00000000
00000110
00000000
,
00000001
00000000
00000010
00000110
,
00001000
00000000
00000100
00000010
,
00000001
00000000
00000100
00000000
00001000
00010000
00001000
00000000
,
00011000
00010000
00001000
00000100
,
00000001
00000010
00001000
00010000
,
00001000
00000010
00000001
00000100
,
00001000
00010000
00011000
00011000
,
00001000
00010000
00100000
00000000
20000000
00000000
00000000
00000000
,
30000000
00000000
00020000
00000000
,
00030000
00000000
02000000
00000000
,
03000000
00000000
00002000
00003000
,
00020000
00030000
00000020
00000000
,
00000030
00000000
00002000
00000000
,
00003000
00000000
00000002
00000003
,
00000200
00000000
00000310
00000010
00000000
00010000
00001000
00010000
,
00001000
00010000
00001000
00010000
00000000
00001000
00010000
00100000
,
01000000
00010000
00200000
00000000
00000000
00000000
00300000
00000000
,
01000000
00100000
00010000
01000000
,
00001000
00010000
00000100
00001000
,
00000010
00010000
00001000
00000100
,
00000001
00000010
00000100
00010000
,
00011000
00001000
00100000
00010000
,
10010000
00000000
10000000
00000000
00100000
01000000
00010000
00000000
,
00100000
00001000
00010000
00000000
00000100
00001000
00000010
00000000
,
00010000
00001000
00010000
00000000
01000000
00000000
01100000
00000000
,
10000000
00000000
00100000
01100000
,
00010000
00000000
01000000
00100000
,
10000000
00000000
01000000
00000000
00010000
00001000
00010000
00000000
,
00011000
00001000
00010000
01000000
,
10000000
00100000
00010000
00001000
,
00010000
00100000
10000000
01000000
,
00010000
00001000
00011000
00011000
,
00010000
00001000
00000010
00000000
00000001
00000000
00000100
00000000
,
00001000
00010000
00100000
10000000
,
01000000
00010000
00001000
00000010
,
00000001
00000100
00001000
00011000
,
00010000
00000000
00001000
00010000
00100000
00000000
10100000
00000000
,
10000000
01000000
00100000
01100000
,
01000000
00010000
00001000
00011000
,
00010000
00000100
00000000
00000100
00000000
00000010
00000001
00000000
,
00000100
00001000
00000000
00011000
00000000
00010000
00100000
00000000
,
10000000
01000000
00000000
01010000
00000000
00010000
00001000
00000000
,
00000100
00000001
00000000
00002002
00000000
00000000
00000000
00000000
,
00000000
00000000
00000000
00000000
,
00000000
00000000
00000000
00003003
00000000
00000110
00000000
00000000
;

//---------------dance-double - ----------------
#NOTEDATA:;
#CHARTNAME:;
#STEPSTYPE:dance-double;
#DESCRIPTION:;
#CHARTSTYLE:;
#DIFFICULTY:Hard;
#METER:10;
#RADARVALUES:0.437028,0.547787,0.526861,0.203946,0.000000,360.000000,298.000000,62.000000,24.000000,0.000000,0.000000,0.000000,0.000000,0.000000,0.437028,0.547787,0.526861,0.203946,0.000000,360.000000,298.000000,62.000000,24.000000,0.000000,0.000000,0.000000,0.000000,0.000000;
#CREDIT:MILEN;
#DISPLAYBPM:150.000000;
#NOTES:
// measure 0
00000000
00000000
00000000
00000000
,  // measure 1
00000000
00000000
00000000
00000000
,  // measure 2
00000000
00000000
00000000
00000000
,  // measure 3
00000000
00000000
00000000
00000000
,  // measure 4
00000000
00000000
00000000
00000000
,  // measure 5
00000000
00000000
00010000
00001000
,  // measure 6
00000010
00000001
00000100
00000010
,  // measure 7
00001000
00000100
00010000
00001000
,  // measure 8
00100000
01000000
10000000
20200000
00000000
00000000
00000000
00000000
,  // measure 9
30300000
10100000
10000000
01000000
,  // measure 10
00010000
00001000
00010000
00000000
00000100
00000000
00000010
00000000
,  // measure 11
00000001
00000100
00000001
00000000
00000010
00000000
00001000
00000000
,  // measure 12
00010000
00100000
00010000
00000000
00001000
00000000
00100000
01000000
,  // measure 13
00100000
01100000
00000000
00000000
10000000
00000000
00100000
00000000
,  // measure 14
00010000
00001000
00010000
00000000
00000010
00000000
00000100
00000000
,  // measure 15
00000001
00000010
00000001
00000000
00000100
00000000
00001000
00000000
,  // measure 16
00010000
01000000
00010000
00000000
00001000
00000000
00000100
00000010
,  // measure 17
00000100
00000110
00000000
00000000
00001001
00000000
00000100
00000000
,  // measure 18
00000120
00000000
00000000
00001000
00000000
00001000
00000000
00001000
,  // measure 19
00001030
00001100
00010100
00010000
,  // measure 20
00201000
00000000
00000000
01000000
00000000
01000000
00000000
01000000
,  // measure 21
01300000
11000000
10100000
00100000
,  // measure 22
01020000
00000000
00000000
00100000
00000000
00100000
00000000
00100000
,  // measure 23
00130000
00000000
00101000
00000000
00001000
00010000
00000100
00000000
,  // measure 24
00000010
00000100
00001000
00001001
00000000
00000001
00000100
00001000
,  // measure 25
00000100
00001000
00010000
00011000
00000000
00001000
00010000
00000000
,  // measure 26
00100000
10000000
01000000
00100000
00010000
00000000
01000000
00000000
,  // measure 27
00100000
10000000
01000000
00100000
00010000
00000000
01000000
00000000
,  // measure 28
00100000
10000000
01000000
00100000
00010000
00000000
01000000
00000000
,  // measure 29
10000000
00000000
00010000
00000000
00100000
10000000
02000000
00000000
,  // measure 30
03100000
00110000
00011000
00001010
,  // measure 31
00000011
00000101
00001100
00011000
,  // measure 32
01001000
00000000
01010000
00000000
00010000
00100000
01000000
00000000
,  // measure 33
00010000
00001000
00000100
00000000
00000001
00000000
00000010
00000000
,  // measure 34
00001000
00010000
00022000
00000000
,  // measure 35
00033000
00000000
02002000
00000000
,  // measure 36
03003000
00000000
00020200
00000000
,  // measure 37
00030300
00000000
00202000
00000000
,  // measure 38
00303000
00000000
00020020
00000000
,  // measure 39
00030030
00000000
00022000
00000000
,  // measure 40
00030000
00000000
00203000
02300000
,  // measure 41
23000000
00000000
00100000
30100000
00000000
00100000
01000000
00100000
,  // measure 42
00010000
00001000
00000100
00000010
00000000
00000010
00000100
00000001
,  // measure 43
00000100
00001000
00010000
00001000
00011000
00000000
00100000
00000000
,  // measure 44
10000000
01000000
00010000
00001000
,  // measure 45
00000100
00000001
00000010
00001000
,  // measure 46
00010000
01000000
10000000
00100000
,  // measure 47
00010000
00000000
00001000
00000000
00011000
00010000
00001000
00000010
,  // measure 48
00000000
00010000
00001000
00000100
00000000
00010000
00001000
00000010
,  // measure 49
00000000
00010000
00001000
00000100
00000001
00000100
00000010
00001000
,  // measure 50
00000100
00010000
00001000
00000000
00011000
00000000
00001100
00000000
,  // measure 51
00000100
00000001
00000010
00000100
00001000
00000000
00000010
00000000
,  // measure 52
00000100
00000001
00000010
00000100
00001000
00000000
00000010
00000000
,  // measure 53
00000100
00000001
00000010
00000100
00001000
00000000
00000010
00000000
,  // measure 54
00000001
00000000
00001000
00000000
00000100
00000001
00000020
00000000
,  // measure 55
00000130
00001100
00011000
01010000
,  // measure 56
11000000
10100000
00110000
00011000
,  // measure 57
00010010
00000000
00001010
00000000
00001000
00000100
00000010
00000000
,  // measure 58
00001000
00010000
00100000
00000000
10000000
00000000
01000000
00000000
,  // measure 59
00010000
00001000
00010000
00001000
00011000
00000000
00010100
00000000
,  // measure 60
00001100
00001010
00000110
00000101
,  // measure 61
00001001
00001100
00010100
00101000
,  // measure 62
00110000
00000000
01100000
00000000
10010000
00000000
10000000
01000000
,  // measure 63
00100000
00001000
00010000
00000100
00010100
00000000
00010000
00000000
,  // measure 64
00001000
00000100
00000001
00001000
,  // measure 65
00000100
00000010
00000001
00000100
,  // measure 66
00001000
00000000
00010000
00011000
00000000
00001000
00100000
01000000
,  // measure 67
10000000
00100000
00000000
00110000
00000000
00010000
00000010
00001000
,  // measure 68
00000100
00000010
00000000
00000011
00000000
00000001
00000100
00001000
,  // measure 69
00010000
00100000
10000000
20020000
00000000
00000000
00000000
00000000
,  // measure 70
00000000
00000000
00000000
00000000
,  // measure 71
00000000
00000000
00000000
30030000
00000000
01100000
00000000
00000000
;
