#VERSION:0.83;
#TITLE:ハムカツ黙示録;
#SUBTITLE:;
#ARTIST:BEYOOOOONDS;
#TITLETRANSLIT:Hamkatsu Mokushiroku;
#SUBTITLETRANSLIT:;
#ARTISTTRANSLIT:;
#GENRE:J-MUSIC;
#ORIGIN:;
#CREDIT:MILEN;
#BANNER:Hamkatsu Mokushiroku.png;
#BACKGROUND:Hamkatsu Mokushiroku-bg.png;
#PREVIEWVID:;
#JACKET:Hamkatsu Mokushiroku-jacket.png;
#CDIMAGE:;
#DISCIMAGE:;
#LYRICSPATH:;
#CDTITLE:;
#MUSIC:Hamkatsu Mokushiroku.mp3;
#OFFSET:-0.100000;
#SAMPLESTART:39.710560;
#SAMPLELENGTH:12.783413;
#SELECTABLE:YES;
#DISPLAYBPM:150.000000;
#BPMS:0.000=149.960;
#STOPS:191.000=0.400;
#DELAYS:;
#WARPS:;
#TIMESIGNATURES:0.000=4=4;
#TICKCOUNTS:0.000=4;
#COMBOS:0.000=1;
#SPEEDS:0.000=1.000=0.000=0;
#SCROLLS:0.000=1.000;
#FAKES:;
#LABELS:0.000=Song Start;
#BGCHANGES:0.000=Hamkatsu Mokushiroku.avi=1.000=0=0=0=StretchNoLoop====,
99999=-nosongbg-=1.000=0=0=0 // don't automatically add -songbackground-
;
#KEYSOUNDS:;
#ATTACKS:
;

//---------------dance-single - ----------------
#NOTEDATA:;
#CHARTNAME:;
#STEPSTYPE:dance-single;
#DESCRIPTION:;
#CHARTSTYLE:;
#DIFFICULTY:Hard;
#METER:14;
#RADARVALUES:0.676014,0.722110,0.685595,0.231016,0.312989,635.000000,543.000000,92.000000,31.000000,0.000000,0.000000,0.000000,0.000000,0.000000,0.676014,0.722110,0.685595,0.231016,0.312989,635.000000,543.000000,92.000000,31.000000,0.000000,0.000000,0.000000,0.000000,0.000000;
#CREDIT:MILEN;
#DISPLAYBPM:150.000000;
#NOTES:
0000
0000
0000
0000
,
0000
0000
0000
0000
,
0000
0000
0000
0000
,
0000
0000
0000
0000
,
0000
0000
1001
0000
0110
0000
0010
0100
,
0101
0001
0010
0000
0110
0000
0010
0100
,
1100
1000
0010
0000
0110
0000
0100
0001
,
1001
0010
0100
0000
0110
0000
0011
0000
,
1100
0000
1010
0000
0101
0000
1001
1000
,
0001
0000
0100
0000
0020
0000
0000
0000
1030
0000
0000
0000
1001
0000
0001
0100
,
0001
0000
0010
0000
0100
0000
1000
0000
0010
0000
0100
0000
0001
0000
0000
1000
,
0000
0000
0100
0000
0010
0000
0000
0001
0000
0000
1000
0000
0010
0000
0100
0000
,
0001
0010
0200
0000
0310
0000
1001
0001
,
1000
0000
0010
0000
0200
0000
0000
0000
0301
0000
0000
0000
1001
0000
1000
0010
,
1000
0000
0100
0000
0010
0000
0001
0000
0100
0000
0010
0000
1000
0000
0000
0001
,
0000
0000
0010
0000
0100
0000
0000
1000
0000
0000
0010
0000
0100
0000
0001
0000
,
1000
0000
0000
0100
0000
0000
0020
0000
0000
0000
0000
0000
0031
0000
0100
0000
0010
0000
1000
0000
0000
0000
0000
0000
,
1100
0000
0000
0000
0100
0000
0020
0000
0000
0000
0000
0000
0031
0000
0000
0000
0000
0000
0002
0000
0000
1000
0000
0000
,
1000
0000
1000
0000
1003
0000
0000
1010
0000
0000
0101
0000
0001
0000
0000
0010
,
0000
0000
0100
0000
1000
0000
0000
0010
0000
0000
0001
0000
1000
0000
0000
0100
,
0000
0000
0001
0000
0020
0000
0100
0000
0100
0000
0130
0000
0010
0000
0000
0001
,
0000
0000
0100
0000
1000
0000
0000
0001
0000
0000
0010
0000
1000
0000
0000
0100
,
0000
0010
0002
1000
1000
1003
2000
0000
,
3020
0000
0032
0000
0203
0000
2300
0010
,
0010
0000
3010
0000
0110
0000
0100
0000
0001
0000
1000
0000
1100
0000
0000
0100
,
0001
0000
1000
0000
0100
0000
0010
0000
0001
0000
0000
0000
0011
0000
0000
0010
,
1000
0000
0001
0000
0010
0000
0100
0000
1000
0000
0000
0000
1010
0000
0000
0100
,
0001
0000
0010
0000
0110
0000
0000
1000
0010
0000
0100
0000
0110
0000
0010
1000
,
0010
0000
0100
0000
0002
0000
0000
0000
1003
0000
0000
0000
1010
0000
0000
0010
,
0001
0000
0100
0000
0010
0000
1000
0000
0001
0000
0000
0000
0101
0000
0000
0100
,
1000
0000
0010
0000
0100
0000
0001
0000
1000
0000
0000
0000
1100
0000
0000
0010
,
0001
0000
0100
0000
0110
0000
0000
1000
0100
0000
0010
0000
0110
0000
0100
1000
,
0100
0010
0002
0000
1003
0000
1010
0010
,
0001
0000
0000
0000
0101
0000
0100
0000
1000
0000
0000
0000
1001
0000
0100
0010
,
0100
0001
0010
0100
1000
0000
1100
0100
,
0001
0000
0000
0000
0000
0000
0011
0000
0000
0010
0000
0000
1000
0000
0000
0000
0000
0000
0001
0000
0100
0000
0010
0000
,
1000
0000
0000
0000
0001
0000
0000
0000
0010
0000
0000
0000
0200
0000
0000
0000
0000
0000
0000
0000
0000
0000
0000
0000
2300
0000
0000
0000
0000
0000
0000
0000
0000
0000
0000
0000
3010
0000
0000
0000
0000
0000
0010
0000
0000
0100
0000
0000
,
0001
0000
0100
0000
0010
0000
0100
0010
1000
0000
0010
0000
0100
0000
0001
0010
,
0100
0000
0010
0000
0100
0000
0010
0100
1000
0000
0010
0000
0100
0000
0000
0001
,
0000
0000
1000
0000
0010
0000
0001
0010
0100
0000
0010
0000
1010
0000
0000
0000
,
0101
0000
0011
0000
1100
0000
1001
0001
,
0100
0000
0001
0000
0101
0000
0100
0000
0010
0000
1000
0000
0100
0000
0000
0100
,
0000
0100
0010
0001
1000
0020
0230
0301
,
1000
0000
0010
0000
0110
0000
0100
0000
0001
0000
0010
0000
0100
0000
0000
0100
,
0000
0100
1000
0010
0100
0002
2003
3100
,
0010
0000
0001
0000
0011
0000
0010
0000
0100
0000
1000
0000
0010
0000
0000
0010
,
0000
0010
0110
0100
0001
0020
0230
1300
,
0001
0100
0110
0010
1000
0001
1001
0000
,
0210
0000
0010
0000
0310
0000
0000
0000
1001
0000
0000
0001
0100
0000
0100
0000
,
1100
0000
0000
0001
0100
0000
0100
0000
1100
0000
0000
1000
0010
0000
0010
0000
,
0011
0000
0000
1000
0010
0000
0010
0000
0011
0000
1000
0000
0010
0000
0001
0000
,
0010
0000
0000
1000
0000
0000
0010
0000
0000
0001
0000
0000
0010
0000
1000
0000
0100
0000
0010
0000
0001
0000
0100
0000
,
0010
1000
1001
0000
0001
0100
0010
1000
,
0100
0000
0010
0000
0001
0000
0100
0000
0010
0000
1000
0100
1000
0000
0010
0000
,
0100
0000
0001
0000
0010
0000
0100
0000
1000
0000
0000
0010
0000
0000
0001
0000
,
0010
0000
0000
1000
0000
0000
0100
0000
0001
0000
0000
0100
0000
0000
0010
0000
,
0001
0000
0000
0100
0000
0000
1000
0000
0100
0000
0000
0100
0001
0000
0010
0000
,
0011
0000
0000
0100
1000
0000
0010
0000
1010
0000
0100
0001
0100
0000
0010
0000
,
1000
0100
0010
0001
0101
0000
1100
0000
,
1010
0000
0022
0000
0033
0101
0101
1010
,
1010
1000
0100
0010
0011
0000
0000
0000
,
0001
0100
1000
0000
1100
0000
0000
0000
,
1000
0000
0010
0000
0001
0000
0000
0000
0101
0000
0000
1000
0000
0000
0010
0000
,
0101
0000
0000
1000
0000
0000
0010
0000
0101
0000
0100
0010
1000
0000
0010
0100
,
0001
0000
1000
0001
1000
0001
1000
0001
1000
0000
0000
0001
0100
0000
0010
0000
,
0001
0000
0010
0000
1010
0000
0000
0000
1100
0000
0000
1000
0010
0000
0100
0000
,
1000
0000
0100
0000
0101
0000
0000
0000
0011
0000
0000
0010
0100
0000
1000
0000
,
0110
0000
0000
0100
0010
0000
0001
0000
0110
0000
0100
1000
0010
0000
0100
0000
,
0002
0000
0000
0000
1003
0000
0000
0000
1010
0000
0000
0010
0001
0000
0100
0000
,
0001
0000
0010
0000
1000
0000
0001
0000
0101
0000
0000
0100
1000
0000
0010
0000
,
1000
0000
0100
0000
0001
0000
1000
0000
1010
0000
0000
0010
0100
0000
0001
0000
,
1010
0000
0000
0100
0010
0000
1000
0000
0101
0000
0010
0100
0010
0000
1000
0000
,
0200
0000
0000
0000
0310
0000
0000
0000
0011
0000
0000
0001
0100
0000
1000
0000
,
0001
0000
1000
0000
0100
0000
0001
0000
1100
0000
0000
1000
0010
0000
0001
0000
,
1000
0000
0001
0000
0010
0000
1000
0000
0011
0000
0000
0001
0100
0000
0010
0000
,
1100
0000
0000
0001
0100
0000
0010
0000
1100
0000
0100
0000
0010
0000
0001
0000
,
0200
0000
0310
0000
0010
1000
1100
0000
,
0010
0000
0001
0000
0101
0000
0000
0000
0010
0000
1000
0000
1100
0000
0100
0010
,
0001
0000
0100
0000
0110
0000
0000
0000
1010
0000
0010
0100
0001
0000
0000
0000
,
0011
0000
0000
0000
0000
0000
0010
0000
0000
0100
0000
0000
1000
0000
0000
0000
0000
0000
0000
0000
0000
0000
0000
0000
0001
0000
0000
0000
0100
0000
0000
0000
1000
0000
0000
0000
0100
0000
0000
0000
0010
0000
0000
0000
0001
0000
0000
0000
,
0010
0110
2002
3003
;

//---------------dance-double - ----------------
#NOTEDATA:;
#CHARTNAME:;
#STEPSTYPE:dance-double;
#DESCRIPTION:;
#CHARTSTYLE:;
#DIFFICULTY:Hard;
#METER:14;
#RADARVALUES:0.630236,0.692023,0.640882,0.275728,0.316715,592.000000,506.000000,86.000000,37.000000,0.000000,0.000000,0.000000,0.000000,0.000000,0.630236,0.692023,0.640882,0.275728,0.316715,592.000000,506.000000,86.000000,37.000000,0.000000,0.000000,0.000000,0.000000,0.000000;
#CREDIT:MILEN;
#DISPLAYBPM:150.000000;
#NOTES:
00000000
00000000
00000000
00000000
,
00000000
00000000
00000000
00000000
,
00000000
00000000
00000000
00000000
,
00000000
00000000
00000000
00000000
,
00000000
00000000
00011000
00000000
00011000
00000000
00001000
00100000
,
01100000
00000000
00010000
00000000
00011000
00000000
00010000
00000100
,
00000110
00000000
00001000
00000000
00011000
00000000
00001000
01000000
,
01100000
00010000
00011000
00001100
,
00000101
00000000
00000110
00000000
00001001
00000000
00000001
00000100
,
00001000
00000000
00010000
00000000
00200000
00000000
00000000
00000000
10300000
00000000
00000000
00000000
10000000
00000000
01000000
00100000
,
01000000
00000000
00010000
00000000
00001000
00000000
00000010
00000000
00000001
00000000
00000100
00000000
00000010
00000000
00000000
00010000
,
00000000
00000000
00001000
00000000
00100000
00000000
00000000
01000000
00000000
00000000
10000000
00000000
00100000
00000000
00010000
00000000
,
00001000
00000100
00000002
00000000
00000013
00000000
00000010
00001000
,
00010000
00000000
00100000
00000000
20000000
00000000
00000000
00000000
31000000
00000000
00000000
00000000
01000000
00000000
00010000
00001000
,
00010000
00000000
00000100
00000000
00000010
00000000
00000001
00000000
00000100
00000000
00001000
00000000
00010000
00000000
00000000
00100000
,
00000000
00000000
10000000
00000000
01000000
00000000
00000000
00100000
00000000
00000000
00001000
00000000
00010000
00000000
00000100
00000000
,
00000010
00000000
00000000
00000001
00000000
00000000
00002000
00000000
00000000
00000000
00000000
00000000
00003100
00000000
00010000
00000000
00001000
00000000
01000000
00000000
00000000
00000000
00000000
00000000
,
01100000
00000000
00000000
00000000
10000000
00000000
02000000
00000000
00000000
00000000
00000000
00000000
03010000
00000000
00000000
00000000
00000000
00000000
00020000
00000000
00000000
00001000
00000000
00000000
,
00001000
00000000
00001000
00000000
00031000
00000000
00000000
00101000
00000000
00000000
00010010
00000000
00010000
00000000
00000000
00001000
,
00000000
00000000
00000100
00000000
00000001
00000000
00000000
00000010
00000000
00000000
00000100
00000000
00001000
00000000
00000000
00000010
,
00000000
00000000
00010000
00000000
00002000
00000000
00100000
00000000
00100000
00000000
00103000
00000000
00001000
00000000
00000000
00010000
,
00000000
00000000
01000000
00000000
10000000
00000000
00000000
00100000
00000000
00000000
01000000
00000000
00010000
00000000
00000000
00100000
,
00000000
01000000
00020000
00000100
00000100
00030100
00000200
00000000
,
00000320
00000000
00000032
00000000
00000203
00000000
00002300
00010000
,
00010000
00000000
00013000
00000000
00011000
00000000
00010000
00000000
01000000
00000000
10000000
00000000
10010000
00000000
00010000
01000000
,
00010000
00000000
00100000
00000000
00001000
00000000
00010000
00000000
00000100
00000000
00000000
00000000
00001001
00000000
00001000
00000010
,
00001000
00000000
00000100
00000000
00010000
00000000
00001000
00000000
00100000
00000000
00000000
00000000
01100000
00000000
00000000
10000000
,
00000000
00000000
00100000
00000000
01100000
00000000
00000000
00010000
00000000
00000000
01000000
00000000
01100000
00000000
10000000
01000000
,
00100000
00000000
00010000
00000000
02000000
00000000
00000000
00000000
03001000
00000000
00000000
00000000
00011000
00000000
00001000
00100000
,
00001000
00000000
00000010
00000000
00000001
00000000
00000100
00000000
00001000
00000000
00000000
00000000
00011000
00000000
00010000
00000100
,
00010000
00000000
01000000
00000000
10000000
00000000
00100000
00000000
00010000
00000000
00000000
00000000
00011000
00000000
00000000
01000000
,
00000000
00000000
00010000
00000000
00011000
00000000
00000000
00000010
00000000
00000000
00001000
00000000
00011000
00000000
00010000
00000100
,
00001000
00000001
00000200
00000000
00000310
00000000
00001010
00010000
,
00001000
00000000
00000000
00000000
00011000
00000000
00000010
00000000
00001000
00000000
00000000
00000000
00001001
00000000
00000001
00000010
,
00000001
00000100
00000010
00010000
00001000
00000000
00011000
01000000
,
00010000
00000000
00000000
00000000
00000000
00000000
01010000
00000000
00000000
00001000
00000000
00000000
00010000
00000000
00000000
00000000
00000000
00000000
00010000
00000000
00100000
00000000
01000000
00000000
,
00010000
00000000
00000000
00000000
00100000
00000000
00000000
00000000
01000000
00000000
00000000
00000000
20000000
00000000
00000000
00000000
00000000
00000000
00000000
00000000
00000000
00000000
00000000
00000000
30200000
00000000
00000000
00000000
00000000
00000000
00000000
00000000
00000000
00000000
00000000
00000000
00310000
00000000
00000000
00000000
00000000
00000000
00010000
00000000
00000000
00001000
00000000
00000000
,
00010000
00000000
01000000
00000000
10000000
00000000
01000000
00010000
01000000
00000000
00010000
00000000
00001000
00000000
00000010
00001000
,
00000010
00000000
00000001
00000000
00000010
00000000
00001000
00010000
00001000
00000000
00010000
00000000
01000000
00000000
00000000
10000000
,
00000000
00000000
00100000
00000000
00010000
00000000
00001000
00000010
00001000
00000000
00010000
00000000
00010100
00000000
00000000
00000000
,
01001000
00010010
00101000
00022000
,
00003000
00000000
00000000
00000000
02000000
00000000
00030000
00000000
00000000
00000000
13000000
00000000
10000000
00000000
00000000
10100000
,
00000000
01100000
01001000
00000000
00000000
00010000
00022000
00000000
,
00030000
00000000
00000000
00000000
00000020
00000000
00003000
00000000
00000000
00000000
00000031
00000000
00000001
00000000
00000000
00000101
,
00000000
00000110
00010010
00000000
00000000
00001000
00022000
00000000
,
00003000
00000000
00000000
00000000
20000000
00000000
00030000
00000000
00000000
00000000
30010000
00000000
00010000
00000000
00000000
00010100
,
00000000
00011000
01001000
00000000
00000000
00010000
00022000
00000000
,
00030000
00000000
00000002
00003000
00000000
00001003
00011000
00000000
,
00021000
00000000
00001000
00000000
00031000
00000000
00000000
00000000
00011000
00000000
00000000
00010000
01000000
00000000
10000000
00000000
,
00100000
00000000
00000000
10000000
01000000
00000000
00010000
00000000
00001000
00000000
00000000
00001000
00000010
00000000
00000001
00000000
,
00000100
00000000
00000000
00000001
00000010
00000000
00001000
00000000
00010000
00100000
00000000
00000000
00001000
00000010
00000000
00000000
,
00010000
00000000
00000000
01000000
00000000
00000000
00000000
00000000
00000000
00000000
00000000
00000000
00001000
00000000
00000000
00000100
00000000
00000000
00000000
00000000
00000000
00000000
00000000
00000000
00000100
00000000
00000000
00000000
00000010
00000000
00000000
00000000
00000001
00000000
00000000
00000000
00001000
00000000
00000000
00000000
00000100
00000000
00000000
00000000
00000010
00000000
00000000
00000000
,
00001000
00010000
00011000
00000000
00001000
00010000
00100000
01000000
,
00001000
00000000
00010000
00000000
01000000
00000000
00100000
00000000
00001000
00000000
00010000
00100000
00010000
00000000
00001000
00000000
,
00000100
00000000
00000010
00000000
00010000
00000000
00001000
00000000
00000010
00000000
00000000
00000100
00000000
00000000
00000001
00000000
,
00000100
00000000
00000000
00001000
00000000
00000000
00010000
00000000
01000000
00000000
00000000
10000000
00000000
00000000
01000000
00000000
,
00100000
00000000
00000000
00010000
00000000
00000000
00001000
00000000
00000010
00000000
00000000
00000010
00000001
00000000
00000100
00000000
,
00001000
00000000
00000000
00100000
10000000
00000000
01000000
00000000
00010000
00000000
00000000
00000010
00000001
00000000
00000100
00000000
,
00001000
00010000
00100000
10000000
11000000
00000000
01100000
00000000
,
00110000
00000000
00022000
00000000
00033000
00010100
00010000
01001000
,
00001000
00010000
00000100
00000010
00000011
00000000
00000000
00000000
,
00001000
00010000
00100000
00000000
11000000
00000000
00000000
00000000
,
00010000
00000000
00001000
00000000
00000100
00000000
00000000
00000000
00000011
00000000
00000000
00001000
00000000
00000000
00000100
00000000
,
00010100
00000000
00000000
00010000
00000000
00000000
00001000
00000000
00101000
00000000
00100000
01000000
00010000
00000000
00001000
00000000
,
00000010
00000000
00000001
00001000
00000001
00001000
00000001
00001000
00000001
00000000
00001000
00000100
00000010
00000000
00000001
00000000
,
00000100
00000000
00001000
00000000
00010000
00000000
00000000
00000000
10010000
00000000
00010000
00100000
01000000
00000000
10000000
00000000
,
00100000
00000000
00010000
00000000
00001000
00000000
00000000
00000000
00001001
00000000
00000000
00000010
00000000
00000000
00010000
00000000
,
00011000
00000000
00000000
00001000
00000000
00000000
01000000
00000000
10010000
00000000
10000000
01000000
00100000
00000000
01000000
00000000
,
00020000
00000000
00000000
00000000
00031000
00000000
00000000
00000000
00011000
00000000
00100000
01000000
10000000
00000000
00100000
00000000
,
00010000
00000000
00001000
00000000
00000010
00000000
00000000
00000000
00011000
00000000
00000100
00000010
00000001
00000000
00000100
00000000
,
00001000
00000000
00010000
00000000
00100000
00000000
00000000
00000000
01100000
00000000
00000000
00010000
00000000
00000000
00001000
00000000
,
00011000
00000000
00000000
00010000
00000000
00000000
00001000
00000000
00000110
00000000
00000010
00001000
00000100
00000000
00000010
00000000
,
00000002
00000000
00000000
00000000
00001003
00000000
00000000
00000000
00001100
00000000
00100000
00010000
01000000
00000000
00100000
00000000
,
10000000
00000000
01000000
00000000
00100000
00000000
00000000
00000000
00110000
00000000
00000100
00001000
00000010
00000000
00000100
00000000
,
00000001
00000000
00000010
00000000
00000100
00000000
00000000
00000000
00001100
00000000
00000000
00010000
00000000
00000000
00001000
00000000
,
01010000
00000000
00000000
00001000
00000000
00000000
00010000
00000000
00001100
00000000
00000100
00000000
00000010
00000000
00000001
00000000
,
00000200
00000000
00001300
00000000
00001000
00010000
10010000
00000000
,
10000000
00000000
00010000
00000000
00011000
00000000
00000000
00000000
00001000
00000000
00010000
00000000
00100000
00000000
10000000
01000000
,
00100000
00001000
00011000
00000000
00011000
00001000
00001001
00000000
,
00001001
00000000
00000000
00001000
00000000
00000000
00011000
00000000
00000000
00000000
00000000
00000000
00010000
00000000
01000000
00000000
10000000
00000000
00100000
00000000
00010000
00000000
00001000
00000000
,
00000010
00000101
00020020
00030030
;

//---------------dance-single - ----------------
#NOTEDATA:;
#CHARTNAME:;
#STEPSTYPE:dance-single;
#DESCRIPTION:;
#CHARTSTYLE:;
#DIFFICULTY:Beginner;
#METER:4;
#RADARVALUES:0.157559,0.209963,0.052165,0.014904,0.000000,148.000000,141.000000,7.000000,2.000000,0.000000,0.000000,0.000000,0.000000,0.000000,0.157559,0.209963,0.052165,0.014904,0.000000,148.000000,141.000000,7.000000,2.000000,0.000000,0.000000,0.000000,0.000000,0.000000;
#CREDIT:MILEN;
#DISPLAYBPM:150.000000;
#NOTES:
// measure 0
0000
0000
0000
0000
,  // measure 1
0000
0000
0000
0000
,  // measure 2
0000
0000
0000
0000
,  // measure 3
0000
0000
0000
0000
,  // measure 4
0000
0000
0000
1000
,  // measure 5
0000
0000
0000
0001
,  // measure 6
0000
0000
0000
0100
,  // measure 7
0000
0000
0000
0010
,  // measure 8
0000
0010
0000
0010
,  // measure 9
0000
1000
0000
0100
,  // measure 10
0000
0010
0000
0001
,  // measure 11
0000
1000
0000
0001
,  // measure 12
0000
0001
0000
0100
,  // measure 13
0000
0100
0000
0010
,  // measure 14
0000
1000
0000
0001
,  // measure 15
0000
0010
0000
0100
,  // measure 16
0000
1000
0000
0010
,  // measure 17
0000
0010
0000
0020
,  // measure 18
0000
0030
0010
0010
,  // measure 19
0000
0001
0000
0100
,  // measure 20
0000
1000
0000
0010
,  // measure 21
0000
0001
0000
0100
,  // measure 22
0000
1000
0000
0010
,  // measure 23
0000
0010
0000
0000
,  // measure 24
0010
0010
0000
1000
,  // measure 25
0000
0000
0000
0001
,  // measure 26
0000
0000
0000
1000
,  // measure 27
0000
0001
0000
1000
,  // measure 28
0000
0001
0000
1000
,  // measure 29
0000
0000
0000
0001
,  // measure 30
0000
0000
0000
1000
,  // measure 31
0000
0001
0000
1000
,  // measure 32
0000
0001
0000
1000
,  // measure 33
0000
1000
0000
0001
,  // measure 34
0000
0001
0000
0100
,  // measure 35
0000
0100
0000
0010
,  // measure 36
0010
0010
0000
1001
,  // measure 37
0000
0000
0000
1001
,  // measure 38
0000
0000
0000
1001
,  // measure 39
0000
0000
0000
1000
,  // measure 40
1000
0001
0001
0100
,  // measure 41
0000
0000
0000
0010
,  // measure 42
0000
0000
0000
0100
,  // measure 43
0000
0000
0000
0010
,  // measure 44
0000
0000
0000
0100
,  // measure 45
0000
0000
0000
0010
,  // measure 46
0000
0000
0000
0100
,  // measure 47
0000
0000
0000
0110
,  // measure 48
0000
0000
0010
0000
,  // measure 49
1000
0000
0010
0000
,  // measure 50
1000
0000
0010
1000
,  // measure 51
0010
1000
0020
0000
,  // measure 52
0030
0000
0010
0000
,  // measure 53
0100
0000
0001
0000
,  // measure 54
1000
0000
0100
0000
,  // measure 55
0010
0000
0001
0000
,  // measure 56
1000
0000
0010
0000
,  // measure 57
0100
0000
0001
0000
,  // measure 58
0010
0000
0100
0000
,  // measure 59
1000
0000
0000
0010
,  // measure 60
0010
0000
1001
0000
,  // measure 61
0000
0000
1001
0000
,  // measure 62
0000
0000
0001
0000
,  // measure 63
1000
0000
0001
1000
,  // measure 64
0001
1000
0001
0000
,  // measure 65
0001
0000
1000
0000
,  // measure 66
1000
0000
0001
0000
,  // measure 67
1000
0000
0001
0000
,  // measure 68
1000
0000
0010
0000
,  // measure 69
0010
0000
0100
0000
,  // measure 70
0100
0000
0010
0000
,  // measure 71
0100
0000
0010
0000
,  // measure 72
0100
0000
0001
0000
,  // measure 73
0010
0000
0100
0000
,  // measure 74
1000
0000
0100
0000
,  // measure 75
0010
0000
0001
0000
,  // measure 76
0100
0000
0010
0000
,  // measure 77
0010
0000
0010
0001
,  // measure 78
0100
0000
0100
0000
,  // measure 79
0100
0000
0100
1000
,  // measure 80
0010
0000
0110
0000
;

//---------------dance-single - ----------------
#NOTEDATA:;
#CHARTNAME:;
#STEPSTYPE:dance-single;
#DESCRIPTION:;
#CHARTSTYLE:;
#DIFFICULTY:Easy;
#METER:7;
#RADARVALUES:0.298085,0.391143,0.193755,0.104330,0.000000,280.000000,254.000000,26.000000,14.000000,0.000000,0.000000,0.000000,0.000000,0.000000,0.298085,0.391143,0.193755,0.104330,0.000000,280.000000,254.000000,26.000000,14.000000,0.000000,0.000000,0.000000,0.000000,0.000000;
#CREDIT:MILEN;
#DISPLAYBPM:150.000000;
#NOTES:
0000
0000
0000
0000
,
0000
0000
0000
0000
,
0000
0000
0000
0000
,
0000
0000
0000
0000
,
0000
0000
0000
1000
,
0000
0001
0000
1000
,
0001
1000
0000
0001
,
0000
1000
0000
0001
,
1000
1001
0000
0010
,
0100
0010
0000
1000
,
0001
1000
0001
0100
,
0010
1000
0001
0100
,
0100
0100
0000
0100
,
0010
0100
0000
0001
,
1000
0001
1000
0010
,
0100
0010
0100
0010
,
0010
0010
0020
0130
,
0000
0000
0000
0000
0000
0000
0000
0100
,
0100
0100
0010
0000
0000
0000
1000
0000
,
0000
0001
0000
1000
,
0000
1001
0000
0001
,
0000
1000
0000
0001
,
0000
1001
0000
1000
,
0100
0010
0001
0200
,
0000
0300
0000
0010
,
1000
0010
0110
0100
,
0001
0100
0110
0010
,
1000
0001
1000
0010
,
1000
0001
0000
0010
,
0001
0010
0110
0100
,
1000
0100
0110
0010
,
0001
1000
0001
0010
,
0001
1000
0000
0010
,
0010
0100
0100
0010
,
1000
0001
1001
0100
,
0100
0010
0010
1000
,
0001
1000
1001
0020
,
0000
0030
0000
2000
,
0000
3000
0000
0200
,
0000
0300
0000
0001
,
0001
0001
0001
0010
,
0100
1000
0001
0010
,
0100
1000
1000
0100
,
0010
0001
1000
0100
,
0010
0001
0001
0100
,
0010
1000
0001
0100
,
0010
0010
1000
0001
,
0010
0100
1000
1001
,
0000
0000
0010
0000
,
0001
0000
0100
0000
,
1000
0000
0010
0001
,
0100
1000
0020
0030
,
0000
0100
0100
0000
0001
0000
0010
0000
,
0100
1000
0001
0010
,
0100
1000
0020
0030
,
0002
0003
0200
0300
,
2000
3000
0010
0100
,
0001
1000
0010
0100
,
0001
1000
0110
0001
,
1000
0000
0001
0000
0000
0100
0100
0100
,
1000
0010
1001
0000
,
0000
0000
1001
0000
,
0000
0000
1001
0000
,
1001
0000
1001
0110
,
2002
3003
0001
1000
,
0100
0100
0100
0000
1000
0000
0001
0000
,
0010
0010
0010
0000
0001
0000
1000
0000
,
0001
0010
0001
1000
,
1001
0000
1000
0001
,
0100
0100
0100
0000
0001
0000
1000
0000
,
0010
0010
0010
0000
1000
0000
0001
0000
,
1000
0010
1000
0001
,
1001
0000
1000
0100
,
0010
0001
0010
0000
0001
0000
0100
0000
,
0010
1000
0010
0000
1000
0000
0100
0000
,
0010
0001
0100
0010
,
0110
0000
1010
1000
,
0011
0001
1100
1000
,
0101
0001
1000
0010
,
0001
0100
1000
0010
,
0100
0010
2002
3003
;

//---------------dance-single - ----------------
#NOTEDATA:;
#CHARTNAME:;
#STEPSTYPE:dance-single;
#DESCRIPTION:;
#CHARTSTYLE:;
#DIFFICULTY:Medium;
#METER:11;
#RADARVALUES:0.483323,0.481407,0.387510,0.134138,0.067069,454.000000,402.000000,52.000000,18.000000,0.000000,0.000000,0.000000,0.000000,0.000000,0.483323,0.481407,0.387510,0.134138,0.067069,454.000000,402.000000,52.000000,18.000000,0.000000,0.000000,0.000000,0.000000,0.000000;
#CREDIT:MILEN;
#DISPLAYBPM:150.000000;
#NOTES:
0000
0000
0000
0000
,
0000
0000
0000
0000
,
0000
0000
0000
0000
,
0000
0000
0000
0000
,
0000
1000
0001
1000
,
0110
0001
1000
0001
,
0110
1000
0001
1000
,
0110
0001
1000
1001
,
0110
0000
1001
0000
0110
0000
0010
1000
,
0100
0000
1000
0000
0001
0000
0010
0001
,
0100
0000
0001
0000
1000
0000
0010
1000
,
0100
0000
0010
0001
0100
0000
0010
1000
,
0001
0100
0020
0000
0130
0000
0100
0001
,
0010
0000
0001
0000
1000
0000
0100
1000
,
0010
0000
1000
0000
0001
0000
0010
0001
,
0100
0000
0010
1000
0100
0000
0010
0100
,
1000
0001
0020
0000
0130
0000
1100
0000
,
0110
0000
0010
0001
0000
0000
1001
0000
0000
0220
0000
0000
,
0000
0000
0330
0000
0010
1000
0100
0000
,
1000
0001
1000
0100
,
1000
0000
0001
1000
0001
1000
0001
0000
,
0010
0001
1000
0001
,
0010
0000
0001
1000
0001
1000
0002
0000
,
0023
0230
2300
0002
,
0000
0000
0000
0000
3003
0000
0000
0000
0001
0000
1000
0000
0010
0000
0000
0010
,
0000
0000
0010
0000
0100
0000
0000
0000
0001
0000
0000
0000
1000
0000
0000
1000
,
0000
1000
0100
0000
0010
0000
0011
0000
,
0100
1100
0010
0011
,
0001
0000
0100
0000
0010
0000
0000
0000
0110
0000
0000
0000
1000
0000
0000
1000
,
0000
0000
1000
0000
0001
0000
0000
0000
0100
0000
0000
0000
0010
0000
0000
0010
,
0000
0010
1000
0000
0001
0000
0101
0000
,
1000
1010
0001
0101
,
0100
1000
0020
0000
0130
0000
0010
1000
,
0100
0000
0010
0001
0100
0000
0010
1000
,
0100
0010
0001
0100
0010
0000
0010
1000
,
0001
0000
0000
0000
0000
0000
0100
0000
0000
0001
0000
0000
1000
0000
0000
0000
0000
0000
0010
0000
0000
0000
1000
0000
,
0100
0000
0100
0010
0000
0000
0012
0000
0000
1003
0000
0000
,
0100
1000
0001
0000
0010
0000
0001
0000
,
0100
0010
1000
0000
0001
0000
0010
0000
,
0100
1000
0010
0000
0100
0001
0011
0000
,
1100
1010
0101
1001
,
1000
0000
0100
0000
0010
0000
0000
0000
0010
0000
0001
0000
0100
0000
0000
0100
,
0000
0100
0010
0000
1000
0001
0010
0000
,
0010
0000
0100
0000
1000
0000
0000
0000
1000
0000
0010
0000
0100
0000
0000
0100
,
0000
0100
0001
0000
1000
0100
0010
0000
,
0010
0000
0001
0000
0100
0000
0000
0000
0010
0000
1000
0000
0001
0000
0000
0001
,
0000
0001
0010
0000
0100
1000
0010
0000
,
0001
0010
1000
0000
0100
0010
0110
0000
,
1001
0000
0100
0000
1001
0000
0000
0000
0001
0000
0000
0001
0000
0000
0001
0000
,
0100
0000
0000
0100
0000
0000
0100
0000
1000
0000
0000
1000
0000
0000
1000
0000
,
0010
0000
0000
0010
0000
0000
0010
0000
0001
0000
0100
0000
0001
0000
1000
0000
,
0001
0100
0001
1000
0020
0000
0000
0000
,
0000
0100
0130
0000
0100
0001
0100
0000
,
0010
1000
0010
0000
0100
0001
0100
0010
,
1000
0010
0100
0001
2000
0000
0000
0000
,
3100
0000
0002
0000
,
0013
0000
0000
0000
1000
0010
1000
0000
,
0001
0100
0001
0000
1000
0010
1000
0001
,
0100
0001
1000
0010
0200
0000
0301
0000
,
0020
0000
1030
0000
0000
1001
1001
1001
,
0010
0100
0010
0100
0010
0000
0000
0000
,
0010
1000
0100
0000
0100
0000
0000
0000
,
0100
0000
0001
0000
0010
0000
0000
0000
0010
0000
0000
1000
0000
0000
0001
0000
,
0100
0000
0000
0010
0000
0000
1000
0000
1010
0000
0000
0000
0101
0000
0000
0000
,
0011
0000
1100
0000
1000
0010
0100
0001
,
1000
0100
0010
0000
0001
0100
0010
1000
,
0001
0010
0100
0000
1100
0000
1000
0000
,
0011
0001
1100
1001
,
0011
0000
1001
0000
1000
0010
0100
0001
,
0010
0100
1000
0000
0001
0100
0010
1000
,
0100
0010
0001
0000
0101
0000
1000
0000
,
1010
0001
0101
1000
,
1001
0000
0110
0000
0010
1000
0010
0001
,
0010
0100
1000
0000
0100
0001
0100
1000
,
0100
0010
0001
0000
0011
0000
0010
0000
,
1010
1000
1100
0100
,
0101
0000
1001
0000
1000
0010
0001
0000
,
0001
0010
1000
0000
1000
0100
0010
0100
,
1000
0010
0100
0000
0001
0100
1000
0000
,
1000
0000
0000
0100
0000
0000
0001
0000
0000
0000
0000
0000
0001
0000
0000
0000
0010
0000
0100
0000
0000
0000
0100
0000
,
1000
1001
0220
0330
;

//---------------dance-double - ----------------
#NOTEDATA:;
#CHARTNAME:;
#STEPSTYPE:dance-double;
#DESCRIPTION:;
#CHARTSTYLE:;
#DIFFICULTY:Easy;
#METER:8;
#RADARVALUES:0.281051,0.330967,0.171399,0.074521,0.000000,264.000000,241.000000,23.000000,10.000000,0.000000,0.000000,0.000000,0.000000,0.000000,0.281051,0.330967,0.171399,0.074521,0.000000,264.000000,241.000000,23.000000,10.000000,0.000000,0.000000,0.000000,0.000000,0.000000;
#CREDIT:MILEN;
#DISPLAYBPM:150.000000;
#NOTES:
00000000
00000000
00000000
00000000
,
00000000
00000000
00000000
00000000
,
00000000
00000000
00000000
00000000
,
00000000
00000000
00000000
00000000
,
00000000
00000000
00000000
00001000
,
00000000
00010000
00000000
00001000
,
00010000
00001000
00000000
00010000
,
00000000
00001000
00000000
00010000
,
00001000
00011000
00000000
00010000
,
00000100
00010000
00000000
00000100
,
00010000
00000100
00010000
00000010
,
00001000
00000001
00000100
00000010
,
00010000
00011000
00000000
00001000
,
01000000
00001000
00000000
01000000
,
00001000
01000000
00001000
00100000
,
00010000
10000000
01000000
00100000
,
00001000
00011000
00000100
00000010
,
00000000
00000000
00000000
00000000
00000000
00000000
00000000
00000001
,
00000100
00000001
00000100
00000000
00000000
00000000
00001000
00000000
,
00000000
00010000
00000000
10000000
,
00000000
10010000
00000000
00010000
,
00000000
00001000
00000000
00000001
,
00000000
00001001
00000000
00001000
,
00010000
00100000
01000000
20000000
,
00000000
30000000
00000000
01000000
,
00010000
00100000
01100000
01000000
,
10000000
00100000
01100000
01000000
,
00010000
00100000
00001000
00000010
,
00000001
00001001
00000000
00000010
,
00001000
00000100
00000110
00000010
,
00000001
00000100
00000110
00000010
,
00001000
00000100
00010000
01000000
,
10000000
10010000
00000000
10000000
,
00010000
00001000
00000001
00001000
,
00010000
00001000
00011000
00000001
,
00001000
00010000
10000000
00010000
,
00001000
00010000
00011000
00200000
,
00000000
00300000
00000000
00002000
,
00000000
00003000
00000000
00020000
,
00000000
00030000
00000000
00000010
,
00000010
00000010
00000010
00001000
,
00000100
00000010
00000001
00001000
,
00000100
00000010
00001000
00010000
,
01000000
00100000
00010000
10000000
,
01000000
00100000
00010000
01000000
,
00001000
00010000
00000010
00001000
,
00000100
00000010
00000001
00000100
,
00001000
00010000
00100000
10000000
,
00000000
00000000
10000000
00000000
,
00010000
00000000
00001000
00000000
,
00000001
00000000
00001000
00010000
,
00001000
00010000
00022000
00033000
,
00000000
00001000
00010000
00000000
00100000
00000000
00000000
00000000
,
10000000
00000000
01000000
00000000
,
00010000
00000000
00001000
00000000
,
00000010
00000000
00000001
00000000
,
00000100
00000000
00001000
00000000
,
00010000
00000000
00100000
00000000
,
10000000
00000000
01000000
00010000
,
00001000
00000000
00000100
00000000
00000000
00000001
00000010
00000001
,
00000010
00001000
00011000
00000000
,
00000000
00000000
00011000
00000000
,
00000000
00000000
00011000
00000000
,
00011000
00000000
00010000
00001000
,
00022000
00033000
00010000
01000000
,
10000000
00100000
10000000
01000000
,
00010000
00001000
00010000
01000000
,
10000000
00100000
00010000
00001000
,
00011000
00000000
00001000
00000100
,
00000001
00000010
00000001
00000100
,
00001000
00010000
00001000
00000100
,
00000001
00000010
00001000
00010000
,
00011000
00000000
00001000
00010000
,
00100000
10000000
00010000
00001000
,
00000100
00000001
00001000
00010000
,
10000000
00010000
00001000
00000001
,
00001000
00011000
00010000
00000100
,
00000010
00000001
00000010
00000100
,
00001000
00100000
01000000
10000000
,
01000000
00100000
00010000
00001000
,
00000100
00000010
00002002
00003003
;

//---------------dance-double - ----------------
#NOTEDATA:;
#CHARTNAME:;
#STEPSTYPE:dance-double;
#DESCRIPTION:;
#CHARTSTYLE:;
#DIFFICULTY:Medium;
#METER:11;
#RADARVALUES:0.420512,0.481407,0.551457,0.134138,0.003726,395.000000,321.000000,74.000000,18.000000,0.000000,0.000000,0.000000,0.000000,0.000000,0.420512,0.481407,0.551457,0.134138,0.003726,395.000000,321.000000,74.000000,18.000000,0.000000,0.000000,0.000000,0.000000,0.000000;
#CREDIT:MILEN;
#DISPLAYBPM:150.000000;
#NOTES:
00000000
00000000
00000000
00000000
,
00000000
00000000
00000000
00000000
,
00000000
00000000
00000000
00000000
,
00000000
00000000
00000000
00000000
,
00000000
00001000
00010000
00001000
,
00011000
01000000
00100000
01000000
,
00011000
00000010
00000100
00000010
,
00011000
00100000
01000000
10010000
,
00011000
00001001
00011000
00010000
,
01000000
10000000
00100000
10000000
,
01000000
00010000
00001000
00100000
,
01000000
00000000
10000000
00000000
00100000
00000000
00010000
00001000
,
00010000
00001000
00020000
00000000
00031000
00000000
00000100
00000000
,
00000001
00000010
00000001
00000100
,
00001000
00010000
00000010
00000100
,
00000001
00000000
00000010
00000000
00001000
00010000
00001000
00010000
,
00002000
00023000
00031000
00101000
,
00010010
00000000
00010000
00001000
00000000
00000000
01001000
00000000
00000000
00020200
00000000
00000000
,
00000000
00000000
00030300
00000000
00010000
00001000
00010000
00000000
,
00000100
00000010
00000001
00001000
,
00000100
00010000
00011000
00001000
,
00100000
01000000
10000000
00010000
,
00100000
00001000
00011000
00000020
,
00000230
00002300
00023000
00230000
,
00000000
00000000
10300000
00000000
10000000
01000000
00100000
00000000
,
01000000
00000000
00010000
00000000
00001000
00000000
00010000
00001000
,
00000010
00000100
00001000
00001001
,
00001000
00011000
00001000
00001001
,
00000001
00000100
00001000
00000000
00011000
00000000
00000010
00000000
,
00000100
00000000
00001000
00000000
00010000
00000000
00001000
00010000
,
00100000
01000000
00010000
10010000
,
00010000
00011000
00010000
10010000
,
10000000
00100000
00010000
00000000
00011000
00000000
00100000
01000000
,
10000000
00000000
00010000
00100000
01000000
00000000
10000000
00100000
,
00010000
00000000
00001000
00010000
00011000
00000000
00000100
00000010
,
00000001
00000000
00001000
00000100
00000010
00000000
00001001
00000000
,
00011000
10010000
02000000
03100000
,
00100000
10000000
01000000
00010000
,
00001000
00000010
00000001
00000100
,
00001000
00010000
00100000
10010000
,
00011000
00001001
00011000
10010000
,
00000000
01100000
00000000
00011000
,
00000000
00000110
00000000
00001001
,
00000000
00000110
00000000
00011000
,
00000000
01100000
00000000
10010000
,
00000000
01100000
00000000
00011000
,
00000000
00000110
00000000
00001001
,
00000000
00011000
00000000
10010000
,
10000000
01000000
00010000
00000000
00001000
00100000
01000000
00000000
,
00100000
01000000
10000000
00000000
00100000
00010000
00001000
00000000
,
00010000
00001000
00000010
00000000
00000001
00000100
00001000
00000000
,
00000100
00001000
00010000
00000000
00012000
00000000
00000000
00000000
,
00000000
00103000
00100000
00000000
01000000
00000000
10000000
00000000
,
00100000
00010000
01000000
10000000
,
00100000
00010000
00002000
00000000
,
01003000
00000000
00020000
00000000
,
00030100
00000000
00000100
00001000
,
00000010
00000001
00000100
00001000
,
00000010
00000001
00000200
00001300
,
00020000
00000000
00130000
00000000
00000000
00100000
01000000
10000000
,
00100000
00010000
00001000
00010000
00011000
00000000
00000000
00000000
,
00000001
00000010
00000001
00000000
00011000
00000000
00000000
00000000
,
10000000
00100000
10000000
00000000
00011000
00000000
00000000
00000000
,
00011000
00000000
00011000
10010000
,
00011000
00000000
00001001
00000000
00000001
00000100
00001000
00000000
,
00010000
00100000
10000000
00000000
10000000
01000000
00010000
00000000
,
00001000
00000010
00000001
00000000
00000101
00000000
00001000
00000000
,
01010000
00001000
00000101
00001100
,
00011000
00000000
01010000
00000000
10000000
01000000
00010000
00000000
,
00001000
00000010
00000001
00000000
00000001
00000100
00001000
00000000
,
00010000
00100000
10000000
00000000
11000000
00000000
00010000
00000000
,
00001100
00010000
11000000
01010000
,
00011000
00000000
00001100
00000000
00000001
00000010
00000100
00000000
,
00000100
00001000
00010000
00000000
00001000
00010000
00100000
00000000
,
00100000
01000000
10000000
00000000
01100000
00000000
00010000
00000000
,
00000110
00001000
01100000
00011000
,
00000110
00001001
00000001
00001000
,
00010000
10000000
00010000
00001000
,
00010000
10010000
10000000
00010000
,
00001000
00000001
00001000
00010000
,
00001000
00001001
00000220
00000330
;
