#VERSION:0.83;
#TITLE:Halcyon;
#SUBTITLE:;
#ARTIST:xi;
#TITLETRANSLIT:;
#SUBTITLETRANSLIT:;
#ARTISTTRANSLIT:;
#GENRE:VARIETY;
#ORIGIN:;
#CREDIT:MUINELIM;
#BANNER:Halcyon.png;
#BACKGROUND:Halcyon-bg.png;
#PREVIEWVID:;
#JACKET:Halcyon-jacket.png;
#CDIMAGE:;
#DISCIMAGE:;
#LYRICSPATH:;
#CDTITLE:;
#MUSIC:Halcyon.ogg;
#OFFSET:0.000000;
#SAMPLESTART:97.475060;
#SAMPLELENGTH:11.268898;
#SELECTABLE:YES;
#BPMS:0.000=95.000,
29.000=90.000,
30.000=85.000,
31.000=80.000,
32.000=75.000,
33.000=70.000,
34.000=60.000,
35.000=40.000,
36.000=191.000;
#STOPS:36.000=0.628;
#DELAYS:;
#WARPS:;
#TIMESIGNATURES:0.000=4=4;
#TICKCOUNTS:0.000=4;
#COMBOS:0.000=1;
#SPEEDS:0.000=1.000=0.000=0;
#SCROLLS:0.000=1.000;
#FAKES:;
#LABELS:0.000=Song Start;
#BGCHANGES:;
#KEYSOUNDS:;
#ATTACKS:
;

//---------------dance-single - ----------------
#NOTEDATA:;
#CHARTNAME:;
#STEPSTYPE:dance-single;
#DESCRIPTION:;
#CHARTSTYLE:;
#DIFFICULTY:Hard;
#METER:16;
#RADARVALUES:0.758951,0.878862,0.566364,0.303125,0.446710,666.000000,595.000000,71.000000,38.000000,0.000000,0.000000,0.000000,0.000000,0.000000,0.758951,0.878862,0.566364,0.303125,0.446710,666.000000,595.000000,71.000000,38.000000,0.000000,0.000000,0.000000,0.000000,0.000000;
#CREDIT:MILEN;
#NOTES:
0000
0000
0000
0000
,
0000
0000
0000
0000
,
0000
0000
0000
0000
,
0000
0000
0000
0000
,
0000
0000
0000
0000
0000
0000
0000
0000
0000
0000
1001
0000
1000
0100
0010
0001
,
2000
0000
3020
0000
,
0032
0000
0000
0000
0203
0000
0000
0000
2300
0000
0000
0000
3001
0010
0100
1000
,
0002
0000
0000
0000
0000
0000
0000
0000
0023
0000
0000
0000
0000
0000
0000
0000
2030
0000
0000
0000
0000
0000
0000
0000
0000
0000
3100
0000
0000
0001
0000
0000
,
0020
0000
0200
0000
,
0330
0000
1000
0001
1000
0100
0010
0001
1000
0000
1000
0000
0000
0000
1010
0000
,
0000
0011
0000
1100
0000
0101
0000
1001
,
0000
0000
1000
0000
0001
0010
0100
1000
0001
0000
0100
0000
0010
0000
0010
0000
,
0000
1010
0000
1100
0000
0011
0000
0101
,
0000
0000
0110
0000
0000
0000
2002
0000
0000
0000
0000
0000
3003
0000
1000
0100
,
1000
0010
0100
0001
0000
0011
0000
1100
,
0000
1000
1000
0100
0010
0010
0001
0100
,
0100
0010
1000
1001
0000
0001
0010
0100
,
1000
0000
0001
1000
0001
0010
0100
1000
0001
0000
0001
0000
0000
0000
0101
0000
,
0000
1100
0000
0011
0000
1010
0000
1001
,
0000
0000
0001
0000
1000
0100
0010
0001
1000
0000
0010
0000
0100
0000
0100
0000
,
0000
0101
0000
0011
0000
1100
0000
1010
,
0000
0000
1001
0000
0000
0000
0010
0100
0020
0000
0000
0000
1000
0000
0000
0000
,
0130
0001
0010
0200
0000
0001
0000
1000
,
0000
0310
0010
0100
1000
0010
1000
0010
,
0100
0000
0001
0000
0100
0000
0001
0000
0010
0100
0010
0000
0100
1000
0100
0000
,
0010
0001
0010
0001
0020
0000
0000
0000
0031
0100
0010
0000
0110
0000
0000
0000
,
0010
1000
0100
1100
0000
0101
0000
0011
,
0000
0001
0010
0100
1000
0010
0001
1000
,
0100
0001
0010
0100
1000
0010
0100
0001
,
1000
0100
1000
0100
0010
0001
0010
0001
0200
0000
0300
0000
0110
0000
0010
1000
,
0100
0000
1000
0000
0001
0000
0010
0000
0001
0100
0001
0000
1000
0100
1000
0000
,
0001
0010
0001
0000
1000
0010
1000
0000
0100
0000
0010
0000
0110
0000
0000
0000
,
0001
0000
0100
0000
0010
1000
0010
1000
0100
0010
0100
0000
0010
0001
0010
0000
,
0100
1000
0000
0010
1000
0000
0100
0010
0002
0000
0000
0000
1003
0000
0010
0000
,
0100
0000
0001
0000
0010
0000
0100
0000
1000
0010
0000
0010
0100
0000
0100
0001
,
0000
0001
1000
0000
0100
0010
0100
0010
0001
0000
0000
0000
1010
0000
0000
0000
,
1000
0010
0100
0001
0001
0010
1000
0001
,
0100
1000
0010
0100
0001
0000
0011
0000
,
1000
0000
0010
0000
0001
0000
0100
0000
0000
0000
1000
0000
0010
0000
0100
0001
,
0010
0000
0100
1000
0010
0000
0100
0001
1000
0000
0000
0000
0110
0000
0000
0000
,
0001
0000
1000
0000
0100
0010
0100
0010
0001
0000
0000
0000
0100
0010
1000
0000
,
0010
0100
0001
0000
0010
0100
1000
0000
0010
0000
0000
0000
0101
0000
0000
0000
,
1000
0000
0100
0000
0010
0000
0001
0000
0100
0000
0010
1000
0000
1000
0001
0000
,
0001
0100
0000
0100
0010
0000
1000
0001
0200
0000
0000
0000
0301
1000
0020
0000
,
0100
0000
0000
0000
1030
0100
1000
0100
0010
0000
0000
0000
0001
0000
0001
0000
,
0100
0100
1000
1000
0010
0000
0110
0000
,
1000
0010
0100
0010
1000
0000
0000
0000
0110
0000
0000
0000
0001
0010
0100
0010
,
0001
0000
0000
0000
0110
0000
1000
0010
0100
0000
0100
0000
0001
0000
0001
0000
,
1000
0000
1000
0100
0010
0000
0001
0000
2000
0000
0000
0000
0002
0000
0000
0000
,
0000
3003
1001
0100
,
0010
0100
0101
0010
,
1010
0000
0000
1000
0000
0000
0001
0000
0011
0000
0000
0000
0100
0000
0000
0000
,
1100
0000
1000
1000
0110
0001
0010
0100
,
0001
1000
0010
0100
1000
0000
0110
0000
,
1001
0100
0010
1000
0100
0001
1000
0010
,
0002
0000
0000
0203
0000
0000
0320
0000
2030
0000
0000
0000
3001
0000
0001
0000
,
0010
0000
1000
0000
0010
0000
0001
0000
0100
0010
1000
0000
0010
0000
0100
0000
,
0001
0010
0000
0010
0100
0000
0100
1000
0001
0000
0100
0000
1000
0000
0100
0000
,
0001
0000
0001
0000
0010
0000
1000
0000
0010
0000
0001
0000
0100
0010
1000
0000
,
0010
0100
0001
0000
0010
0100
1000
0000
0001
0010
0100
0000
1000
0000
0001
0100
,
0010
0000
1000
0000
0001
0010
0100
0000
1000
0000
0010
0000
0001
0000
0010
0000
,
1000
0100
1000
0100
0010
0100
0010
0100
0010
0000
0001
0000
0100
0000
1000
0000
,
0100
0001
0010
0100
1000
0010
0001
0010
,
1000
0000
0100
0000
0010
0000
0001
0000
1000
0000
0010
0100
0001
0000
0010
0100
,
1000
0000
0001
0010
0100
0000
1000
0010
0100
0000
1000
0000
0100
0000
0001
0000
,
1000
0010
0001
1000
0220
0000
0000
0000
,
0330
0000
1001
0000
0220
0030
0301
0010
,
0000
1010
0000
1100
0000
0101
0000
0011
,
0000
0000
0010
0000
0100
1000
0010
0100
0002
0000
0000
0000
1003
0000
0010
0000
,
0000
0011
0000
0101
0000
1100
0000
1010
,
0000
0000
0110
0000
0000
0000
2002
0000
0000
0000
3003
0000
0001
0000
0100
1000
,
0100
0001
0010
1100
0000
1010
0000
0011
,
0000
0101
2000
0000
3001
0001
0010
0100
,
0100
1000
0010
0110
0000
0001
1001
0100
,
0010
0000
0001
0010
0001
0010
0100
1000
0100
0000
1000
0000
0010
1000
0001
0000
,
0100
0001
1000
0000
0010
1000
0001
0000
0100
0010
1000
0000
0100
0010
0001
0000
,
0100
0010
1000
0000
0100
0010
0100
0010
0001
0000
0100
0010
1000
0010
0100
0000
,
0001
0000
0010
0100
1000
0100
0020
0000
0030
0000
0011
0000
0000
0000
1100
0000
,
0000
0000
1010
0000
0000
0000
0010
0100
0001
0000
0100
0000
1000
0000
0100
0000
,
0001
0100
0010
1010
1000
0010
0001
0010
,
1000
0010
0100
0101
0001
0010
1000
0001
,
0100
0000
1000
0000
0010
0100
0001
0100
0010
1000
0001
0000
0100
0001
1000
0000
,
0001
0010
0100
1000
0020
0000
0000
0000
0200
0000
0330
0000
2002
0000
0000
0000
,
0000
0000
0000
0000
,
0000
0000
0000
3003
;

//---------------dance-double - ----------------
#NOTEDATA:;
#CHARTNAME:;
#STEPSTYPE:dance-double;
#DESCRIPTION:;
#CHARTSTYLE:;
#DIFFICULTY:Hard;
#METER:17;
#RADARVALUES:0.754393,0.811257,0.582318,0.303125,0.426767,662.000000,589.000000,73.000000,38.000000,0.000000,0.000000,0.000000,0.000000,0.000000,0.754393,0.811257,0.582318,0.303125,0.426767,662.000000,589.000000,73.000000,38.000000,0.000000,0.000000,0.000000,0.000000,0.000000;
#CREDIT:MILEN;
#NOTES:
00000000
00000000
00000000
00000000
,
00000000
00000000
00000000
00000000
,
00000000
00000000
00000000
00000000
,
00000000
00000000
00000000
00000000
,
00000000
00000000
00000000
00000000
00000000
00000000
00000000
00000000
00000000
00000000
00011000
00000000
00001000
00010000
00100000
01000000
,
00020000
00000000
20030000
00000000
,
30200000
00000000
00000000
00000000
00320000
00000000
00000000
00000000
00032000
00000000
00000000
00000000
00013000
00001000
00000100
00000010
,
00002000
00000000
00000000
00000000
00000000
00000000
00000000
00000000
00003002
00000000
00000000
00000000
00000000
00000000
00000000
00000000
00000023
00000000
00000000
00000000
00000000
00000000
00000000
00000000
00000000
00000000
00001030
00000000
00000000
00010000
00000000
00000000
,
00200000
00000000
20000000
00000000
,
30300000
00000000
10000000
01000000
10000000
01000000
00100000
00010000
10000000
00000000
10000000
00000000
00000000
00000000
10100000
00000000
,
00000000
00110000
00000000
00001100
00000000
00000101
00000000
00001001
,
00000000
00000000
00000001
00000000
00000001
00000010
00000100
00001000
00000001
00000000
00000100
00000000
00000010
00000000
00000010
00000000
,
00000000
00001010
00000000
00010100
00000000
00101000
00000000
01010000
,
00000000
00000000
10100000
00000000
00000000
00000000
20020000
00000000
00000000
00000000
00000000
00000000
30030000
00000000
10000000
01000000
,
10000000
00100000
00010000
00001000
00000000
00101000
00000000
00010010
,
00000000
00001000
00001000
00000100
00000010
00001000
00010000
01000000
,
00100000
00001000
00010000
00011000
00000000
00001000
00000100
00000010
,
00001000
00000000
00000001
00000100
00000001
00000100
00000010
00001000
00000001
00000000
00000001
00000000
00000000
00000000
00000011
00000000
,
00000000
00001010
00000000
01010000
00000000
11000000
00000000
10010000
,
00000000
00000000
10000000
00000000
10000000
00100000
01000000
00010000
10000000
00000000
01000000
00000000
00100000
00000000
00100000
00000000
,
00000000
00110000
00000000
01001000
00000000
00010010
00000000
00001100
,
00000000
00000000
00001001
00000000
00000000
00000000
00000010
00000100
00000020
00000000
00000000
00000000
00001000
00000000
00000000
00000000
,
00010030
00010000
00100000
02000000
00000000
10000000
00000000
00010000
,
00000000
03001000
00001000
00010000
00000100
00000010
00000001
00001000
,
00000010
00000000
00010000
00000000
00001000
00000000
00100000
00000000
01000000
10000000
01000000
00000000
00100000
00010000
00100000
00000000
,
00001000
00010000
00001000
00010000
00002000
00000000
00000000
00000000
00003100
00000010
00000100
00000000
00000101
00000000
00000000
00000000
,
00000001
00000010
00001000
00011000
00000000
01010000
00000000
11000000
,
00000000
10000000
00100000
01000000
10000000
00010000
00100000
00001000
,
00000010
00010000
00001000
00000100
00010000
01000000
00001000
00000100
,
00000001
00000010
00000001
00000010
00000100
00001000
00000100
00001000
00000020
00000000
00000030
00000000
00000110
00000000
00000001
00000100
,
00001000
00000000
00010000
00000000
00100000
00000000
10000000
00000000
01000000
00100000
01000000
00000000
00100000
00010000
00100000
00000000
,
00001000
00010000
00001000
00000000
00000100
00000010
00000100
00000000
00000001
00000000
00000010
00000000
00001010
00000000
00000000
00000000
,
00001000
00000000
00010000
00000000
01000000
10000000
01000000
10000000
00100000
01000000
00100000
00000000
00010000
00001000
00010000
00000000
,
00010100
00000000
00000000
00001100
00000000
00000000
00001000
00000010
00000002
00000000
00000000
00000000
00000013
00000000
00001000
00000000
,
00000100
00000000
00000010
00000000
00010000
00000000
00100000
00000000
01000000
10000000
00000000
00100000
00010000
00000000
00100000
01000000
,
00000000
00010000
00100000
00000000
01000000
00010000
00001000
00010000
00001000
00000000
00000000
00000000
00010100
00000000
00000000
00000000
,
00000010
00000001
00000100
00010000
00001000
00000100
00000010
00010000
,
01000000
00100000
00001000
00000010
00010000
00000000
00101000
00000000
,
01000000
00000000
10000000
00000000
00100000
00000000
00010000
00000000
00000000
00000000
10000000
00000000
01000000
00000000
00010000
00100000
,
01000000
00000000
00010000
00001000
00000010
00000000
00000001
00000100
00001000
00000000
00000000
00000000
00011000
00000000
00000000
00000000
,
00100000
00000000
01000000
00000000
10000000
00100000
10000000
00100000
00010000
00000000
00000000
00000000
00100000
01000000
00010000
00000000
,
00100000
01000000
10000000
00000000
00100000
00010000
00001000
00000000
00000100
00000000
00000000
00000000
00000011
00000000
00000000
00000000
,
00001000
00000000
00000010
00000000
00000001
00000000
00001000
00000000
00000100
00000000
00000001
00000010
00000000
00000100
00010000
00000000
,
00001000
00000100
00000000
00000010
00010000
00000000
00001000
00010000
02000000
00000000
00000000
00000000
13000000
00100000
01000000
00000000
,
00020000
00000000
00000000
00000000
00130000
01000000
00100000
01000000
10000000
00000000
00000000
00000000
00100000
00000000
00001000
00000000
,
00000010
00010000
00001000
00000100
00010000
00000000
01100000
00000000
,
10000000
01000000
10000000
01000000
00010000
00000000
00000000
00000000
00011000
00000000
00000000
00000000
00001000
00000010
00001000
00000010
,
00000001
00000000
00000000
00000000
00001100
00000000
00000010
00000100
00000010
00000000
00010000
00000000
00001000
00000000
00100000
00000000
,
01000000
00000000
10000000
00010000
10000000
00000000
00100000
00000000
00020000
00000000
00000000
00000000
00002000
00000000
00000000
00000000
,
00000000
00033000
00011000
01000000
,
10000000
00100000
00011000
00000010
,
00000101
00000000
00000000
00000100
00000000
00000000
00001000
00000000
00011000
00000000
00000000
00000000
01000000
00000000
00000000
00000000
,
10100000
00000000
10000000
10000000
01100000
00010000
00001000
00100000
,
01000000
00010000
00001000
00000010
00000100
00000000
00001100
00000000
,
00000011
00001000
00000100
00000010
00001000
00010000
01000000
00100000
,
00020000
00000000
00000000
02030000
00000000
00000000
03200000
00000000
20300000
00000000
00000000
00000000
30010000
00000000
00010000
00000000
,
01000000
00000000
00001000
00000000
00010000
00000000
00000100
00000000
00000010
00000001
00000100
00000000
00001000
00000000
00010000
00000000
,
00100000
10000000
00000000
01000000
00100000
00000000
01000000
00010000
00001000
00000000
00100000
00000000
10000000
00000000
00100000
00000000
,
00001000
00000000
00001000
00000000
01000000
00000000
10000000
00000000
01000000
00000000
00001000
00000000
00010000
00100000
01000000
00000000
,
00100000
10000000
01000000
00000000
00100000
00010000
01000000
00000000
00001000
00010000
00000100
00000000
00001000
00000000
00000100
00010000
,
00001000
00000000
00000010
00000000
00001000
00010000
00000100
00000000
00000010
00000000
00000001
00000000
00000100
00000000
00001000
00000000
,
00010000
00001000
00010000
00001000
00100000
00010000
00100000
00010000
01000000
00000000
10000000
00000000
01000000
00000000
00001000
00000000
,
00010000
00100000
01000000
00010000
00100000
00001000
00000010
00000001
,
00000010
00000000
00001000
00000000
00010000
00000000
00000100
00000000
00000010
00000000
00000001
00000100
00001000
00000000
00000100
00001000
,
00010000
00000000
00001000
00010000
00100000
00000000
00010000
00100000
10000000
00000000
01000000
00000000
00100000
00000000
00010000
00000000
,
00001000
00000100
00000010
00000001
00002002
00000000
00000000
00000000
,
00003003
00000000
00010010
00000000
00022000
00030000
00103000
01000000
,
00000000
11000000
00000000
00110000
00000000
00001010
00000000
00000101
,
00000000
00000000
00001000
00000000
00000100
00000010
00000001
00001000
00000200
00000000
00000000
00000000
00000310
00000000
00000001
00000000
,
00000000
00000101
00000000
00001010
00000000
00110000
00000000
11000000
,
00000000
00000000
01100000
00000000
00000000
00000000
20020000
00000000
00000000
00000000
30030000
00000000
00010000
00000000
01000000
10000000
,
01000000
00100000
00010000
00011000
00000000
01001000
00000000
00010100
,
00000000
00101000
00200000
00000000
01300000
01000000
10000000
00100000
,
00100000
00010000
00001000
00000101
00000000
00000001
00001010
00001000
,
00000100
00000000
00000010
00000001
00000010
00000001
00001000
00000100
00001000
00000000
00000100
00000000
00000010
00001000
00010000
00000000
,
00001000
00000000
00100000
00000000
00010000
01000000
10000000
00000000
01000000
00000000
00010000
00000000
00100000
01000000
10000000
00000000
,
00100000
00000000
00010000
00000000
00001000
00010000
00001000
00010000
00000010
00000000
00001000
00000100
00001000
00000000
00010000
00000000
,
00100000
00000000
01000000
00100000
01000000
00100000
02000000
00000000
03000000
00000000
10010000
00000000
00000000
00000000
00011000
00000000
,
00000000
00000000
00001001
00000000
00000000
00000000
00000010
00000100
00000001
00000000
00000010
00000000
00001000
00000000
00100000
00000000
,
00010000
01000000
00100000
10100000
10000000
01000000
00001000
00000100
,
00000010
00000001
00000100
00001010
00001000
00000100
00000010
00010000
,
01000000
00000000
00100000
00000000
10000000
01000000
10000000
01000000
00100000
00010000
00100000
00000000
00010000
00001000
00010000
00000000
,
00001000
00000100
00000010
00000001
00000200
00000000
00000000
00000000
00000020
00000000
00000330
00000000
00002002
00000000
00000000
00000000
,
00000000
00000000
00000000
00000000
,
00000000
00000000
00000000
00003003
;

//---------------dance-single - ----------------
#NOTEDATA:;
#CHARTNAME:;
#STEPSTYPE:dance-single;
#DESCRIPTION:;
#CHARTSTYLE:;
#DIFFICULTY:Beginner;
#METER:4;
#RADARVALUES:0.167516,0.236617,0.015954,0.015954,0.000000,147.000000,145.000000,2.000000,2.000000,0.000000,0.000000,0.000000,0.000000,0.000000,0.167516,0.236617,0.015954,0.015954,0.000000,147.000000,145.000000,2.000000,2.000000,0.000000,0.000000,0.000000,0.000000,0.000000;
#CREDIT:MILEN;
#NOTES:
0000
0000
0000
0000
,
0000
0000
0000
0000
,
0000
0000
0000
0000
,
0000
0000
0000
0000
,
0000
0000
0000
0000
,
1000
0000
0000
0000
,
0001
0000
0000
0000
,
0100
0000
0010
0000
,
1000
0000
0001
0000
,
0000
0000
0100
0000
,
0010
0000
1000
1000
,
1000
0000
0010
0000
,
0100
0000
0001
0001
,
0001
0000
0100
0000
,
0010
0000
1000
0000
,
0001
0000
0010
0000
,
0010
0000
0010
0000
,
0000
0000
0001
0000
,
1000
0000
0010
0010
,
0010
0000
1000
0000
,
0001
0000
0100
0100
,
0100
0000
0001
0000
,
1000
0000
0100
0000
,
0010
0000
0001
0000
,
0001
0000
0001
0000
,
0000
0000
0100
0100
,
0000
0000
1000
0000
,
0010
0000
0001
0000
,
0100
0000
0010
0000
,
1000
0000
0100
0000
,
0010
0000
0001
0001
,
0001
0000
1000
0000
,
0001
0000
1000
1000
,
1000
0000
0010
0000
,
0000
0000
0100
0000
,
0001
0000
0010
0000
,
0000
0000
0100
0000
,
1000
0000
0010
0000
,
0000
0000
0100
0000
,
0001
0000
1000
0000
,
0000
0000
0010
0000
,
0100
0000
0010
0000
,
1000
0000
0100
0000
,
0010
0000
0001
0000
,
0000
0000
1000
0000
,
0001
0000
0100
0000
,
1000
0000
0001
0000
,
1000
0000
0010
0000
,
0010
0000
0001
0001
,
0000
0000
1000
0000
,
0000
0000
0100
0000
,
0000
0000
0010
0000
,
0000
0000
0001
0000
,
0000
0000
0100
0000
,
0000
0000
0010
0000
,
0000
0000
1000
0000
,
0000
0000
0001
0000
,
0000
0000
0010
0000
,
0100
0000
0010
0000
,
0100
0000
1000
0000
,
0001
0000
1000
0000
,
0001
0000
0010
0000
,
0100
0000
1000
0000
,
0001
0000
0010
0000
,
0010
0000
0010
0010
,
0010
0010
0010
0000
,
0000
0000
1001
0000
,
0000
0000
1000
0000
,
0100
0000
0001
0000
,
0000
0000
0001
0000
,
0010
0000
1000
0000
,
0000
0000
0001
0000
,
1000
0000
0010
0000
,
0100
0000
0010
0000
,
0100
0100
0100
0000
,
0001
0000
0010
0000
,
1000
0000
0010
0000
,
0001
0000
0100
0000
,
1000
0000
0100
0000
,
0100
0000
0001
0000
,
0001
0000
0010
0000
,
0010
0000
1000
1000
,
1000
1000
0000
2002
,
0000
0000
0000
0000
,
0000
0000
0000
3003
;

//---------------dance-single - ----------------
#NOTEDATA:;
#CHARTNAME:;
#STEPSTYPE:dance-single;
#DESCRIPTION:;
#CHARTSTYLE:;
#DIFFICULTY:Easy;
#METER:9;
#RADARVALUES:0.330474,0.405629,0.143585,0.135608,0.000000,290.000000,272.000000,18.000000,17.000000,0.000000,0.000000,0.000000,0.000000,0.000000,0.330474,0.405629,0.143585,0.135608,0.000000,290.000000,272.000000,18.000000,17.000000,0.000000,0.000000,0.000000,0.000000,0.000000;
#CREDIT:MILEN;
#NOTES:
0000
0000
0000
0000
,
0000
0000
0000
0000
,
0000
0000
0000
0000
,
0000
0000
0000
0000
,
0000
0000
0000
0000
,
1000
0000
0001
0000
,
1000
0100
0010
0001
,
0100
0000
0010
0000
,
2000
0000
0002
0000
,
3003
0000
0000
0000
1000
0000
0000
0100
,
0000
1000
0000
0100
0000
1000
0000
0001
,
0000
1000
0000
0000
0001
0000
0000
0010
,
0000
0001
0000
0010
0000
0001
0000
1000
,
0000
0001
0000
0010
0000
0000
0001
0000
,
0100
0010
0110
1000
,
0100
0010
0110
0001
,
0100
1000
0020
0030
,
0001
0000
1000
0000
0100
0000
0000
1000
,
0000
0010
0000
1000
0000
0010
0000
0100
,
0000
0010
0000
0000
0100
0000
0000
0001
,
0000
0100
0000
0001
0000
0100
0000
0010
,
0000
0100
0000
1000
0100
0000
0001
0000
,
0010
0001
1001
1000
,
0100
1000
1001
0010
,
0100
0010
0220
0000
,
0000
0330
0000
1001
,
0000
1000
0100
0010
,
0100
1000
0100
0000
,
0010
0001
0010
0100
,
0010
0001
0010
0000
0100
0000
0110
0000
,
1000
0100
0010
0001
,
0010
0001
0101
1000
,
0100
1000
1100
0001
,
0010
0001
2000
0000
,
3100
0000
1000
0100
,
0010
0001
1000
0000
,
0100
0000
0001
0010
,
0100
1000
0001
0000
,
0010
0000
1000
0001
,
1000
0010
0200
0310
,
1000
0100
0020
0130
,
1000
0100
0010
0011
,
0000
0001
0100
1000
,
0100
0001
0010
0000
,
0100
1000
0010
0001
,
0010
1000
0100
0000
,
0010
0100
1000
0001
,
0010
0000
0100
0000
1000
0001
1000
0000
,
0001
1000
0110
2002
,
0000
3003
1000
0000
,
1000
0000
0010
0000
,
0010
0000
0001
0000
,
0001
0000
0100
0000
,
0100
0000
1000
0000
,
0100
0000
0001
0000
,
0010
0000
1000
0000
,
0001
0000
0100
0100
,
0010
0010
0100
0001
,
0010
0001
0100
0001
,
0010
0000
0100
1000
,
0010
1000
0100
1000
,
0010
0000
0100
0001
,
1000
0100
1000
0001
,
0010
0001
1000
0010
,
0100
0001
1000
0100
,
0010
0001
2002
0000
,
3003
0000
1001
0000
0100
0000
0000
1000
,
0000
0010
0000
0100
0000
0001
0000
1000
,
0000
0100
0000
0010
0100
0000
0000
1000
,
0000
0001
0000
0100
0000
0010
0000
1000
,
0000
0001
0000
0010
0100
0000
0010
0000
,
0001
0100
0101
0010
,
1000
0000
0100
0000
1100
0000
0000
1001
,
0000
0002
0103
0100
,
0010
0000
1000
0000
0001
0000
0100
0010
,
0100
0000
0010
0100
0010
0000
1000
0000
,
0100
0000
0010
0000
0001
0000
1000
0010
,
1000
0000
0001
0100
0000
0100
0000
1000
,
0000
0100
0000
0010
0100
0000
0010
0000
,
1000
0100
0020
0031
,
0010
0100
2000
3001
,
1000
0000
0100
0000
0010
0001
0010
0000
,
0100
1000
0100
1000
0000
0000
2002
0000
,
0000
0000
0000
0000
,
0000
0000
0000
3003
;

//---------------dance-double - ----------------
#NOTEDATA:;
#CHARTNAME:;
#STEPSTYPE:dance-double;
#DESCRIPTION:;
#CHARTSTYLE:;
#DIFFICULTY:Easy;
#METER:9;
#RADARVALUES:0.320218,0.405629,0.111677,0.103701,0.000000,281.000000,267.000000,14.000000,13.000000,0.000000,0.000000,0.000000,0.000000,0.000000,0.320218,0.405629,0.111677,0.103701,0.000000,281.000000,267.000000,14.000000,13.000000,0.000000,0.000000,0.000000,0.000000,0.000000;
#CREDIT:MILEN;
#NOTES:
00000000
00000000
00000000
00000000
,
00000000
00000000
00000000
00000000
,
00000000
00000000
00000000
00000000
,
00000000
00000000
00000000
00000000
,
00000000
00000000
00000000
00000000
,
10000000
00000000
00010000
00000000
,
00100000
00001000
00010000
00000100
,
00001000
00000000
00000001
00000000
,
00000200
00000000
00000020
00000000
,
00000330
00000000
00000000
00000000
00000001
00000000
00000000
00000100
,
00000000
00001000
00000000
00000100
00000000
00001000
00000000
00010000
,
00000000
00001000
00000000
00000000
00010000
00000000
00000000
00100000
,
00000000
00010000
00000000
00100000
00000000
00010000
00000000
00100000
,
00000000
10000000
00000000
01000000
00000000
00000000
00010000
00000000
,
00001000
00100000
00101000
00001000
,
00010000
00000010
00010010
00010000
,
00001000
00000100
00000002
00000003
,
00000010
00000000
00001000
00000000
00010000
00000000
00000000
00100000
,
00000000
10000000
00000000
00100000
00000000
10000000
00000000
01000000
,
00000000
10000000
00000000
00000000
01000000
00000000
00000000
00010000
,
00000000
00001000
00000000
00010000
00000000
00001000
00000000
00000010
,
00000000
00000001
00000000
00000010
00000100
00000000
00000010
00000000
,
00000001
00000100
00001000
00010000
,
00001000
00010000
01000000
10000000
,
00100000
00010000
00022000
00000000
,
00000000
00033000
00000000
00011000
,
00000000
00010000
00001000
00010000
,
00001000
00100000
00010000
00000000
,
01000000
00010000
01000000
00100000
,
10000000
01000000
00010000
00011000
,
00001000
00000100
00001000
00000100
,
00000001
00000010
00000110
00000100
,
00000010
00000001
00000100
00001000
,
00010000
00100000
20000000
00000000
,
30010000
00000000
00010000
01000000
,
00001000
00010000
00100000
00000000
,
00001000
00000000
00000010
00010000
,
00001000
00000100
00000001
00000000
,
00000010
00000000
00001000
00010000
,
00100000
01000000
00100000
10000000
,
01000000
00100000
01000000
00010000
,
00001000
00000010
00000001
00001001
,
00000000
00001000
00000010
00010000
,
00100000
01000000
00100000
00000000
,
10000000
01000000
00010000
00000100
,
00001000
00000100
00000010
00000000
,
00000001
00000100
00001000
00010000
,
00100000
10000000
01000000
00100000
,
00010000
01000000
00001000
00022000
,
00000000
00033000
00010000
00000000
,
00001000
00000000
00000100
00000000
,
00000010
00000000
00000100
00000000
,
00001000
00000000
00010000
00000000
,
00100000
00000000
01000000
00000000
,
00100000
00000000
00010000
00000000
,
00001000
00000000
00000010
00000000
,
00000001
00000000
00000100
00001000
,
00010000
00100000
10000000
01000000
,
00100000
00010000
00100000
01000000
,
00100000
00000000
00001000
00010000
,
00100000
00010000
00001000
00010000
,
00100000
00000000
00010000
00001000
,
00000010
00000001
00000100
00000001
,
00000010
00001000
00010000
01000000
,
10000000
00100000
10000000
01000000
,
00010000
00001000
00022000
00000000
,
00033000
00000000
00011000
00000000
01000000
00000000
00000000
00010000
,
00000000
00100000
00000000
01000000
00000000
00100000
00000000
01000000
,
00000000
10000000
00000000
00100000
00100000
00000000
00000000
00010000
,
00000000
00001000
00000000
00000100
00000000
00000010
00000000
00000100
,
00000000
00000010
00000000
00001000
00001000
00000000
00000001
00000000
,
00000100
00001000
00011000
00010000
,
00100000
00000000
10000000
00000000
01000000
00000000
00000000
01000000
,
00000000
00200000
01300000
01000000
,
00010000
00001000
00000010
00000001
,
00001000
00000100
00000010
00001000
,
01000000
00100000
00010000
00001000
,
00100000
00000000
01000000
10000000
00000000
00100000
00000000
00100000
,
00000000
00010000
00000000
00001000
00010000
00000000
00000100
00000000
,
00000010
00000001
00000101
00000010
,
00001000
00000100
00010100
00001000
,
00100000
00000000
00010000
00000000
01000000
00100000
01000000
00000000
,
00001000
00010000
00001000
00010000
00000000
00000000
00022000
00000000
,
00000000
00000000
00000000
00000000
,
00000000
00000000
00000000
00033000
;

//---------------dance-single - ----------------
#NOTEDATA:;
#CHARTNAME:;
#STEPSTYPE:dance-single;
#DESCRIPTION:;
#CHARTSTYLE:;
#DIFFICULTY:Medium;
#METER:13;
#RADARVALUES:0.540154,0.642245,0.247286,0.167516,0.059827,474.000000,443.000000,31.000000,21.000000,0.000000,0.000000,0.000000,0.000000,0.000000,0.540154,0.642245,0.247286,0.167516,0.059827,474.000000,443.000000,31.000000,21.000000,0.000000,0.000000,0.000000,0.000000,0.000000;
#CREDIT:MILEN;
#NOTES:
0000
0000
0000
0000
,
0000
0000
0000
0000
,
0000
0000
0000
0000
,
0000
0000
0000
0000
,
0000
0000
0000
0000
0000
0000
0000
0000
0000
0000
0001
0000
1000
0100
1000
0100
,
2000
0000
3020
0000
,
0230
0000
0000
0000
0302
0000
0000
0000
2003
0000
0000
0000
3001
0010
0001
0010
,
0002
0000
0203
0000
0320
0000
0000
1000
,
2030
0000
0002
0000
,
3003
0000
1000
0100
0010
0001
0010
0001
,
0000
0100
0000
1000
0000
0100
0000
0001
,
0000
0010
0100
1000
0010
0100
0001
0100
,
0000
0001
0000
0010
0000
1000
0000
0010
,
0000
0001
0000
0200
0000
0000
0000
0310
,
1000
0010
0100
0001
0000
0010
0001
0100
,
0000
0010
1000
0100
0010
0000
0100
1100
,
0000
1000
0010
0100
0000
0001
0010
0000
,
0001
0100
0010
1000
0010
1000
0000
0100
,
0000
0001
0000
0100
0000
1000
0000
0010
,
0100
0001
0010
0100
1000
0100
0000
1000
,
0000
0010
0000
0001
0000
0010
0000
1000
,
0000
0100
0000
0010
0200
0000
0310
0000
,
0010
0001
0100
0010
1000
0000
0001
0000
,
0010
0100
1000
0010
0100
0001
1000
0100
,
0010
0001
0100
0000
0220
0000
0000
0000
,
0000
0330
1010
0101
,
0001
1000
0100
0010
0000
1000
0000
0010
,
0000
0001
0010
0100
1000
0000
1100
0000
,
0100
0010
0001
0100
0000
1000
0000
0100
,
0001
0010
0100
1000
0010
0000
0101
0001
,
0010
0001
0100
1000
0100
0010
0001
0010
,
1000
0100
0010
1000
0010
0001
0100
0000
,
1000
0100
0001
0010
0100
0010
0100
0010
,
0001
0000
0000
0100
0000
0000
0010
0000
1010
0000
0000
0000
0101
0000
0000
0000
,
0001
0000
0010
0000
0100
0000
1000
0000
0100
0000
0000
1000
0000
0000
0001
0000
,
0000
1000
0000
0000
0100
0000
0010
0000
0001
0000
0000
0000
0011
0000
0000
0000
,
1100
0000
1000
0010
0100
0001
1000
0001
,
1000
0001
1000
0100
0010
0000
0001
0000
,
0100
0010
1000
0010
1000
0001
0010
0100
,
0001
0100
1000
0010
0001
0000
0010
0000
,
0110
0000
1000
0100
0001
0000
1000
0010
,
0001
0100
0010
1000
0001
0000
0011
0000
,
0010
0000
0100
0000
1000
0000
0010
0000
0001
0000
0000
0010
0000
0000
0100
0000
,
0000
0010
0000
0000
1000
0000
0100
0000
0010
0000
0010
0000
0001
0000
0001
0000
,
0000
0100
1000
0100
0001
0010
0001
0010
,
0001
0100
0010
1000
0100
0000
1100
0000
,
1000
0101
0001
1010
,
1000
0000
0011
0000
0001
0010
0100
1000
,
0001
0100
0010
1000
0002
0000
2000
0000
,
0000
3003
1001
1000
,
0100
0001
1001
0001
,
0010
1000
1001
1000
,
0100
0001
1001
0001
,
0010
1000
0110
0100
,
0001
0010
0110
0010
,
1000
0100
0110
0100
,
0001
0010
0110
0010
,
1000
0000
0000
1000
0000
0000
1000
0000
0100
0000
0000
0000
1000
0000
0010
0000
,
0001
0000
0001
0010
1000
0000
0100
0010
,
0001
0000
0000
0100
0000
0000
1000
0000
0100
0000
0010
0000
0100
0000
0000
0000
,
0010
1000
0000
0001
0100
0000
0001
0010
,
0100
1000
0100
0001
0100
0000
0010
1000
,
0010
0000
0001
0010
0001
0000
1000
0100
,
1000
0000
0000
0000
0010
0000
0001
0000
0010
0000
1000
0100
0000
0000
0010
0001
,
0000
0000
1000
0010
0000
0000
0100
0001
0100
0000
0010
0000
1000
0000
0100
0000
,
0010
0001
0100
0010
0220
0000
0000
0000
,
0330
0000
1001
0000
0001
0100
1000
0001
,
0000
0010
0000
1000
0000
0100
0000
0010
,
0000
0001
0100
0010
1000
0100
0001
1000
,
0000
0010
0000
0001
0000
0100
0000
0010
,
0000
1000
0000
0002
0000
0000
0013
0100
,
1000
0010
0100
0001
0000
0011
0000
1100
,
0000
0100
0010
0000
0001
0100
1000
0100
,
0001
0010
1000
0010
0000
0100
0001
0100
,
1000
0010
0100
0010
1010
1000
0100
0010
,
0000
0001
0000
0100
0000
1000
0000
0001
,
0000
0010
0100
0001
0011
0010
0100
1000
,
0000
0010
0000
0001
0000
0100
0000
1000
,
0000
0010
0000
0100
0001
1000
0100
0010
,
0001
0100
1000
0100
0000
0001
0010
0100
,
0001
0100
0010
1000
0010
0001
0100
0001
,
1000
0010
1000
0100
0001
0100
0010
0001
,
1000
0100
0010
0001
1000
0000
2002
0000
,
0000
0000
0000
0000
,
0000
0000
0000
3003
;

//---------------dance-double - ----------------
#NOTEDATA:;
#CHARTNAME:;
#STEPSTYPE:dance-double;
#DESCRIPTION:;
#CHARTSTYLE:;
#DIFFICULTY:Medium;
#METER:13;
#RADARVALUES:0.531038,0.608443,0.223355,0.167516,0.043873,466.000000,438.000000,28.000000,21.000000,0.000000,0.000000,0.000000,0.000000,0.000000,0.531038,0.608443,0.223355,0.167516,0.043873,466.000000,438.000000,28.000000,21.000000,0.000000,0.000000,0.000000,0.000000,0.000000;
#CREDIT:MILEN;
#NOTES:
// measure 0
00000000
00000000
00000000
00000000
,  // measure 1
00000000
00000000
00000000
00000000
,  // measure 2
00000000
00000000
00000000
00000000
,  // measure 3
00000000
00000000
00000000
00000000
,  // measure 4
00000000
00000000
00000000
00000000
00000000
00000000
00000000
00000000
00000000
00000000
00010000
00000000
00001000
00010000
00001000
00010000
,  // measure 5
00002000
00000000
02003000
00000000
,  // measure 6
03020000
00000000
00000000
00000000
00230000
00000000
00000000
00000000
00302000
00000000
00000000
00000000
00013000
00001000
00010000
00001000
,  // measure 7
00020000
00000000
00030200
00000000
00002300
00000000
00000000
00000010
,  // measure 8
00003020
00000000
00020000
00000000
,  // measure 9
00030030
00000000
00010000
00001000
00010000
00100000
01000000
00100000
,  // measure 10
00000000
10000000
00000000
01000000
00000000
00010000
00000000
00001000
,  // measure 11
00000000
00000010
00000100
00000010
00000001
00000100
00000010
00001000
,  // measure 12
00000000
00000001
00000000
00000100
00000000
00001000
00000000
00010000
,  // measure 13
00000000
00100000
00000000
20000000
00000000
00000000
00000000
31000000
,  // measure 14
00100000
01000000
10000000
00010000
00000000
00100000
00010000
01000000
,  // measure 15
00000000
00001000
00010000
00000100
00001000
00000000
00000001
00001000
,  // measure 16
00000000
00000100
00000010
00000001
00000000
00000100
00001000
00000000
,  // measure 17
00010000
00001000
00010000
00100000
01000000
00100000
00000000
10000000
,  // measure 18
00000000
00010000
00000000
00100000
00000000
01000000
00000000
00010000
,  // measure 19
00001000
00010000
00000100
00001000
00000100
00000010
00000000
00000001
,  // measure 20
00000000
00000100
00000000
00001000
00000000
00010000
00000000
00100000
,  // measure 21
00000000
10000000
00000000
01000000
00200000
00000000
01300000
00000000
,  // measure 22
01000000
10000000
00100000
00010000
00001000
00000000
00010000
00000000
,  // measure 23
00000100
00000010
00000001
00000100
00001000
00010000
00100000
10000000
,  // measure 24
01000000
00100000
00010000
00000000
00022000
00000000
00000000
00000000
,  // measure 25
00000000
00033000
01001000
00010010
,  // measure 26
00010000
00001000
00000100
00000010
00000000
00000100
00000000
00000001
,  // measure 27
00000000
00000010
00001000
00010000
00100000
00000000
01100000
00000000
,  // measure 28
10000000
01000000
00010000
00001000
00000000
00100000
00000000
01000000
,  // measure 29
00010000
00001000
00000010
00000001
00000100
00000000
00001010
00001000
,  // measure 30
00000100
00001000
00000001
00000100
00000001
00001000
00000100
00010000
,  // measure 31
00001000
00100000
01000000
10000000
00100000
01000000
00010000
00000000
,  // measure 32
10000000
01000000
00010000
00001000
00100000
01000000
00100000
01000000
,  // measure 33
00010000
00000000
00000000
00001000
00000000
00000000
00010000
00000000
00010100
00000000
00000000
00000000
00101000
00000000
00000000
00000000
,  // measure 34
00100000
00000000
00010000
00000000
00100000
00000000
01000000
00000000
00100000
00000000
00000000
10000000
00000000
00000000
00100000
00000000
,  // measure 35
00000000
00010000
00000000
00000000
00100000
00000000
00001000
00000000
00010000
00000000
00000000
00000000
00011000
00000000
00000000
00000000
,  // measure 36
00001100
00000000
00000100
00000001
00000010
00000100
00001000
00000100
,  // measure 37
00001000
00000100
00001000
00000010
00010000
00000000
00001000
00000000
,  // measure 38
00100000
00010000
01000000
00010000
01000000
00100000
10000000
01000000
,  // measure 39
00010000
00001000
00010000
00100000
00010000
00000000
00001000
00000000
,  // measure 40
00000100
00000000
00000001
00000010
00000100
00000000
00000010
00000001
,  // measure 41
00000100
00001000
00010000
00100000
01000000
00000000
10010000
00000000
,  // measure 42
10000000
00000000
01000000
00000000
00010000
00000000
00001000
00000000
00010000
00000000
00000000
00100000
00000000
00000000
00010000
00000000
,  // measure 43
00000000
00001000
00000000
00000000
00010000
00000000
00100000
00000000
00010000
00000000
00001000
00000000
00000010
00000000
00000100
00000000
,  // measure 44
00000000
00000100
00000010
00000001
00000100
00000001
00000100
00000001
,  // measure 45
00000100
00001000
00010000
00100000
01000000
00000000
00100000
00000000
,  // measure 46
10000000
01000000
00010000
00001000
,  // measure 47
00000010
00000000
00000001
00000000
00001000
00000100
00000010
00001000
,  // measure 48
00010000
01000000
00100000
00010000
02000000
00000000
00200000
00000000
,  // measure 49
00000000
03300000
10010000
10000000
,  // measure 50
01000000
00010000
00011000
00001000
,  // measure 51
00000010
00000001
00001001
00000001
,  // measure 52
00000100
00001000
00011000
00001000
,  // measure 53
00000100
00000001
00001001
00000001
,  // measure 54
00000010
00001000
00011000
00010000
,  // measure 55
00100000
10000000
10010000
10000000
,  // measure 56
01000000
00010000
00011000
00001000
,  // measure 57
00100000
00000000
00000000
00100000
00000000
00000000
00100000
00000000
01000000
00000000
00000000
00000000
00010000
00000000
00001000
00000000
,  // measure 58
00000010
00000000
00000010
00001000
00010000
00000000
00001000
00000100
,  // measure 59
00000001
00000000
00000000
00000010
00000000
00000000
00000001
00000000
00000100
00000000
00001000
00000000
00010000
00000000
00000000
00000000
,  // measure 60
00001000
00100000
00000000
01000000
00100000
00000000
00010000
00100000
,  // measure 61
01000000
10000000
00100000
00010000
00001000
00000000
00100000
00010000
,  // measure 62
01000000
00000000
00001000
00010000
00000100
00000000
00001000
00000100
,  // measure 63
00000010
00000000
00000001
00000100
00001000
00011000
00000000
00110000
,  // measure 64
00000000
10100000
00000000
10000000
01000000
00100000
00010000
01000000
,  // measure 65
00100000
00010000
00001000
00000000
00022000
00000000
00000000
00000000
,  // measure 66
00033000
00000000
00011000
00000000
00010000
00001000
00000100
00000001
,  // measure 67
00000000
00001000
00000000
00000010
00000000
00000100
00000000
00001000
,  // measure 68
00000000
00010000
00100000
10000000
01000000
00100000
01000000
00010000
,  // measure 69
00000000
00001000
00000000
00000010
00000000
00000001
00000000
00000100
,  // measure 70
00000000
00000010
00000000
00020000
00000000
00000000
00031000
00100000
,  // measure 71
01000000
10000000
00100000
01000000
00000000
01010000
00000000
00011000
,  // measure 72
00000000
00001000
00000100
00000000
00000001
00000010
00000100
00010000
,  // measure 73
00001000
00000100
00000010
00010000
00000000
00001000
00100000
01000000
,  // measure 74
10000000
00100000
01000000
00010000
10010000
10000000
01000000
00010000
,  // measure 75
00000000
00001000
00000000
00100000
00000000
01000000
00000000
00010000
,  // measure 76
00000000
00001000
00000010
00000001
00001001
00001000
00000100
00000010
,  // measure 77
00000000
00001000
00000000
00010000
00000000
01000000
00000000
10000000
,  // measure 78
00000000
00100000
00000000
01000000
00010000
00100000
01000000
00100000
,  // measure 79
00010000
01000000
00001000
00010000
00000000
00100000
00010000
00001000
,  // measure 80
00000010
00000001
00001000
00000100
00000010
00000001
00000100
00001000
,  // measure 81
01000000
00010000
00100000
01000000
10000000
00100000
00010000
00001000
,  // measure 82
00000100
00000001
00000010
00001000
00010000
00000000
00022000
00000000
,  // measure 83
00000000
00000000
00000000
00000000
,  // measure 84
00000000
00000000
00000000
00033000
;
