#VERSION:0.83;
#TITLE:Grievous Lady;
#SUBTITLE:;
#ARTIST:Team Grimoire vs. Laur;
#TITLETRANSLIT:;
#SUBTITLETRANSLIT:;
#ARTISTTRANSLIT:;
#GENRE:VARIETY;
#ORIGIN:;
#CREDIT:MUINELIM;
#BANNER:Grievous Lady.png;
#BACKGROUND:Grievous Lady-bg.png;
#PREVIEWVID:;
#JACKET:Grievous Lady-jacket.png;
#CDIMAGE:;
#DISCIMAGE:;
#LYRICSPATH:;
#CDTITLE:;
#MUSIC:Grievous Lady.ogg;
#OFFSET:-0.035000;
#SAMPLESTART:96.035004;
#SAMPLELENGTH:13.714279;
#SELECTABLE:YES;
#BPMS:0.000=210.000,
56.000=105.000,
60.000=210.000,
228.000=105.000,
264.000=210.000;
#STOPS:;
#DELAYS:;
#WARPS:;
#TIMESIGNATURES:0.000=4=4;
#TICKCOUNTS:0.000=4;
#COMBOS:0.000=1;
#SPEEDS:0.000=1.000=0.000=0;
#SCROLLS:0.000=1.000;
#FAKES:;
#LABELS:0.000=Song Start;
#BGCHANGES:;
#KEYSOUNDS:;
#ATTACKS:
;

//---------------dance-single - ----------------
#NOTEDATA:;
#CHARTNAME:;
#STEPSTYPE:dance-single;
#DESCRIPTION:;
#CHARTSTYLE:;
#DIFFICULTY:Hard;
#METER:16;
#RADARVALUES:0.839633,1.039284,0.851265,0.347908,0.214667,794.000000,679.000000,115.000000,47.000000,0.000000,0.000000,0.000000,0.000000,0.000000,0.839633,1.039284,0.851265,0.347908,0.214667,794.000000,679.000000,115.000000,47.000000,0.000000,0.000000,0.000000,0.000000,0.000000;
#CREDIT:MILEN;
#NOTES:
0000
0000
0000
0000
,
0000
0000
0000
0000
,
0000
0000
0000
0000
,
0000
0000
0000
0000
,
1001
1000
0100
0010
0001
0000
0100
0000
,
1000
0000
0010
0000
0001
0100
0001
0000
,
1001
0000
1000
0010
1000
0000
1001
0000
,
0010
0001
0100
1000
,
1010
0010
0100
0001
1000
0000
0001
0000
,
0011
0010
0100
0000
1000
0100
0010
0000
,
1001
0000
0001
0100
0010
0000
1000
0010
,
0100
0000
0001
1000
1100
0000
1000
0001
,
0011
0000
0010
0100
0010
0000
1000
0100
,
0010
0001
0010
0100
1000
0010
0100
0002
,
2000
0000
0000
0000
0000
0000
0000
3003
,
1001
0000
0000
1010
0000
0000
0101
0000
,
0000
0011
0000
0000
1100
0000
0110
0000
,
1001
0000
0000
0011
0000
0000
1100
0000
,
0000
1010
0000
0000
0101
0010
0110
0000
,
1100
0000
0000
1010
0000
0000
0011
0000
,
0000
0101
0000
0000
0110
0000
1010
0000
,
0101
0000
0000
0011
0000
0000
1010
0000
,
0000
1100
0000
0000
0110
0100
0011
0000
,
1001
0000
1000
1100
0000
0001
0101
0000
,
1000
1010
0000
0001
0011
0000
0110
0000
,
1100
0000
0001
0101
0000
1000
1010
0000
,
0001
0011
0000
0100
0110
1000
1001
0000
,
1010
0000
0010
0011
0000
0001
0101
0000
,
0100
1100
0000
1000
1010
0000
0110
0000
,
1001
0000
0010
1100
0000
0010
0101
0000
,
2020
0030
0001
3001
,
0001
0100
0001
0100
0010
1000
0010
1000
,
0001
0100
0001
0100
0010
1000
0001
0001
,
0001
0000
0010
0100
0010
0100
1000
0001
,
0100
0010
0100
0000
0010
1000
0010
0000
1000
0000
1000
0000
0000
0000
0001
0000
,
0001
0010
0001
0010
0100
1000
0100
1000
,
0010
0000
0100
0000
0010
0000
0010
0000
0010
0000
1000
0100
1000
0000
0001
0000
,
0100
0000
0000
0100
0010
0000
0000
0010
1000
0000
0000
1000
0001
0000
0000
0001
,
0200
0000
0000
0000
0310
0100
0010
0000
1000
0000
1000
0000
0001
0000
0101
0000
,
0000
1000
1010
0010
0100
0001
0100
0010
,
1000
0000
0010
0000
0100
0000
0001
0000
1000
0000
0100
0010
0000
0000
0100
0000
,
0110
0010
0001
0100
0010
0010
1000
1000
,
0001
0010
0001
0000
0010
0100
0010
0000
0100
0000
0100
0000
0100
0000
2000
0000
,
0000
3010
0110
0100
0001
1000
0100
0010
,
0001
1000
0010
0100
0001
0001
0010
0010
,
0210
1300
0120
0031
,
0101
1100
1010
0011
,
2001
3000
2100
3000
2010
3000
2100
3000
,
2001
3000
2010
3000
2100
3000
1001
0100
,
0102
0000
0003
0000
0012
0000
0003
0000
1002
0000
0003
0000
0100
0001
0100
0001
,
0200
0000
0310
1000
1200
0300
0010
0001
,
0201
0300
1200
0300
0210
0300
0201
0300
,
1200
0300
0210
0300
0101
0001
0011
0100
,
1100
1000
1020
0030
0201
0300
0001
0010
,
0100
0000
1000
0100
1000
0000
0000
0000
0010
0100
0010
0000
1000
0001
1000
0000
,
0020
0100
0001
1000
,
0100
1000
0001
0130
,
1001
0000
0100
0000
1000
0100
0010
0000
0001
0100
0010
0100
0001
0000
0010
0000
,
0100
0000
0000
1100
0000
0000
1010
0000
0001
0000
0010
0000
0100
0001
0010
0000
,
0100
0000
1000
0000
0010
0001
0010
0000
0100
0000
0000
0110
0000
0000
1001
0000
,
1000
0100
0010
0001
0000
0000
0100
0000
1000
0000
0010
0000
0110
0000
0000
0000
,
2002
0000
3003
0000
0001
0100
1000
0000
0100
0000
0010
0000
1000
0000
0001
0000
,
0010
0000
0000
0100
0010
0000
0100
0000
2100
0000
0000
0000
3010
0100
0001
0000
,
0101
0000
1000
0000
0100
0010
0001
0000
0011
0000
1000
0000
0010
0100
0010
0000
,
0110
0001
0101
1000
1100
0001
0101
1000
,
1020
0001
0100
1030
0201
1000
0010
0301
,
2001
0000
0000
0010
0000
0000
0001
0000
,
0000
0100
0000
0000
0010
0000
3010
0000
,
1002
0000
0000
0100
0000
0000
1000
0000
,
0000
0010
0000
0000
0100
0100
0103
0000
,
0120
1030
0210
0301
,
0001
0000
0010
0000
0100
0000
1000
0000
0010
0100
0010
0100
0010
0100
0010
0100
,
0002
0000
0000
0000
,
0000
0000
0000
0003
,
1000
0100
1000
0100
0001
0100
0001
0100
,
1000
0010
0001
0010
1000
0100
0010
0010
,
0010
0000
0001
0000
0100
0000
1000
0000
0100
0000
0001
0000
0010
0000
0100
1000
,
0100
0010
0001
0001
0010
1000
1000
0010
,
0001
0100
1000
0001
0010
1000
0100
0100
,
0100
0010
0001
0001
0010
1000
0001
0100
,
1000
1000
0010
0100
0001
0001
0010
0100
,
0001
0000
0001
0000
0100
0000
0100
0000
1000
0010
1000
0010
0100
0001
0100
0001
,
1000
0010
0020
0000
0130
0001
0100
0001
,
0010
1000
0010
1000
0010
0001
0100
0100
,
0100
0000
1000
0000
0001
0000
0010
0000
1000
0000
0100
0000
0010
0100
0010
0100
,
0010
0001
0100
1000
0100
0010
1000
1000
,
1000
0100
0001
0100
0010
0001
0100
1000
,
0001
0010
1000
0010
0100
0001
0010
0010
,
0010
0100
1000
0010
0001
1000
0100
0100
,
0110
0000
0000
1010
0000
0000
0201
0000
0000
0000
0010
0000
0310
0000
0010
1000
,
0100
0100
0020
0000
0031
1000
0010
0100
,
1000
0100
0001
1000
0010
0001
0010
0010
,
0010
0100
0001
0010
0100
0100
1000
1000
,
0010
0000
0001
0000
1000
0000
0100
0000
0010
0100
0010
0100
0001
0000
0010
0001
,
0100
0100
0100
1000
0100
0010
1000
1000
,
1000
0001
0010
0100
0001
1000
0010
0100
,
1000
0000
1000
0000
0010
0000
0010
0000
0001
0000
0001
0000
0010
0100
0010
0100
,
0010
0000
1000
0000
0001
0000
0010
0000
0100
0000
0200
0000
0000
0000
1300
0010
,
0100
1000
0100
0010
1000
0100
0010
0010
,
0010
0000
1000
0000
0010
0000
0001
0000
0100
0000
0010
1000
0100
0000
0010
0001
,
0100
0000
0001
0000
0010
0000
0001
0000
0100
0000
0100
0000
1000
0000
0100
0010
,
1000
1000
1000
0001
0010
0100
0010
0010
,
0011
0100
1000
1010
0001
0010
0100
0100
,
1100
0010
0100
0101
1000
1000
0100
0100
,
0010
0000
0001
0100
0010
0000
0100
0000
0010
0100
0001
0000
1000
0100
1000
0100
,
0020
0000
0000
0000
0030
0000
0201
0000
0000
0000
0300
0000
1000
0100
0010
0002
,
2000
0000
0000
0000
,
0000
0000
0000
0000
,
3003
0000
0000
0000
;

//---------------dance-double - ----------------
#NOTEDATA:;
#CHARTNAME:;
#STEPSTYPE:dance-double;
#DESCRIPTION:;
#CHARTSTYLE:;
#DIFFICULTY:Hard;
#METER:16;
#RADARVALUES:0.801564,1.039284,0.644001,0.251678,0.222069,758.000000,671.000000,87.000000,34.000000,0.000000,0.000000,0.000000,0.000000,0.000000,0.801564,1.039284,0.644001,0.251678,0.222069,758.000000,671.000000,87.000000,34.000000,0.000000,0.000000,0.000000,0.000000,0.000000;
#CREDIT:MILEN;
#NOTES:
00000000
00000000
00000000
00000000
,
00000000
00000000
00000000
00000000
,
00000000
00000000
00000000
00000000
,
00000000
00000000
00000000
00000000
,
00001000
00010000
00100000
01000000
00010000
00000000
10000000
00000000
,
01000000
00000000
00010000
00000000
00001000
00000100
00001000
00000000
,
00011000
00000000
00010000
01000000
00010000
00000000
00011000
00000000
,
00001000
00000010
00000001
00000100
,
00000010
00001000
00000010
00010000
00001000
00000000
00100000
00000000
,
01000000
00100000
10000000
00000000
00100000
00001000
00010000
00000000
,
00010100
00000000
00000100
00000010
00000001
00000000
00001000
00000100
,
00000010
00000000
00001000
00010000
01000000
00000000
00010000
00001000
,
00000010
00000000
00001000
00010000
00001000
00000000
00100000
01000000
,
10000000
00100000
00010000
00001000
00000100
00000001
00000010
00002000
,
00020000
00000000
00000000
00000000
00000000
00000000
00000000
00033000
,
00011000
00000000
00000000
01010000
00000000
00000000
11000000
00000000
,
00000000
10100000
00000000
00000000
01100000
00000000
01010000
00000000
,
00110000
00000000
00000000
00101000
00000000
00000000
00011000
00000000
,
00000000
00010010
00000000
00000000
00001010
00001000
00000100
00000000
,
00000110
00000000
00000000
00000011
00000000
00000000
00000101
00000000
,
00000000
00001100
00000000
00000000
00011000
00000000
00010100
00000000
,
01001000
00000000
00000000
00110000
00000000
00000000
01100000
00000000
,
00000000
11000000
00000000
00000000
10100000
00100000
01000000
00000000
,
01010000
00000000
00010000
00110000
00000000
00100000
00101000
00000000
,
00001000
00011000
00000000
00010000
00010100
00000000
00001100
00000000
,
00001001
00000000
00000001
00000101
00000000
00000100
00000110
00000000
,
00000010
00010010
00000000
00010000
00011000
00001000
01000000
00000000
,
11000000
00000000
10000000
10100000
00000000
00100000
00110000
00000000
,
00010000
00011000
00000000
00001000
00001010
00000000
00000011
00000000
,
00001001
00000000
00000100
00010100
00000000
01000000
01001000
00000000
,
00022000
00030000
00010000
00013000
,
00010000
00000100
00010000
00000100
00001000
00000010
00001000
00000010
,
00000100
00000001
00000100
00000001
00000010
00000100
00001000
00001000
,
00001000
00000000
00000010
00010000
00000010
00010000
00001000
00100000
,
00010000
01000000
00010000
00000000
10000000
00100000
10000000
00000000
01000000
00000000
01000000
00000000
00000000
00000000
00100000
00000000
,
00100000
00010000
01000000
00001000
00010000
00000100
00010000
00000100
,
00000010
00000000
00000001
00000000
00000100
00000000
00000100
00000000
00000100
00000000
00001000
00010000
00001000
00000000
00010000
00000000
,
00100000
00000000
00000000
00100000
10000000
00000000
00000000
10000000
01000000
00000000
00000000
01000000
00100000
00000000
00000000
00100000
,
00020000
00000000
00000000
00000000
01030000
00100000
01000000
00000000
00001000
00000000
00001000
00000000
00010000
00000000
00010100
00000000
,
00000000
00001000
01001000
01000000
00010000
01000000
00100000
10000000
,
00100000
00000000
01000000
00000000
00010000
00000000
00100000
00000000
00001000
00000000
00010000
00000100
00000000
00000000
00001000
00000000
,
00001100
00000100
00000010
00000001
00001000
00001000
00000010
00000010
,
00010000
00001000
00010000
00000000
00001000
00010000
00001000
00000000
00100000
00000000
00100000
00000000
00100000
00000000
02000000
00000000
,
00000000
13000000
10100000
00100000
01000000
00010000
00100000
01000000
,
00010000
00001000
00000010
00000100
00001000
00001000
00000010
00000010
,
00000101
00001000
00011000
00100000
,
10100000
11000000
01100000
00110000
,
00012000
01000000
00100000
00000010
,
00000100
00000000
01000000
00000000
00103000
00000000
00001000
00010000
,
00021000
00000000
00000000
00000000
00100000
00000000
00000000
00000000
00000010
00000000
00000000
00000000
00031000
00010000
00001000
00010000
,
00002000
00000000
00103000
00001000
00020000
00000000
00030010
00010000
,
00012000
00000100
01000000
00100000
,
00000010
00000000
00003100
00000000
00001000
00010000
00100000
10000000
,
01000000
00010000
00021000
00000000
01000000
00000000
00030100
00000010
,
00000001
00000000
00000100
00000010
00000100
00000000
00000000
00000000
00001000
00010000
00001000
00000000
00010000
00001000
00010000
00000000
,
00002000
00203000
02300000
03020000
,
00032000
00003020
00000230
00010300
,
00011000
00000000
01000000
00000000
00010000
00100000
01000000
00000000
10000000
00100000
01000000
00010000
10000000
00000000
01000000
00000000
,
00010000
00000000
00000000
00011000
00000000
00000000
00001100
00000000
00000100
00000000
00000010
00000000
00000001
00000100
00001000
00000000
,
00000100
00000000
00001000
00000000
00010000
00001000
01000000
00000000
00100000
00000000
00000000
10100000
00000000
00000000
11000000
00000000
,
01000000
00010000
00001000
00100000
00000000
00000000
00010000
00000000
01000000
00000000
00001000
00000000
00101000
00000000
00000000
00000000
,
00020020
00000000
00030030
00000000
00010000
00001000
00000100
00000000
00000001
00000000
00000010
00000000
00000100
00000000
00000010
00000000
,
00001000
00000000
00000000
00010000
00001000
00000000
00100000
00000000
00120000
00000000
00000000
00000000
10030000
01000000
00100000
00000000
,
00110000
00000000
00010000
00000000
01000000
00001000
00010000
00000000
00011000
00000000
00001000
00000000
00010000
00000100
00001000
00000000
,
00001100
00000010
00000101
00001000
00010010
00100000
01001000
10000000
,
10100000
00010000
00001000
00000100
00000101
00001000
00010000
00100000
,
20100000
00000000
00000000
01000000
00000000
00000000
00010000
00000000
,
00000000
00100000
00000000
00000000
01000000
00000000
31000000
00000000
,
01020000
00000000
00000000
00001000
00000000
00000000
00000100
00000000
,
00000000
00000010
00000000
00000000
00001000
00001000
00031000
00000000
,
00001200
00000301
00000021
00001030
,
00001000
00000000
00010000
00000000
00001000
00000000
00010000
00000000
00001000
00010000
00001000
00010000
00001000
00010000
00001000
00010000
,
00002000
00000000
00000000
00000000
,
00000000
00000000
00000000
00003000
,
00010000
00001000
00010000
00001000
00010000
01000000
00010000
01000000
,
10000000
01000000
10000000
01000000
10000000
00100000
01000000
01000000
,
01000000
00000000
00010000
00000000
00100000
00000000
00001000
00000000
00010000
00000000
00001000
00000000
00100000
00000000
00010000
01000000
,
00010000
00100000
00001000
00001000
00000000
00010000
00010000
00001000
,
00000010
00000001
00000010
00000001
00001000
00000100
00000010
00000010
,
00000010
00000001
00000100
00000100
00000000
00011000
00000000
01000000
,
01000000
00010000
00010000
00000000
10000000
10000000
00000000
01000000
,
00010000
00000000
00010000
00000000
00001000
00000000
00001000
00000000
00000010
00000001
00000010
00000001
00000100
00000010
00000100
00000010
,
00000000
00001000
00002000
00000000
00003001
00000100
00000001
00000100
,
00001000
00000100
00001000
00010000
00001000
00010000
00100000
00100000
,
00100000
00000000
10000000
00000000
01000000
00000000
00100000
00000000
01000000
00000000
00010000
00000000
00001000
00010000
00001000
00010000
,
00001000
00000100
00000001
00001000
00000100
00000010
00000001
00000001
,
00000001
00000100
00001000
00010000
00001000
00100000
01000000
10000000
,
00100000
01000000
00010000
10000000
01000000
00100000
00001000
00001000
,
00001000
00010000
00000100
00000010
00000001
00000100
00001000
00010000
,
00011000
00000000
00000000
01001000
00000000
00000000
00010200
00000000
00000000
00000000
00001300
00000000
00001000
00000000
00001000
00000010
,
00000000
00000001
00000002
00000000
00000013
00000100
00000010
00001000
,
00000100
00010000
00001000
00100000
01000000
00100000
00010000
00010000
,
00010000
10000000
01000000
00100000
00010000
00010000
01000000
01000000
,
00001000
00000000
00010000
00000000
00000100
00000000
00001000
00000000
00000010
00000100
00000010
00000100
00000001
00000000
00001000
00000010
,
00000100
00000100
00000100
00000001
00000010
00001000
00010000
00010000
,
00010000
00100000
00010000
00001000
00000010
00001000
00010000
00100000
,
10000000
00000000
10000000
00000000
01000000
00000000
01000000
00000000
00100000
00000000
00100000
00000000
00001000
00010000
00001000
00010000
,
00001000
00000000
00000010
00000000
00000001
00000000
00001000
00000000
00000100
00000000
00000020
00000000
00000000
00000000
00000031
00000100
,
00000001
00001000
00000100
00000010
00001000
00010000
00100000
00100000
,
00100000
00000000
10000000
00000000
01000000
00000000
00100000
00000000
01000000
00000000
00010000
00001000
00010000
00000000
00001000
00010000
,
00001000
00000000
00000100
00000000
00000001
00000000
00000010
00000000
00000100
00000000
00000100
00000000
00000000
00000000
00010000
00001000
,
01000000
00000000
01000000
00000000
01000000
00000000
00000000
00000000
10010000
00000000
00000000
00000000
00100000
00000000
01000000
00100000
,
01000000
00000000
00010000
00000000
00100000
00000000
00101000
00000000
00001000
00000000
00010000
00000000
00000100
00000000
00000010
00000100
,
00000010
00000001
00001000
00001010
00000010
00000010
00010000
00010000
,
00001000
00000000
00100000
01000000
00100000
00000000
00010000
00000000
00100000
01000000
00100000
00000000
00010000
00100000
01000000
10000000
,
00200000
00000000
00000000
00000000
00000000
00000000
00320000
00000000
00000000
00000000
00000000
00000000
00031000
00010000
00001000
00010000
,
00000020
00000000
00000000
00000000
,
00000000
00000000
00000000
00000000
,
00000030
00000000
00000000
00000000
;

//---------------dance-single - ----------------
#NOTEDATA:;
#CHARTNAME:;
#STEPSTYPE:dance-single;
#DESCRIPTION:;
#CHARTSTYLE:;
#DIFFICULTY:Beginner;
#METER:7;
#RADARVALUES:0.253793,0.399725,0.081425,0.074023,0.000000,240.000000,229.000000,11.000000,10.000000,0.000000,0.000000,0.000000,0.000000,0.000000,0.253793,0.399725,0.081425,0.074023,0.000000,240.000000,229.000000,11.000000,10.000000,0.000000,0.000000,0.000000,0.000000,0.000000;
#CREDIT:MILEN;
#NOTES:
0000
0000
0000
0000
,
0000
0000
0000
0000
,
0000
0000
0000
0000
,
0000
0000
0000
0000
,
1000
0000
0001
0000
,
1000
0000
0001
0000
,
0100
0000
0010
0000
,
0100
0000
0010
0000
,
1000
0000
0001
0000
,
0100
0000
0010
0000
,
1000
0000
1000
0000
,
0001
0000
0001
0000
,
0100
0000
0100
0000
,
0010
0000
0010
0000
,
0220
0000
0000
0330
,
1001
0000
0000
0000
,
0000
0000
1000
1000
,
1000
0000
0000
0000
,
0000
0000
0001
0001
,
0001
0000
0000
0000
,
0000
0000
1000
1000
,
1000
0000
0000
0000
,
0000
0000
0001
0001
,
0001
0000
0001
0000
,
0100
0000
0100
0000
,
1000
0000
1000
0000
,
0010
0000
0010
0000
,
0001
0000
0100
0000
,
1000
0000
0010
0000
,
0001
0000
0100
0000
,
1000
0000
0010
0010
,
0100
0000
0010
0000
,
0001
0000
0010
0100
,
0010
0000
0100
0000
,
1000
0000
0100
0010
,
0100
0000
0010
0000
,
0001
0000
0010
0100
,
1000
0000
0100
0000
,
0010
0000
0100
0010
,
0001
0000
1000
0000
,
0001
0000
1000
0100
,
0010
0000
0001
0000
,
1000
0000
0001
0010
,
0100
0000
1000
0000
,
0001
0000
1000
0010
,
0100
0000
0001
0100
,
0010
0000
0110
0000
,
1000
0000
1000
0000
,
0010
0000
0001
0000
,
0100
0000
0100
0000
,
1000
0000
0010
0000
,
0001
0000
0001
0000
,
0100
0000
1000
0000
,
0010
0000
0010
0000
,
0001
0000
0100
0010
,
0200
0000
0000
0000
,
0000
0000
0000
0300
,
0110
0000
0001
0010
,
0100
0100
1000
0000
,
1000
0010
0100
0100
,
0001
1000
1001
0000
,
0001
1000
0010
0010
,
0001
0000
1000
0001
,
0100
0100
1000
0001
,
0010
0010
0100
0100
,
1001
0000
1001
0000
,
0002
0000
0000
0000
,
0000
0003
0001
0001
,
0200
0000
0000
0000
,
0000
0300
0100
0100
,
0020
0030
2000
3000
,
0001
0001
1000
1000
,
1001
0000
0000
0000
,
0020
0000
0000
0030
,
0010
0000
1000
0000
,
0100
1000
0010
0000
,
0100
0000
0001
0000
,
0010
0001
0100
0000
,
0010
0000
1000
0000
,
0001
0010
0100
0000
,
0010
0000
0100
0000
,
0010
0100
1000
0000
,
0010
0000
0100
0000
,
0001
1000
0100
0000
,
0100
0000
0010
0000
,
0001
1000
0010
0000
,
0110
0000
0000
0000
,
0110
0000
0000
0000
,
0100
0000
0010
0000
,
0100
0010
0100
0100
,
0001
0000
0010
0000
,
0001
0000
0010
0000
,
1000
0000
0100
0000
,
1000
0000
0100
0000
,
0001
0000
0100
0000
,
0001
0000
0100
0000
,
1000
0000
0010
0000
,
1000
0000
0010
0000
,
0001
0001
0001
0000
,
1000
0000
0001
0000
,
1000
1000
1000
0000
,
0001
0000
1000
0000
,
0010
0100
0010
0000
,
0100
0010
0100
0000
,
0001
0010
0100
1000
,
0100
0000
0010
0000
,
2002
0000
0000
0000
,
0000
0000
0000
0000
,
3003
0000
0000
0000
;

//---------------dance-single - ----------------
#NOTEDATA:;
#CHARTNAME:;
#STEPSTYPE:dance-single;
#DESCRIPTION:;
#CHARTSTYLE:;
#DIFFICULTY:Easy;
#METER:10;
#RADARVALUES:0.479035,0.559614,0.414529,0.081425,0.000000,453.000000,397.000000,56.000000,11.000000,0.000000,0.000000,0.000000,0.000000,0.000000,0.479035,0.559614,0.414529,0.081425,0.000000,453.000000,397.000000,56.000000,11.000000,0.000000,0.000000,0.000000,0.000000,0.000000;
#CREDIT:MILEN;
#NOTES:
0000
0000
0000
0000
,
0000
0000
0000
0000
,
0000
0000
0000
0000
,
0000
0000
0000
0000
,
1001
1000
0100
0010
,
0001
0001
1000
1000
,
0001
0010
0100
1000
,
0001
0001
1000
1000
,
1001
0001
0100
0010
,
0110
0100
0010
1000
,
1001
0001
0100
0010
,
1000
0100
1100
0000
,
0011
0010
0001
0100
,
0010
1000
0001
0100
,
0220
0000
0000
0330
,
0010
0000
0000
0010
0000
0000
0010
0000
,
0000
0010
0000
0000
0010
0000
0010
0000
,
0100
0000
0000
0100
0000
0000
0100
0000
,
0000
0100
0000
0000
0100
0000
0100
0000
,
0001
0000
0000
0001
0000
0000
0001
0000
,
0000
0001
0000
0000
0001
0000
0001
0000
,
1000
0000
0000
1000
0000
0000
1000
0000
,
0000
1000
0000
0000
1000
0000
1000
0000
,
1001
0000
0000
0001
0000
0000
1001
0000
,
0000
1000
0000
0000
0010
0000
0100
0000
,
0110
0000
0000
0010
0000
0000
0110
0000
,
0000
0100
0000
0000
0001
0000
1000
0000
,
1100
0000
0000
0001
0000
0000
0101
0000
,
0000
1000
0000
0000
1010
0000
0001
0000
,
0011
0000
0000
1001
0000
0000
0110
0000
,
2002
0003
0001
3001
,
1000
0100
1000
0100
,
0010
0001
0010
0010
,
0001
0100
0001
0100
,
0010
1000
0010
0010
,
1000
0001
1000
0001
,
0100
0010
0100
0100
,
0001
0010
0100
1000
,
0010
0100
0010
0010
,
0110
1000
0100
0010
,
0100
1000
0100
0100
,
0010
0001
0010
0100
,
0010
0001
0001
0100
,
0110
0001
0010
0100
,
0001
0100
1000
0001
,
0010
1000
0010
0100
,
1000
1000
0001
0001
,
0100
0010
0100
0101
,
0001
1000
0001
1001
,
0010
0100
0010
1010
,
1000
0001
1000
1001
,
0001
0100
0001
0011
,
0010
0100
0010
0110
,
1000
0010
1000
1100
,
0100
0010
0100
0110
,
0001
0100
1000
0100
,
0001
0100
1000
0100
,
1001
0000
0001
0100
0001
0000
1000
0010
,
1000
0000
0001
0010
0001
0000
1000
0100
,
1000
0000
0010
0100
0010
0000
1000
0001
,
1000
0000
0010
0100
0001
1000
0100
0000
,
0110
0000
0001
0100
1000
0000
1000
0100
,
0001
0000
1000
0010
0001
0000
0001
0010
,
1000
0000
1000
0100
0010
0000
0001
0100
,
0010
0010
0010
0010
,
0010
1000
0001
0010
0100
1000
0001
0100
,
0120
0000
0100
0000
,
0100
0000
0130
0100
,
1002
0000
1000
0000
,
1000
0000
1003
1000
,
0110
0001
0110
1000
,
0110
0000
0001
0000
1000
0010
1000
0010
,
2000
0000
0000
0000
,
0000
0000
0000
3000
,
0001
0010
0001
0010
,
1000
0010
1000
0010
,
0001
0100
1000
0100
,
0001
0010
0100
0010
,
0011
0001
0100
0010
,
1010
1000
0010
0100
,
0101
0001
0010
0100
,
1100
1000
0001
0001
,
1000
0100
1000
0100
,
0001
0100
0001
0100
,
1000
0010
0001
0010
,
1000
0100
0010
0100
,
1100
1000
0010
0100
,
0101
0001
0100
0010
,
1010
1000
0011
0001
,
0220
0000
0000
0330
0000
1000
0001
1000
,
0001
0001
0100
0100
,
1000
1000
0010
0010
,
0001
0001
0100
0100
,
1000
0110
0001
0110
,
1000
1000
0100
0100
,
0001
0001
0010
0010
,
1000
0110
0001
0110
,
1000
1000
0001
0001
,
0100
0010
0100
0000
0001
0000
0010
0000
,
0100
0010
0100
0000
1000
0000
0010
0000
,
0001
0001
0100
0100
,
1000
0001
0010
1000
,
1100
0100
0010
0001
,
0011
0010
0100
1000
,
1010
0001
0101
1000
,
1001
0000
0000
0110
0000
0000
1001
0000
,
2002
0000
0000
0000
,
0000
0000
0000
0000
,
3003
0000
0000
0000
;

//---------------dance-double - ----------------
#NOTEDATA:;
#CHARTNAME:;
#STEPSTYPE:dance-double;
#DESCRIPTION:;
#CHARTSTYLE:;
#DIFFICULTY:Easy;
#METER:11;
#RADARVALUES:0.468460,0.559614,0.355311,0.081425,0.000000,443.000000,395.000000,48.000000,11.000000,0.000000,0.000000,0.000000,0.000000,0.000000,0.468460,0.559614,0.355311,0.081425,0.000000,443.000000,395.000000,48.000000,11.000000,0.000000,0.000000,0.000000,0.000000,0.000000;
#CREDIT:MILEN;
#NOTES:
00000000
00000000
00000000
00000000
,
00000000
00000000
00000000
00000000
,
00000000
00000000
00000000
00000000
,
00000000
00000000
00000000
00000000
,
00011000
00010000
01000000
10000000
,
00100000
00100000
01000000
01000000
,
00010000
00100000
00001000
00010000
,
00000100
00000100
00000010
00000010
,
00001001
00000001
00000100
00001000
,
00011000
00010000
00100000
10000000
,
10010000
00010000
01000000
00001000
,
00010000
00000100
00001100
00000000
,
00000011
00000001
00000100
00000010
,
00010000
00001000
01000000
00100000
,
02200000
00000000
00000000
03300000
,
10000000
00000000
00000000
10000000
00000000
00000000
10000000
00000000
,
00000000
10000000
00000000
00000000
10000000
00000000
01000000
00000000
,
00010000
00000000
00000000
00010000
00000000
00000000
00010000
00000000
,
00000000
00010000
00000000
00000000
00010000
00000000
00011000
00000000
,
00001000
00000000
00000000
00001000
00000000
00000000
00001000
00000000
,
00000000
00001000
00000000
00000000
00001000
00000000
00000100
00000000
,
00000001
00000000
00000000
00000001
00000000
00000000
00000001
00000000
,
00000000
00000001
00000000
00000000
00000001
00000000
00000010
00000000
,
00001000
00000000
00000000
00010000
00000000
00000000
00001000
00000000
,
00000000
00010000
00000000
00000000
00001000
00000000
00010000
00000000
,
00100000
00000000
00000000
10000000
00000000
00000000
00100000
00000000
,
00000000
10000000
00000000
00000000
00100000
00000000
10000000
00000000
,
01000000
00000000
00000000
00010000
00000000
00000000
00001000
00000000
,
00000000
00000010
00000000
00000000
00000001
00000000
00000100
00000000
,
00001000
00000000
00000000
00010000
00000000
00000000
00001000
00000000
,
00022000
00030000
00010000
00013000
,
00010000
00000100
00010000
00000100
,
00001000
00000010
00001000
00000010
,
00000100
00000001
00000100
00000001
,
00000010
00001000
00000010
00001000
,
00010000
00100000
00010000
00100000
,
10000000
01000000
10000000
01000000
,
00100000
00010000
00100000
00010000
,
01000000
00001000
01000000
00001000
,
00010000
00000100
00001000
00000100
,
00000010
00000100
00010000
00001000
,
00100000
00010000
00100000
01000000
,
00100000
00001000
00010000
00000100
,
00000110
00000001
00000100
00001000
,
00010000
00100000
10000000
01000000
,
00010000
00001000
00010000
00001000
,
00010000
00010000
00001000
00001000
,
00100000
00010000
01000000
01010000
,
01000000
00010000
00100000
00110000
,
00100000
00001000
00010000
00011000
,
00010000
00000100
00001000
00001100
,
00001000
00000010
00000100
00000101
,
00000100
00000010
00001000
00001001
,
00001000
00000010
00010000
00011000
,
00010000
00001000
01000000
01100000
,
01000000
00100000
10000000
01000000
,
00010000
00001000
00000010
00000001
,
00001001
00000000
00001000
00000010
00000100
00000000
00000001
00000100
,
00000010
00000000
00001000
00000100
00010000
00000000
00001000
00100000
,
00010000
00000000
10000000
00100000
01000000
00000000
00010000
01000000
,
00100000
00000000
10000000
01000000
00010000
00001000
00010000
00000000
,
00011000
00000000
00001000
00100000
01000000
00000000
00100000
00001000
,
00010000
00000000
00001000
00010000
00000100
00000000
00000010
00001000
,
00010000
00000000
00001000
00010000
01000000
00000000
00010000
01000000
,
10000000
10000000
10000000
10000000
,
10000000
00100000
10000000
00100000
00010000
00100000
00010000
00001000
,
00021000
00000000
00000010
00000000
,
00000010
00000000
00030010
00010000
,
00012000
00000000
00100000
00000000
,
00100000
00000000
00103000
00001000
,
00011000
01000000
00011000
00000010
,
00011000
00000000
00100000
00000000
00001000
00010000
00001000
00010000
,
00002000
00000000
00000000
00000000
,
00000000
00000000
00000000
00003000
,
00000010
00000001
00000010
00000001
,
00001000
00000100
00001000
00000100
,
00010000
00001000
00100000
00010000
,
01000000
00100000
10000000
01000000
,
01100000
01000000
00010000
00001000
,
00011000
00001000
00000010
00000100
,
00000110
00000100
00000010
00000001
,
00000101
00000001
00000100
00000100
,
00001000
00010000
00001000
00010000
,
01000000
00100000
01000000
00100000
,
00010000
01000000
10000000
00010000
,
00100000
10000000
01000000
00100000
,
00110000
00100000
00001000
00010000
,
00010100
00010000
00001000
00000010
,
00000110
00000001
00000101
00001000
,
00002020
00000000
00000000
00003030
00000000
00001000
00000001
00001000
,
00000001
00000001
00000100
00000100
,
00001000
00001000
00010000
00010000
,
00100000
00100000
10000000
10000000
,
01000000
00011000
01000000
01010000
,
10000000
10000000
00100000
00100000
,
00010000
00001000
00000100
00000001
,
00000010
00011000
00000010
00001010
,
00000001
00000100
00001000
00010000
,
01100000
00100000
00010000
00001000
,
00000110
00000100
00001000
00010000
,
00100000
00100000
10000000
10000000
,
01000000
00010000
00001000
00000010
,
00000011
00000100
00001000
00010000
,
00011000
00100000
01000000
10000000
,
11000000
00100000
00101000
00000010
,
00010010
00000000
00000000
00001100
00000000
00000000
00000011
00000000
,
00002002
00000000
00000000
00000000
,
00000000
00000000
00000000
00000000
,
00003003
00000000
00000000
00000000
;

//---------------dance-single - ----------------
#NOTEDATA:;
#CHARTNAME:;
#STEPSTYPE:dance-single;
#DESCRIPTION:;
#CHARTSTYLE:;
#DIFFICULTY:Medium;
#METER:13;
#RADARVALUES:0.602759,0.959339,0.510759,0.088828,0.040713,570.000000,501.000000,69.000000,12.000000,0.000000,0.000000,0.000000,0.000000,0.000000,0.602759,0.959339,0.510759,0.088828,0.040713,570.000000,501.000000,69.000000,12.000000,0.000000,0.000000,0.000000,0.000000,0.000000;
#CREDIT:MILEN;
#NOTES:
0000
0000
0000
0000
,
0000
0000
0000
0000
,
0000
0000
0000
0000
,
0000
0000
0000
0000
,
1001
1000
0010
0100
,
0001
0000
1000
0000
0100
0010
0100
0000
,
0001
0000
0100
0010
0100
0000
1000
0000
,
0010
0001
0100
1000
,
1010
0010
0100
0001
,
0101
0000
0100
0000
0010
0100
0010
0000
,
0110
0001
0100
1000
,
0010
0001
1001
1000
,
1001
0001
0100
0010
,
1000
0001
1000
0001
0010
0100
0010
0100
,
0020
0000
0000
0030
,
0011
0000
0000
0001
0000
0000
1010
0000
,
0000
1000
0000
0000
0101
0000
0001
0000
,
1100
0000
0000
1000
0000
0000
0101
0000
,
0000
0001
0000
0000
1010
0000
1000
0000
,
0011
0000
0000
0100
0000
0000
1010
0000
,
0000
0100
0000
0000
0011
0000
0100
0000
,
1100
0000
0000
0010
0000
0000
0101
0000
,
0000
0010
0000
0000
1100
0000
0100
0000
,
0011
0000
0000
0101
0000
0000
0110
0000
,
0000
1010
0000
0000
1100
0000
0001
0000
,
0101
0000
0000
1100
0000
0000
1001
0000
,
0000
0011
0000
0000
1010
0000
0100
0000
,
0110
0000
0000
0011
0000
0000
1100
0000
,
0000
1010
0000
0000
0101
0000
0010
0000
,
0110
0000
0000
1001
0000
0000
0110
0000
,
2002
0003
0001
3001
,
0001
0100
1000
0010
,
0001
0000
0100
0000
1000
0000
0100
0010
,
0100
0001
0010
1000
,
0100
0010
0100
0010
1000
0100
0000
0100
,
0001
0010
1000
0100
,
0001
0000
0010
0100
0010
0010
0001
1000
,
0001
0101
1000
1100
,
0001
0000
1001
0000
1000
0100
0010
0100
,
0010
0001
0001
0000
0100
0000
1000
0000
,
0010
0000
0001
0000
0100
0010
0000
0010
,
0100
0000
0001
0000
1000
0100
1000
0100
,
1000
0000
0010
0000
0001
0100
0001
0100
,
0000
0100
1000
0000
0001
0000
0100
0000
,
0110
0000
0010
0000
1000
0001
1000
0001
,
0100
0110
0010
0110
,
0100
0000
0001
0000
0010
0100
0010
0100
,
1000
0010
0001
1000
,
0100
0000
0001
0000
0010
0100
1000
0001
,
0010
0000
1000
0000
0100
0000
0001
0001
,
0001
0000
1000
0100
0010
0000
0100
0010
,
0001
0100
1000
0001
,
0010
0000
1000
0000
0100
0010
0001
1000
,
0100
0100
0100
0000
0001
0000
0010
1000
,
0100
0100
0100
0000
1000
0100
0010
0001
,
0200
0010
1000
0010
,
0001
0010
1000
0310
,
1001
0000
0001
0000
0010
0100
0010
0000
0100
0000
1000
0000
0010
0000
0100
0000
,
0001
0000
0000
1000
0000
0000
0001
0000
1001
0000
0000
0000
1000
0010
1000
0000
,
0010
0000
0100
0000
0001
0100
0001
0000
1000
0000
0000
0100
0000
0000
0010
0000
,
1000
0000
0000
0010
0000
0000
0001
0000
0100
0000
0010
0000
0100
0000
0000
0000
,
0110
0010
1000
0100
0110
0010
0001
0100
,
1000
0000
0000
0100
0010
0000
0100
0000
0001
0000
0000
0000
0010
0100
0010
0000
,
0110
0000
0100
0000
1000
0010
0100
0000
0110
0000
0100
0000
0001
0010
0100
0000
,
0110
0010
0001
0100
1010
0010
1000
0100
,
0011
0100
1000
0010
0101
0100
0001
0010
,
2100
0000
0000
0001
0000
0000
0010
0000
,
0000
0100
0000
0000
0001
0000
3001
0000
,
0012
0000
0000
0100
0000
0000
1000
0000
,
0000
0010
0000
0000
0100
0100
0103
0000
,
0120
1030
0210
0301
,
0001
0010
0001
0010
1000
0100
1000
0100
,
0020
0000
0000
0000
,
0000
0000
0000
0030
,
0110
0001
0010
1000
,
0100
0000
0001
0000
0010
0000
0100
0100
,
0100
0000
1000
0000
0010
0000
0001
0010
,
1000
0000
1000
0100
0000
0100
0001
0010
,
0100
0000
1000
0000
0010
0000
0001
0001
,
0001
0000
0100
1000
0000
1010
0000
0001
,
0010
0100
1000
0000
0010
0010
0000
0001
,
0010
1000
0010
0001
0010
0010
0100
0100
,
0000
0001
1000
0000
0010
0000
0100
0000
,
0001
0000
0010
0000
0100
0000
1000
1000
,
1000
0000
0100
0000
0010
0000
0001
0001
,
0001
0000
0100
0000
0010
0000
1000
0100
,
0110
0001
1000
0010
,
1010
0000
0001
0000
1000
0000
0001
0010
,
0011
0000
1000
0000
0001
0000
1000
0100
,
1100
0000
0000
1000
0000
0000
0010
0000
0000
0000
0100
0000
0001
0000
0020
0000
,
0000
0130
0110
0000
0001
0000
0100
0000
,
1000
0000
0010
0000
0001
0000
0100
0100
,
0100
0000
1000
0000
0100
0010
0100
0001
,
0010
0000
0001
0000
1000
1000
0010
0010
,
0100
0100
0100
0000
0001
0000
0010
0010
,
0010
0000
1000
0000
0100
0000
0010
0010
,
0100
0100
0001
0010
0100
1000
0010
0010
,
0010
0000
0001
0000
0100
0100
0000
1000
,
0010
0000
0001
0000
0100
0000
1000
0010
,
0100
0000
1000
0000
0100
0100
0001
0001
,
0010
0000
0100
0000
0010
0010
0000
0001
,
0001
0100
1000
0000
0100
0000
0010
0000
,
1010
0000
1000
0000
0100
0000
0001
0010
,
0001
0000
0100
0000
1000
0010
1000
0010
,
0100
0001
0001
0100
1000
1000
0100
0010
,
0110
0000
0000
0101
0000
0000
1010
0000
,
2002
0000
0000
0000
,
0000
0000
0000
0000
,
3003
0000
0000
0000
;

//---------------dance-double - ----------------
#NOTEDATA:;
#CHARTNAME:;
#STEPSTYPE:dance-double;
#DESCRIPTION:;
#CHARTSTYLE:;
#DIFFICULTY:Medium;
#METER:14;
#RADARVALUES:0.594300,0.839422,0.451541,0.155448,0.040713,562.000000,501.000000,61.000000,21.000000,0.000000,0.000000,0.000000,0.000000,0.000000,0.594300,0.839422,0.451541,0.155448,0.040713,562.000000,501.000000,61.000000,21.000000,0.000000,0.000000,0.000000,0.000000,0.000000;
#CREDIT:MILEN;
#NOTES:
// measure 0
00000000
00000000
00000000
00000000
,  // measure 1
00000000
00000000
00000000
00000000
,  // measure 2
00000000
00000000
00000000
00000000
,  // measure 3
00000000
00000000
00000000
00000000
,  // measure 4
00011000
00001000
00010000
01000000
,  // measure 5
10000000
00000000
01000000
00000000
00010000
00001000
00010000
00000000
,  // measure 6
01000000
00000000
00010000
00001000
00010000
00000000
00000100
00000000
,  // measure 7
00000010
00000001
00000100
00001000
,  // measure 8
00011000
00010000
00100000
10000000
,  // measure 9
10010000
00000000
10000000
00000000
01000000
00010000
01000000
00000000
,  // measure 10
01100000
00100000
00010000
01000000
,  // measure 11
00001000
00010000
00010010
00001000
,  // measure 12
00101000
00100000
01000000
10000000
,  // measure 13
00100000
00010000
00100000
00010000
00001000
00000010
00001000
00000010
,  // measure 14
00000002
00000000
00000000
00000003
,  // measure 15
00000101
00000000
00000000
00000001
00000000
00000000
00001100
00000000
,  // measure 16
00000000
00001000
00000000
00000000
00010100
00000000
00010000
00000000
,  // measure 17
01001000
00000000
00000000
01000000
00000000
00000000
00110000
00000000
,  // measure 18
00000000
00010000
00000000
00000000
10100000
00000000
10000000
00000000
,  // measure 19
00110000
00000000
00000000
00010000
00000000
00000000
01001000
00000000
,  // measure 20
00000000
00001000
00000000
00000000
00010100
00000000
00000100
00000000
,  // measure 21
00001010
00000000
00000000
00000001
00000000
00000000
00001100
00000000
,  // measure 22
00000000
00010000
00000000
00000000
00011000
00000000
00100000
00000000
,  // measure 23
10100000
00000000
00000000
01000000
00000000
00000000
00110000
00000000
,  // measure 24
00000000
00001000
00000000
00000000
00011000
00000000
00000100
00000000
,  // measure 25
00000110
00000000
00000000
00000011
00000000
00000000
00000101
00000000
,  // measure 26
00000000
00001100
00000000
00000000
00011000
00000000
00100000
00000000
,  // measure 27
10100000
00000000
00000000
11000000
00000000
00000000
01010000
00000000
,  // measure 28
00000000
00011000
00000000
00000000
00001100
00000000
00000001
00000000
,  // measure 29
00000110
00000000
00000000
00010100
00000000
00000000
00011000
00000000
,  // measure 30
02020000
00030000
00100000
03100000
,  // measure 31
00100000
10000000
01000000
00010000
,  // measure 32
00001000
00000000
00000010
00000000
00000001
00000000
00000100
00000010
,  // measure 33
00000100
00000001
00000010
00001000
,  // measure 34
00010000
00001000
00010000
00001000
00100000
01000000
00000000
01000000
,  // measure 35
10000000
00100000
00010000
00001000
,  // measure 36
00100000
00000000
01000000
00010000
00001000
00001000
00010000
00001000
,  // measure 37
00000200
00000301
00000200
00001300
,  // measure 38
00000200
00000000
00000310
00000000
00000001
00000010
00000100
00000010
,  // measure 39
00000100
00001000
00001000
00000000
00010000
00000000
01000000
00000000
,  // measure 40
00100000
00000000
10000000
00000000
00010000
00100000
00000000
00100000
,  // measure 41
01000000
00000000
10000000
00000000
00100000
00010000
00001000
00010000
,  // measure 42
00001000
00000000
00000010
00000000
00001000
00010000
00001000
00010000
,  // measure 43
00000000
00010000
00000100
00000000
00000010
00000000
00000001
00000000
,  // measure 44
00000101
00000000
00000100
00000000
00001000
00010000
00100000
00010000
,  // measure 45
00100000
10100000
10000000
01010000
,  // measure 46
00010000
00000000
10000000
00000000
01000000
00100000
01000000
00100000
,  // measure 47
00001000
00010000
00100000
00001000
,  // measure 48
00000010
00000000
00010000
00000000
00001000
00010000
00001000
00010000
,  // measure 49
00000100
00000000
00000010
00000000
00000001
00000000
00000100
00000100
,  // measure 50
00000100
00000000
00001000
00010000
01000000
00000000
00010000
01000000
,  // measure 51
10000000
00100000
01000000
10000000
,  // measure 52
01000000
00000000
00010000
00000000
00100000
01000000
00010000
00001000
,  // measure 53
00010000
00010000
00010000
00000000
00000100
00000000
00000010
00000001
,  // measure 54
00000100
00000100
00000100
00000000
00001000
00010000
00100000
10000000
,  // measure 55
02000000
03020000
00032000
00003020
,  // measure 56
00000032
00000203
00002300
00013000
,  // measure 57
00011000
00000000
00001000
00000000
00100000
00010000
00100000
00000000
00010000
00000000
01000000
00000000
00100000
00000000
10000000
00000000
,  // measure 58
01000000
00000000
00000000
00010000
00000000
00000000
00001000
00000000
00011000
00000000
00000000
00000000
00010000
00000010
00010000
00000000
,  // measure 59
00001000
00000000
00010000
00000000
00001000
00100000
00001000
00000000
00010000
00000000
00000000
00001000
00000000
00000000
00000100
00000000
,  // measure 60
00000001
00000000
00000000
00000100
00000000
00000000
00001000
00000000
00010000
00000000
00100000
00000000
01000000
00000000
00000000
00000000
,  // measure 61
01100000
00100000
10000000
01000000
00010000
00100000
00010000
01000000
,  // measure 62
10000000
00000000
00000000
00100000
00010000
00000000
00001000
00000000
00011000
00000000
00000000
00000000
00010000
00001000
00010000
00000000
,  // measure 63
00000100
00000000
00000010
00000000
00000001
00000100
00000001
00000000
00000010
00000000
00001000
00000000
00010000
00001000
00010000
00000000
,  // measure 64
00100000
10000000
01000000
00100000
00101000
00001000
00010000
00000010
,  // measure 65
00010010
00010000
00001000
00000100
00000101
00000001
00000010
00001000
,  // measure 66
00021000
00000000
00000000
00000100
00000000
00000000
01000000
00000000
,  // measure 67
00000000
00000100
00000000
00000000
00001000
00000000
00031000
00000000
,  // measure 68
00012000
00000000
00000000
00100000
00000000
00000000
00000010
00000000
,  // measure 69
00000000
00100000
00000000
00000000
01000000
01000000
01003000
00000000
,  // measure 70
00021000
00030100
00012000
00103000
,  // measure 71
00100000
01000000
10000000
00100000
00010000
00001000
00010000
00001000
,  // measure 72
00020000
00000000
00000000
00000000
,  // measure 73
00000000
00000000
00000000
00030000
,  // measure 74
00011000
00001000
00000100
00000001
,  // measure 75
00000010
00000000
00001000
00000000
00010000
00000000
00100000
00100000
,  // measure 76
00100000
00000000
10000000
00000000
01000000
00000000
00010000
00100000
,  // measure 77
00010000
00000000
01000000
10000000
00000000
10000000
00100000
00010000
,  // measure 78
00001000
00000000
00000100
00000000
00000001
00000000
00000010
00000010
,  // measure 79
00000010
00000000
00001000
00010000
00000000
00011000
00000000
00001000
,  // measure 80
00010000
00100000
01000000
00000000
00100000
00100000
00000000
10000000
,  // measure 81
01000000
00010000
00001000
00010000
00001000
00001000
00000010
00000010
,  // measure 82
00000000
00000001
00000100
00000000
00001000
00000000
00010000
00000000
,  // measure 83
00001000
00000000
00000100
00000000
00001000
00000000
00010000
00010000
,  // measure 84
00010000
00000000
00100000
00000000
01000000
00000000
10000000
10000000
,  // measure 85
10000000
00000000
01000000
00000000
00010000
00000000
00100000
01000000
,  // measure 86
01100000
00010000
00001000
00000100
,  // measure 87
00000110
00000000
00001000
00000000
00010000
00000000
00100000
10000000
,  // measure 88
11000000
00000000
00010000
00000000
10000000
00000000
00100000
00010000
,  // measure 89
01010000
00000000
00000000
10000000
00000000
00000000
10000000
00000000
00000000
00000000
00100000
00000000
00010000
00000000
00002000
00000000
,  // measure 90
00000000
00013000
00011000
00000000
00001000
00000000
00000100
00000000
,  // measure 91
00000010
00000000
00000001
00000000
00000010
00000000
00001000
00001000
,  // measure 92
00001000
00000000
00000100
00000000
00010000
00001000
00010000
00100000
,  // measure 93
10000000
00000000
01000000
00000000
00100000
00100000
00001000
00001000
,  // measure 94
00010000
00010000
00010000
00000000
00001000
00000000
00000010
00000010
,  // measure 95
00000010
00000000
00000001
00000000
00000100
00000000
00001000
00001000
,  // measure 96
00010000
00010000
00100000
10000000
01000000
10000000
01000000
01000000
,  // measure 97
01000000
00000000
00100000
00000000
00010000
00010000
00000000
00001000
,  // measure 98
00000010
00000000
00000100
00000000
00000001
00000000
00000010
00001000
,  // measure 99
00010000
00000000
00001000
00000000
00100000
00100000
01000000
01000000
,  // measure 100
10000000
00000000
00100000
00000000
00010000
00010000
00000000
00001000
,  // measure 101
00001000
00100000
01000000
00000000
00010000
00000000
00001000
00000000
,  // measure 102
00011000
00000000
00010000
00000000
00000100
00000000
00000010
00000001
,  // measure 103
00000010
00000000
00000100
00000000
00010000
00001000
00010000
00001000
,  // measure 104
00100000
01000000
10000000
00100000
00010000
00001000
00000100
00000001
,  // measure 105
00000011
00000000
00000000
00001010
00000000
00000000
00011000
00000000
,  // measure 106
00022000
00000000
00000000
00000000
,  // measure 107
00000000
00000000
00000000
00000000
,  // measure 108
00033000
00000000
00000000
00000000
;
