#VERSION:0.83;
#TITLE:Go Away;
#SUBTITLE:;
#ARTIST:2NE1;
#TITLETRANSLIT:;
#SUBTITLETRANSLIT:;
#ARTISTTRANSLIT:;
#GENRE:K-POP;
#ORIGIN:;
#CREDIT:MILEN;
#BANNER:Go Away.png;
#BACKGROUND:Go Away-bg.png;
#PREVIEWVID:;
#JACKET:Go Away-jacket.png;
#CDIMAGE:;
#DISCIMAGE:;
#LYRICSPATH:;
#CDTITLE:;
#MUSIC:Go Away.mp3;
#OFFSET:-0.117000;
#SAMPLESTART:52.621105;
#SAMPLELENGTH:12.657238;
#SELECTABLE:YES;
#DISPLAYBPM:128.000000;
#BPMS:0.000=127.990;
#STOPS:;
#DELAYS:;
#WARPS:;
#TIMESIGNATURES:0.000=4=4;
#TICKCOUNTS:0.000=4;
#COMBOS:0.000=1;
#SPEEDS:0.000=1.000=0.000=0;
#SCROLLS:0.000=1.000;
#FAKES:;
#LABELS:0.000=Song Start;
#BGCHANGES:0.000=Go Away.avi=1.000=0=0=0=StretchNoLoop====,
99999=-nosongbg-=1.000=0=0=0 // don't automatically add -songbackground-
;
#KEYSOUNDS:;
#ATTACKS:
;

//---------------dance-single - ----------------
#NOTEDATA:;
#CHARTNAME:;
#STEPSTYPE:dance-single;
#DESCRIPTION:;
#CHARTSTYLE:;
#DIFFICULTY:Beginner;
#METER:3;
#RADARVALUES:0.119722,0.159154,0.007689,0.000000,0.000000,109.000000,108.000000,1.000000,0.000000,0.000000,0.000000,0.000000,0.000000,0.000000,0.119722,0.159154,0.007689,0.000000,0.000000,109.000000,108.000000,1.000000,0.000000,0.000000,0.000000,0.000000,0.000000,0.000000;
#CREDIT:MILEN;
#DISPLAYBPM:128.000000;
#NOTES:
// measure 0
0000
0000
0000
0000
,  // measure 1
0000
0000
0000
0000
,  // measure 2
0000
0000
0000
0000
,  // measure 3
0000
0000
0000
0000
,  // measure 4
0010
0000
0000
0000
,  // measure 5
0010
0000
0000
0000
,  // measure 6
1000
0000
0000
0000
,  // measure 7
1000
0000
0000
0000
,  // measure 8
0001
0000
0000
0000
,  // measure 9
0001
0000
0000
0000
,  // measure 10
0100
0000
0000
0000
,  // measure 11
0100
0000
0000
0000
,  // measure 12
0010
0000
0000
0000
,  // measure 13
1000
0000
0000
0000
,  // measure 14
0001
0000
0000
0000
,  // measure 15
0100
0000
0000
0000
,  // measure 16
0010
0000
0000
0000
,  // measure 17
1000
0000
0000
0000
,  // measure 18
0001
0000
0000
0000
,  // measure 19
0100
0000
0000
0000
,  // measure 20
0010
0000
0010
0000
,  // measure 21
0010
0000
0010
0000
,  // measure 22
0100
0000
0100
0000
,  // measure 23
0100
0000
0100
0000
,  // measure 24
0001
0000
0001
0000
,  // measure 25
1000
0000
1000
0000
,  // measure 26
0010
0000
0100
0000
,  // measure 27
0001
0000
1000
0000
,  // measure 28
0010
0000
0010
0000
,  // measure 29
0010
0000
0010
0010
,  // measure 30
0010
0000
0000
0000
,  // measure 31
0001
0000
0100
0000
,  // measure 32
1000
0000
0000
0000
,  // measure 33
1000
0000
0010
0000
,  // measure 34
0001
0000
0100
0000
,  // measure 35
0010
0000
0100
0100
,  // measure 36
0100
0000
0100
0000
,  // measure 37
0100
0000
0100
0100
,  // measure 38
0100
0000
0000
0000
,  // measure 39
1000
0000
0010
0000
,  // measure 40
0001
0000
0000
0000
,  // measure 41
0001
0000
0100
0000
,  // measure 42
1000
0000
0010
0000
,  // measure 43
0100
0000
0010
0010
,  // measure 44
0010
0000
0000
0000
,  // measure 45
1001
0000
0000
0000
,  // measure 46
0001
0000
0000
0000
,  // measure 47
1000
0000
0000
0000
,  // measure 48
0001
0000
0000
0000
,  // measure 49
1000
0000
0000
0000
,  // measure 50
0001
0000
0000
0000
,  // measure 51
1000
0000
0001
0000
,  // measure 52
1000
0000
0001
0000
,  // measure 53
1000
0000
1000
0000
,  // measure 54
1000
0000
1000
1000
,  // measure 55
1000
0000
0000
0000
,  // measure 56
0100
0000
0001
0000
,  // measure 57
0010
0000
0000
0000
,  // measure 58
0010
0000
1000
0000
,  // measure 59
0100
0000
0001
0000
,  // measure 60
1000
0000
0001
0001
,  // measure 61
0001
0000
0001
0000
,  // measure 62
0001
0000
0001
0001
,  // measure 63
0001
0000
0000
0000
,  // measure 64
0100
0000
1000
0000
,  // measure 65
0010
0000
0000
0000
,  // measure 66
0010
0000
0001
0000
,  // measure 67
0100
0000
1000
0000
,  // measure 68
0001
0000
1000
1000
,  // measure 69
1000
0000
0000
0000
;

//---------------dance-single - ----------------
#NOTEDATA:;
#CHARTNAME:;
#STEPSTYPE:dance-single;
#DESCRIPTION:;
#CHARTSTYLE:;
#DIFFICULTY:Easy;
#METER:4;
#RADARVALUES:0.161460,0.265256,0.053820,0.000000,0.000000,147.000000,140.000000,7.000000,0.000000,0.000000,0.000000,0.000000,0.000000,0.000000,0.161460,0.265256,0.053820,0.000000,0.000000,147.000000,140.000000,7.000000,0.000000,0.000000,0.000000,0.000000,0.000000,0.000000;
#CREDIT:MILEN;
#DISPLAYBPM:128.000000;
#NOTES:
0000
0000
0000
0000
,
0000
0000
0000
0000
,
0000
0000
0000
0000
,
0000
0000
0000
0000
,
0010
0000
0010
0000
,
0010
0000
0010
0000
,
1000
0000
1000
0000
,
1000
0000
1000
0000
,
0001
0000
0001
0000
,
0001
0000
0001
0000
,
0100
0000
0100
0000
,
0100
0000
0100
0000
,
0010
0000
0010
0000
,
1000
0000
1000
0000
,
0001
0000
0001
0000
,
0100
0000
0100
0000
,
0010
0000
1000
0000
,
0001
0000
0100
0000
,
0010
0000
1000
0000
,
0001
0000
0100
0100
,
0100
0000
0010
0000
,
1000
0000
0001
0000
,
0100
0000
0010
0000
,
1000
0000
0001
0000
,
0010
0000
0100
0000
,
1000
0000
0001
0000
,
0010
0000
0100
0000
,
1000
0000
0010
0100
,
0010
0000
0001
0000
,
0100
0000
1000
0000
,
0010
0000
1000
0000
,
0100
0000
0001
0000
,
0010
0000
0001
0000
,
0100
0000
1000
0000
,
0010
0000
1000
0000
,
0100
0000
0001
1000
,
0001
0000
0100
0000
,
1000
0000
0010
0000
,
0001
0000
0010
0000
,
1000
0000
0100
0000
,
0001
0000
0100
0000
,
1000
0000
0010
0000
,
0001
0000
0010
0000
,
1000
0000
0100
0010
,
0110
0000
0000
0000
,
1001
0000
1000
0000
,
0001
0000
1000
0000
,
1001
0000
0001
0000
,
1000
0000
0001
0000
,
1001
0000
1000
0000
,
1001
0000
0001
0000
,
1000
1000
0001
0001
,
1000
0001
1000
0001
,
1001
0000
1000
0000
,
0010
0000
0001
0000
,
0100
0000
0001
0000
,
0010
0000
1000
0000
,
0100
0000
1000
0000
,
0010
0000
0001
0000
,
0100
0000
0001
0000
,
0010
0000
1000
0001
,
1000
0000
0010
0000
,
0001
0000
0100
0000
,
1000
0000
0100
0000
,
0001
0000
0010
0000
,
1000
0000
0010
0000
,
0001
0000
0100
0000
,
1000
0000
0100
0000
,
0001
0000
0010
0100
,
0110
0000
0000
0000
;

//---------------dance-single - ----------------
#NOTEDATA:;
#CHARTNAME:;
#STEPSTYPE:dance-single;
#DESCRIPTION:;
#CHARTSTYLE:;
#DIFFICULTY:Medium;
#METER:7;
#RADARVALUES:0.336101,0.372704,0.184526,0.123017,0.000000,306.000000,282.000000,24.000000,16.000000,0.000000,0.000000,0.000000,0.000000,0.000000,0.336101,0.372704,0.184526,0.123017,0.000000,306.000000,282.000000,24.000000,16.000000,0.000000,0.000000,0.000000,0.000000,0.000000;
#CREDIT:MILEN;
#DISPLAYBPM:128.000000;
#NOTES:
0000
0000
0000
0000
,
0000
0000
0000
0000
,
0000
0000
0000
0000
,
0000
0000
0000
0000
,
1000
0001
1000
1000
,
0001
1000
0001
0001
,
0100
0010
0100
0100
,
0010
0100
0010
0010
,
1000
0100
1000
0100
,
0001
0010
0001
0010
,
1000
0010
1000
0010
,
0001
0100
0001
0100
,
1000
0001
0100
0100
,
0001
1000
0010
0010
,
1000
0100
0010
0010
,
0001
0010
0100
0100
,
1000
0010
0001
0100
,
0001
0010
1000
0100
,
1000
0010
0001
0100
,
1000
0001
0100
0010
,
0110
0100
0001
0010
,
0001
0000
0100
0000
0001
0000
0010
0001
,
0100
0010
1000
0100
,
1000
0000
0010
0000
1000
0000
0100
1000
,
0010
0100
0001
1000
,
0100
0000
0010
0000
0001
0000
1000
0010
,
0100
0000
0001
0100
0010
0000
1000
0001
,
1000
0010
0001
0100
,
2000
3010
0002
0013
,
2000
0000
3010
0000
0001
0010
0000
0010
,
0001
0100
1000
0010
,
1000
0100
0001
1000
,
1001
0001
0100
0010
,
1000
0001
0010
0100
,
1000
0010
0001
1000
,
0100
0000
0001
0000
0010
0100
0010
0000
,
0002
0103
2000
3100
,
0002
0000
0103
0000
1000
0100
0000
0100
,
1000
0010
0001
0100
,
0001
0010
1000
0001
,
1001
1000
0010
0100
,
0001
1000
0100
0010
,
0001
0100
1000
0001
,
0010
0000
1000
0000
0100
0010
0100
0000
,
0110
0000
0000
0000
,
1001
0000
0001
0000
0100
0010
0100
0000
,
0000
0101
0000
1010
0000
0101
0000
1010
,
0000
0000
1000
0000
0100
0010
0100
0000
,
0000
1100
0000
0011
0000
1100
0000
0011
,
0000
0000
0001
0000
0100
0010
0100
0000
,
0000
0110
0000
1001
0000
0110
0000
1001
,
0000
0001
1000
0010
,
0100
0001
1000
0010
0100
0001
1000
0010
,
0200
0301
0020
0031
,
0200
0000
0301
0000
0020
0000
0031
0001
,
0100
1000
0010
0001
,
1000
0010
1000
0000
0001
0010
0001
0000
,
1001
1000
0100
0001
,
0010
0100
0010
0000
0100
0010
0100
0000
,
0010
0001
0100
1000
,
1010
0001
0011
1000
,
0020
1030
0200
1300
,
0020
0000
1030
0000
0200
0000
1300
1000
,
0010
0001
0100
1000
,
0001
0100
0001
0000
1000
0100
1000
0000
,
1001
0001
0010
1000
,
0100
0010
0100
0000
0010
0100
0010
0000
,
0100
1000
0010
0001
,
0101
0000
1000
0000
1100
0000
0001
1000
,
2002
3003
0000
0000
;

//---------------dance-single - ----------------
#NOTEDATA:;
#CHARTNAME:;
#STEPSTYPE:dance-single;
#DESCRIPTION:;
#CHARTSTYLE:;
#DIFFICULTY:Hard;
#METER:10;
#RADARVALUES:0.415183,0.424410,0.099952,0.053820,0.226813,378.000000,365.000000,13.000000,7.000000,0.000000,0.000000,0.000000,0.000000,0.000000,0.415183,0.424410,0.099952,0.053820,0.226813,378.000000,365.000000,13.000000,7.000000,0.000000,0.000000,0.000000,0.000000,0.000000;
#CREDIT:MILEN;
#DISPLAYBPM:128.000000;
#NOTES:
0000
0000
0000
0000
,
0000
0000
0000
0000
,
0000
0000
0000
0000
,
0000
0000
0000
0000
,
1000
0100
1000
1000
,
0001
0100
0001
0001
,
1000
0000
0010
0000
1000
0000
0001
0010
,
0001
0010
0001
0001
0100
0000
0110
0000
,
0010
1000
0100
0000
1000
0000
0001
0000
,
0010
0001
0100
0000
0001
0000
1000
0000
,
0010
0100
0001
0000
0100
0010
1000
0000
,
0010
0100
0001
1000
0010
0100
0110
0000
,
0001
0100
0001
0001
,
1000
0100
1000
1000
,
0001
0000
0010
0000
0001
0000
1000
0010
,
1000
0010
1000
1000
0100
0000
0110
0000
,
0010
0001
0100
0000
0001
0000
1000
0000
,
0010
1000
0100
0000
1000
0000
0001
0000
,
0010
0100
1000
0000
0100
0010
0001
0000
,
0010
0100
1000
0100
0010
0001
1001
0000
,
1000
0100
0010
0000
0010
0001
0100
0000
,
0010
1000
0100
0000
0100
0010
0001
0000
,
1000
0010
1000
0000
0001
0010
0001
0000
,
1000
0100
1000
0000
0001
0100
0001
0000
,
1000
0010
0100
0000
0100
0001
0010
0000
,
0010
0100
1000
0000
0001
0010
0100
0000
,
0100
1000
0010
0100
0001
1000
0100
0010
,
0002
1000
1000
1003
,
1000
0000
0000
0010
0000
0000
1000
0000
0001
0000
0000
0010
0000
0000
0001
0000
,
1000
0000
0000
0100
0000
0000
1000
0000
0001
0000
0000
0100
0000
0000
0001
0000
,
1000
0000
0000
0010
0000
0000
0100
0000
0001
0000
0000
0010
0000
0000
0100
0000
,
1000
0000
0000
0010
0000
0000
0100
0000
0001
0000
0000
1000
0000
0000
0100
0000
,
0010
0000
0000
0001
0000
0000
0010
0000
0100
0000
0000
1000
0000
0000
0100
0000
,
0010
0000
0000
0001
0000
0000
0100
0000
0010
0000
0000
1000
0000
0000
0001
0000
,
0100
0000
0000
0010
0000
0000
1000
0000
0010
0000
0000
0100
0000
0000
0001
0000
,
0100
0000
0000
0010
0000
0000
1000
0000
0001
0000
1000
0000
0001
0000
1000
0000
,
1001
0000
0000
0001
0000
0000
0100
0000
0010
0000
0000
0100
0000
0000
0001
0000
,
1000
0000
0000
0100
0000
0000
0010
0000
0100
0000
0000
1000
0000
0000
0010
0000
,
0100
0000
0000
0001
0000
0000
0010
0000
0001
0000
0000
0100
0000
0000
0010
0000
,
1000
0000
0000
0100
0000
0000
1000
0000
0010
0000
0000
0100
0000
0000
0001
0000
,
1000
0000
0000
0001
0000
0000
0100
0000
1000
0000
0000
0100
0000
0000
0001
0000
,
1000
0000
0000
0001
0000
0000
1000
0000
0010
0000
0000
0001
0000
0000
0010
0000
,
1000
0000
0000
0001
0000
0000
0100
0000
0010
0000
0000
1000
0000
0000
0001
0000
,
0010
0100
0010
0100
0010
0100
1000
0010
,
0110
0000
0000
0000
,
2001
3100
1002
0203
,
0000
0010
0000
0010
0000
0010
0000
0310
,
0000
0000
0110
0000
0001
1000
0020
0000
,
0000
0100
0000
0100
0000
0100
0000
0130
,
0000
0000
0110
0000
1000
0001
0200
0000
,
0000
0010
0000
1000
0000
0010
0000
0301
,
0001
0010
0100
1000
0001
0100
0020
0000
,
0000
0001
0000
0100
0000
1030
0000
0000
,
1001
0000
0000
0001
0000
0000
0100
0000
0010
0000
0000
0100
0000
0000
0001
0000
,
0010
0000
0000
0100
0000
0000
1000
0000
0010
0000
0000
1000
0000
0000
0001
0000
,
0010
0000
0000
0001
0000
0000
1000
0000
0100
0000
0000
1000
0000
0000
0001
0000
,
0100
0000
0000
0001
0000
0000
1000
0000
0100
0000
0000
0010
0000
0000
0001
0000
,
1000
0000
0000
0010
0000
0000
0100
0000
0001
0000
0000
0010
0000
0000
0100
0000
,
1000
0000
0000
0010
0000
0000
0100
0000
0001
0000
0000
1000
0000
0000
0100
0000
,
0010
0000
0000
0001
0000
0000
0100
0000
0010
0000
0000
1000
0000
0000
0001
0000
,
0010
0000
0000
0100
0000
0000
1000
0000
0010
0000
0100
0000
0001
0000
0010
0000
,
0110
0000
0000
0100
0000
0000
1000
0000
0010
0000
0000
0100
0000
0000
0001
0000
,
1000
0000
0000
0100
0000
0000
0010
0000
0001
0000
0000
1000
0000
0000
0010
0000
,
0100
0000
0000
0001
0000
0000
0100
0000
1000
0000
0000
0100
0000
0000
0010
0000
,
0001
0000
0000
0010
0000
0000
1000
0000
0010
0000
0000
0100
0000
0000
0001
0000
,
0010
0000
0000
0001
0000
0000
0100
0000
1000
0000
0000
0100
0000
0000
0010
0000
,
0001
0000
0000
0010
0000
0000
1000
0000
0100
0000
0000
1000
0000
0000
0001
0000
,
0100
0000
0000
0010
0000
0000
1000
0000
0100
0000
0000
0001
0000
0000
1000
0000
,
0010
0000
0000
0001
0000
0000
0100
0000
0010
0000
1000
0000
0100
0000
0010
0000
,
1001
0000
0000
0000
;

//---------------dance-double - ----------------
#NOTEDATA:;
#CHARTNAME:;
#STEPSTYPE:dance-double;
#DESCRIPTION:;
#CHARTSTYLE:;
#DIFFICULTY:Easy;
#METER:4;
#RADARVALUES:0.158165,0.265256,0.076886,0.000000,0.000000,144.000000,134.000000,10.000000,0.000000,0.000000,0.000000,0.000000,0.000000,0.000000,0.158165,0.265256,0.076886,0.000000,0.000000,144.000000,134.000000,10.000000,0.000000,0.000000,0.000000,0.000000,0.000000,0.000000;
#CREDIT:MILEN;
#DISPLAYBPM:128.000000;
#NOTES:
00000000
00000000
00000000
00000000
,
00000000
00000000
00000000
00000000
,
00000000
00000000
00000000
00000000
,
00000000
00000000
00000000
00000000
,
01000000
00000000
01000000
00000000
,
01000000
00000000
01000000
00000000
,
00001000
00000000
00001000
00000000
,
00001000
00000000
00001000
00000000
,
00010000
00000000
00010000
00000000
,
00010000
00000000
00010000
00000000
,
00000010
00000000
00000010
00000000
,
00000010
00000000
00000010
00000000
,
00001000
00000000
00001000
00000000
,
00000100
00000000
00000100
00000000
,
00010000
00000000
00010000
00000000
,
00001000
00000000
00001000
00000000
,
00100000
00000000
00100000
00000000
,
00010000
00000000
00010000
00000000
,
01000000
00000000
00001000
00000000
,
00010000
00000000
00000100
00000000
,
00000010
00000000
00000001
00000000
,
00000100
00000000
00001000
00000000
,
00010000
00000000
00100000
00000000
,
10000000
00000000
01000000
00000000
,
00100000
00000000
00001000
00000000
,
00010000
00000000
00000100
00000000
,
00000010
00000000
00000001
00000000
,
00000100
00000000
00001000
00000000
,
00011000
00000000
00010000
00000000
,
01000000
00000000
10000000
00000000
,
00100000
00000000
00010000
00000000
,
00100000
00000000
10000000
00000000
,
01000000
00000000
00010000
00000000
,
01000000
00000000
10000000
00000000
,
00100000
00000000
00010000
00000000
,
00001000
00000000
00010000
00000000
,
00011000
00000000
00001000
00000000
,
00000100
00000000
00000001
00000000
,
00000010
00000000
00001000
00000000
,
00000010
00000000
00000001
00000000
,
00000100
00000000
00001000
00000000
,
00000100
00000000
00000001
00000000
,
00000010
00000000
00001000
00000000
,
00010000
00000000
00001000
00000000
,
00011000
00000000
00000000
00000000
,
00011000
00000000
00010000
00000000
,
00001000
00000000
00010000
00000000
,
00011000
00000000
00001000
00000000
,
00010000
00000000
00001000
00000000
,
00011000
00000000
00010000
00000000
,
00011000
00000000
00001000
00000000
,
00010000
00010000
00001000
00001000
,
00010000
00001000
00010000
00001000
,
00011000
00000000
00100000
00000000
,
01000000
00000000
10000000
00000000
,
00100000
00000000
00010000
00000000
,
10000000
00000000
01000000
00000000
,
00010000
00000000
00100000
00000000
,
01000000
00000000
10000000
00000000
,
00100000
00000000
00010000
00000000
,
00001000
00000000
00010000
00000000
,
00011000
00000000
00000100
00000000
,
00000010
00000000
00000001
00000000
,
00000100
00000000
00001000
00000000
,
00000001
00000000
00000010
00000000
,
00001000
00000000
00000100
00000000
,
00000010
00000000
00000001
00000000
,
00000100
00000000
00001000
00000000
,
00010000
00000000
00001000
00000000
,
00011000
00000000
00000000
00000000
;

//---------------dance-double - ----------------
#NOTEDATA:;
#CHARTNAME:;
#STEPSTYPE:dance-double;
#DESCRIPTION:;
#CHARTSTYLE:;
#DIFFICULTY:Medium;
#METER:7;
#RADARVALUES:0.324019,0.319461,0.130706,0.123017,0.000000,295.000000,278.000000,17.000000,16.000000,0.000000,0.000000,0.000000,0.000000,0.000000,0.324019,0.319461,0.130706,0.123017,0.000000,295.000000,278.000000,17.000000,16.000000,0.000000,0.000000,0.000000,0.000000,0.000000;
#CREDIT:MILEN;
#DISPLAYBPM:128.000000;
#NOTES:
00000000
00000000
00000000
00000000
,
00000000
00000000
00000000
00000000
,
00000000
00000000
00000000
00000000
,
00000000
00000000
00000000
00000000
,
01000000
00001000
01000000
01000000
,
00001000
01000000
00001000
00001000
,
00010000
00000100
00010000
00010000
,
00000100
00010000
00000100
00000100
,
00001000
00000010
00010000
00001000
,
01000000
00010000
00100000
00001000
,
00010000
00000100
00001000
00000010
,
00010000
00001000
01000000
00010000
,
00100000
01000000
10000000
10000000
,
01000000
00100000
00001000
00001000
,
00010000
00000100
00000010
00000010
,
00000001
00000100
00001000
00001000
,
00010000
00100000
10000000
01000000
,
10000000
00100000
00010000
00001000
,
00000100
00000001
00000010
00000001
,
00000100
00001000
00010000
00001000
,
00011000
00010000
00000100
00000010
,
00000001
00000000
00000100
00000000
00001000
00000000
00010000
00001000
,
00010000
00001000
00100000
01000000
,
10000000
00000000
00100000
00000000
00010000
00000000
00001000
00010000
,
00001000
00000100
00000001
00000010
,
00001000
00010000
01000000
10000000
,
00100000
00000000
00010000
00001000
00010000
00000000
00001000
00010000
,
00001000
00010000
00001000
00011000
,
00200000
01300000
20000000
30010000
,
00200000
00000000
01300000
00000000
10000000
00010000
00000000
10000000
,
01000000
00010000
00001000
00010000
,
01000000
00010000
00001000
00010000
,
00011000
00001000
00000010
00001000
,
00010000
00001000
00000010
00000001
,
00000100
00000001
00000010
00001000
,
00010000
00000000
00001000
00010000
00001000
00000000
00011000
00000000
,
00000200
00000310
00000002
00001003
,
00000200
00000000
00000310
00000000
00000001
00001000
00000000
00000001
,
00000010
00001000
00010000
00001000
,
00000010
00001000
00010000
00001000
,
00011000
00010000
01000000
00010000
,
00001000
00010000
01000000
10000000
,
00100000
10000000
01000000
00010000
,
00001000
00000000
00010000
00001000
00010000
00000000
00001000
00000000
,
00011000
00000000
00000000
00000000
,
00011000
00000000
00010000
00000000
01000000
10000000
00100000
00000000
,
00000000
00010000
00000000
00001000
00000000
00010000
00000000
00011000
,
00000000
00000000
00001000
00000000
00000100
00000001
00000010
00000000
,
00000000
00001000
00000000
00010000
00000000
00001000
00000000
00011000
,
00000000
00000000
00010000
00000000
00100000
10000000
01000000
00000000
,
00000000
00010000
00000000
00001000
00000000
00000010
00000000
00000011
,
00000000
00000001
00000100
00001000
,
00010000
00000010
00010000
00000000
00001000
00100000
00001000
00000000
,
00020000
00030100
00002000
00003010
,
00020000
00000000
00030100
00000000
00002000
00000000
00003010
00000100
,
00000001
00000010
00001000
00010000
,
00100000
10000000
01000000
00000000
00100000
00010000
01000000
00000000
,
01100000
00100000
10000000
01000000
,
00010000
00001000
00010000
00000000
00001000
00010000
00001000
00000000
,
00000010
00000001
00000100
00001000
,
01001000
00010000
00010100
00010000
,
00002000
00103000
00020000
01030000
,
00002000
00000000
00103000
00000000
00020000
00000000
01030000
00100000
,
10000000
01000000
00010000
00001000
,
00000010
00000001
00000100
00000000
00000010
00001000
00000100
00000000
,
00000110
00000010
00000001
00000100
,
00001000
00010000
00001000
00000000
00010000
00001000
00010000
00000000
,
00100000
10000000
01000000
00010000
,
00010100
00001000
01001000
00010000
,
00022000
00033000
00000000
00000000
;

//---------------dance-double - ----------------
#NOTEDATA:;
#CHARTNAME:;
#STEPSTYPE:dance-double;
#DESCRIPTION:;
#CHARTSTYLE:;
#DIFFICULTY:Hard;
#METER:13;
#RADARVALUES:0.497561,0.476596,0.199903,0.000000,0.434405,453.000000,427.000000,26.000000,0.000000,0.000000,0.000000,0.000000,0.000000,0.000000,0.497561,0.476596,0.199903,0.000000,0.434405,453.000000,427.000000,26.000000,0.000000,0.000000,0.000000,0.000000,0.000000,0.000000;
#CREDIT:MILEN;
#DISPLAYBPM:128.000000;
#NOTES:
00000000
00000000
00000000
00000000
,
00000000
00000000
00000000
00000000
,
00000000
00000000
00000000
00000000
,
00000000
00000000
00000000
00000000
00000000
00000000
00010000
00001000
,
00100000
01000000
10000000
00100000
01000000
00000000
01000000
00100000
,
10000000
01000000
00100000
00001000
00010000
00000000
00010000
00000100
,
00000010
00000001
00001000
00000100
00000010
00000000
00000010
00000010
,
00000010
00000001
00000100
00001000
00010000
00000000
00010000
00001000
,
00100000
01000000
10000000
00100000
00000000
01100000
00000000
00100000
,
10000000
01000000
00100000
00001000
00000000
00011000
00000000
00001000
,
00010000
00000100
00000010
00000001
00000000
00000101
00000000
00001100
,
00000000
00000000
00000000
00011000
00000000
00010000
00001000
00010000
,
00000010
00000100
00000001
00000010
00000100
00000000
00000100
00000010
,
00000001
00000100
00000010
00010000
00001000
00000000
00001000
01000000
,
00100000
10000000
00010000
01000000
00100000
00000000
00100000
00100000
,
00100000
10000000
01000000
00010000
00001000
00000000
00001000
00010000
,
00000010
00000100
00000001
00000010
00000000
00000110
00000000
00000010
,
00000001
00000100
00000010
00010000
00000000
00011000
00000000
00010000
,
00001000
01000000
00100000
10000000
00000000
11000000
00000000
01010000
,
00000000
00000000
00000000
00000000
00000000
00000000
00011000
00000000
00000000
00000000
00001000
00000000
00010000
00000000
00001000
00010000
,
00001000
00000010
00000001
00000100
,
00001000
00000000
00010000
00000000
00100000
10000000
00000000
11000000
,
00000000
00000000
00000000
01000000
00010000
00000000
00001000
00000000
,
00100000
00000000
01000000
00000000
00010000
00001000
00000000
00011000
,
00000000
00000000
00000000
00010000
00001000
00000010
00000000
00000100
,
00000000
00001000
00000000
00000010
00000000
00000110
00000000
00000000
,
00000100
00000001
00000010
00001000
00010000
01000000
10000000
00100000
,
00010000
00001000
00010000
00001000
,
00011000
00000000
00000000
00001000
00100000
00000000
00000000
00100000
00010000
00000000
00000000
00010000
01000000
00000000
00000000
01000000
,
00100000
00000000
00000000
00100000
10000000
00000000
00000000
10000000
00010000
00000000
00000000
00010000
00100000
00000000
00000000
00100000
,
00001000
00000000
00000000
00001000
00010000
00000000
00000000
00010000
00000010
00000000
00000000
00000010
00001000
00000000
00000000
00001000
,
00000001
00000000
00000000
00000001
00000100
00000000
00000000
00000100
00000010
00000000
00000000
00000010
00010000
00000000
00000000
00010000
,
00001000
00000000
00000000
00001000
00100000
00000000
00000000
00100000
01000000
00000000
00000000
01000000
10000000
00000000
00000000
10000000
,
00100000
00000000
00000000
00100000
00010000
00000000
00000000
00010000
00001000
00000000
00000000
00001000
00000010
00000000
00000000
00000010
,
00000001
00000000
00000000
00000001
00000100
00000000
00000000
00000100
00000010
00000000
00000000
00000010
00010000
00000000
00000000
00010000
,
00001000
00100000
01000000
10000000
00100000
01000000
00001000
00010000
,
00011000
00000000
00000000
00001000
00100000
00000000
00000000
00100000
00010000
00000000
00000000
00010000
01000000
00000000
00000000
01000000
,
00001000
00000000
00000000
00001000
00010000
00000000
00000000
00010000
00000100
00000000
00000000
00000100
00001000
00000000
00000000
00001000
,
00000010
00000000
00000000
00000010
00000100
00000000
00000000
00000100
00000001
00000000
00000000
00000001
00000010
00000000
00000000
00000010
,
00001000
00000000
00000000
00001000
00010000
00000000
00000000
00010000
00100000
00000000
00000000
00100000
10000000
00000000
00000000
10000000
,
01000000
00000000
00000000
01000000
00100000
00000000
00000000
00100000
00001000
00000000
00000000
00001000
00010000
00000000
00000000
00010000
,
00000100
00000000
00000000
00000100
00000010
00000000
00000000
00000010
00000001
00000000
00000000
00000001
00001000
00000000
00000000
00001000
,
00000010
00000000
00000000
00000010
00010000
00000000
00000000
00010000
00001000
00000000
00000000
00001000
00100000
00000000
00000000
00100000
,
01000000
10000000
00100000
00010000
00001000
00000010
00000001
00001001
,
00000000
00000000
00000000
00000000
,
10010000
10000000
00100000
00010000
,
00000000
00001000
00000000
00000100
00000000
00000001
00000000
00000011
,
00000000
00000000
00000010
00001000
,
00000000
00010000
00000000
01000000
00000000
10000000
00000000
10100000
,
00000000
00000000
00100000
00010000
,
00000000
00001000
00000000
00000010
00000000
00000001
00000000
00001001
,
00001000
00000100
00000010
00001000
00010000
01000000
00100000
00010000
,
10000000
10010000
00000000
00011000
00000000
00001001
00000000
00000000
,
00011000
00000000
00000000
00001000
00100000
00000000
00000000
00100000
01000000
00000000
00000000
01000000
00010000
00000000
00000000
00010000
,
00001000
00000000
00000000
00001000
00000010
00000000
00000000
00000010
00000100
00000000
00000000
00000100
00001000
00000000
00000000
00001000
,
00000010
00000000
00000000
00000010
00000001
00000000
00000000
00000001
00000010
00000000
00000000
00000010
00000100
00000000
00000000
00000100
,
00001000
00000000
00000000
00001000
00010000
00000000
00000000
00010000
01000000
00000000
00000000
01000000
10000000
00000000
00000000
10000000
,
00100000
00000000
00000000
00100000
01000000
00000000
00000000
01000000
10000000
00000000
00000000
10000000
01000000
00000000
00000000
01000000
,
00010000
00000000
00000000
00010000
00100000
00000000
00000000
00100000
01000000
00000000
00000000
01000000
00010000
00000000
00000000
00010000
,
00001000
00000000
00000000
00001000
00000010
00000000
00000000
00000010
00000001
00000000
00000000
00000001
00000100
00000000
00000000
00000100
,
00001000
00010000
00100000
10000000
01000000
00100000
00001000
00010000
,
00011000
00000000
00000000
00001000
00100000
00000000
00000000
00100000
00010000
00000000
00000000
00010000
10000000
00000000
00000000
10000000
,
01000000
00000000
00000000
01000000
00010000
00000000
00000000
00010000
00001000
00000000
00000000
00001000
00000010
00000000
00000000
00000010
,
00000001
00000000
00000000
00000001
00000100
00000000
00000000
00000100
00000010
00000000
00000000
00000010
00001000
00000000
00000000
00001000
,
00000100
00000000
00000000
00000100
00000010
00000000
00000000
00000010
00000001
00000000
00000000
00000001
00000100
00000000
00000000
00000100
,
00001000
00000000
00000000
00001000
00010000
00000000
00000000
00010000
00100000
00000000
00000000
00100000
10000000
00000000
00000000
10000000
,
01000000
00000000
00000000
01000000
00100000
00000000
00000000
00100000
00010000
00000000
00000000
00010000
00001000
00000000
00000000
00001000
,
00000010
00000000
00000000
00000010
00000100
00000000
00000000
00000100
00000001
00000000
00000000
00000001
00000010
00000000
00000000
00000010
,
00001000
00010000
01000000
10000000
00100000
00010000
00001000
00001001
;
