#VERSION:0.83;
#TITLE:GOODTEK;
#SUBTITLE:;
#ARTIST:EBIMAYO;
#TITLETRANSLIT:;
#SUBTITLETRANSLIT:;
#ARTISTTRANSLIT:;
#GENRE:VARIETY;
#ORIGIN:;
#CREDIT:MILEN;
#BANNER:GOODTEK.png;
#BACKGROUND:GOODTEK-bg.png;
#PREVIEWVID:;
#JACKET:GOODTEK-jacket.png;
#CDIMAGE:;
#DISCIMAGE:;
#LYRICSPATH:;
#CDTITLE:;
#MUSIC:GOODTEK.mp3;
#OFFSET:0.079000;
#SAMPLESTART:91.184151;
#SAMPLELENGTH:12.631584;
#SELECTABLE:YES;
#BPMS:0.000=190.000;
#STOPS:;
#DELAYS:;
#WARPS:;
#TIMESIGNATURES:0.000=4=4;
#TICKCOUNTS:0.000=4;
#COMBOS:0.000=1;
#SPEEDS:0.000=1.000=0.000=0;
#SCROLLS:0.000=1.000;
#FAKES:;
#LABELS:0.000=Song Start;
#BGCHANGES:0.000=GOODTEK.avi=1.000=0=0=0=StretchNoLoop====,
99999=-nosongbg-=1.000=0=0=0 // don't automatically add -songbackground-
;
#KEYSOUNDS:;
#ATTACKS:
;

//---------------dance-single - ----------------
#NOTEDATA:;
#CHARTNAME:;
#STEPSTYPE:dance-single;
#DESCRIPTION:;
#CHARTSTYLE:;
#DIFFICULTY:Hard;
#METER:14;
#RADARVALUES:0.699829,0.774237,0.168924,0.152836,0.221210,609.000000,588.000000,21.000000,19.000000,0.000000,0.000000,0.000000,0.000000,0.000000,0.699829,0.774237,0.168924,0.152836,0.221210,609.000000,588.000000,21.000000,19.000000,0.000000,0.000000,0.000000,0.000000,0.000000;
#CREDIT:MILEN;
#NOTES:
// measure 0
0000
0000
0000
0000
,  // measure 1
0000
0000
0000
0000
,  // measure 2
0000
0000
0000
0000
,  // measure 3
0000
0000
0000
0000
,  // measure 4
0000
0000
0000
0000
,  // measure 5
0000
0000
0000
0000
,  // measure 6
0000
0000
0000
0000
,  // measure 7
0000
0000
0000
0000
,  // measure 8
0000
1000
1000
1000
,  // measure 9
1000
0010
0010
0010
,  // measure 10
0010
0001
0001
0001
,  // measure 11
0001
0100
0100
0100
,  // measure 12
0100
0000
1000
0010
1000
0010
1000
0010
,  // measure 13
1000
0010
0100
0001
0100
0001
0100
0001
,  // measure 14
0100
0001
1000
0100
0010
0001
1000
0010
,  // measure 15
0100
0000
0001
0000
1000
0000
0100
0010
0000
0100
0010
0000
0001
1000
0001
0000
,  // measure 16
2000
0000
3010
0100
0001
0000
0010
0100
,  // measure 17
1000
0000
0010
0100
0001
0000
0010
0100
,  // measure 18
1000
0010
1000
0010
1000
0000
0100
0000
0010
0000
0000
0000
0001
0000
0100
0000
,  // measure 19
0010
2010
3001
0012
,  // measure 20
1003
0000
0001
0100
0010
0000
1000
0100
,  // measure 21
0010
0000
0001
0100
0010
0000
1000
0100
,  // measure 22
0010
0001
0010
0001
0010
0000
0001
0000
0100
0000
0000
0000
0010
0000
1000
0000
,  // measure 23
0100
0000
1100
0000
0011
0000
0100
0100
,  // measure 24
0110
0000
0010
1000
0100
1000
0001
1000
,  // measure 25
0100
1000
0010
1000
0100
1000
0001
1000
,  // measure 26
0010
0000
0100
0001
0010
0001
1000
0001
,  // measure 27
0010
0001
0100
0001
0010
0001
1000
0001
,  // measure 28
0100
0000
0010
1000
0100
1000
0001
0010
,  // measure 29
0001
0100
0010
1000
0010
0100
0001
0100
,  // measure 30
0010
0000
1000
0100
0010
0001
0100
0010
,  // measure 31
1000
0000
0001
0000
0010
0100
0010
0000
0100
0010
0100
0000
1000
0000
0001
0000
,  // measure 32
0200
0320
0000
0000
,  // measure 33
0000
0000
0000
0000
,  // measure 34
0000
2030
0000
0000
,  // measure 35
0000
0000
0000
0000
,  // measure 36
0000
3200
0000
0000
,  // measure 37
0000
0000
0000
0000
,  // measure 38
0000
0302
0000
0000
,  // measure 39
0000
0000
0000
0000
,  // measure 40
0000
0013
1000
0100
,  // measure 41
0010
0001
0100
1000
,  // measure 42
0001
0010
1000
0100
,  // measure 43
0001
1000
0010
0001
,  // measure 44
0100
0000
0010
1000
0100
0000
0010
0001
,  // measure 45
0100
0000
0010
1000
0001
0000
0100
0001
,  // measure 46
1000
0000
0010
0100
0001
0000
0100
0010
,  // measure 47
1000
0000
0100
0010
0001
1000
0100
0010
,  // measure 48
0001
0100
0110
0000
0010
1010
0000
1000
,  // measure 49
1001
0000
0000
0000
0001
0000
0010
0000
0100
0000
1000
0010
0000
1000
0010
0000
,  // measure 50
0100
0010
0110
0000
0100
0101
0000
0001
,  // measure 51
1001
0000
0000
0000
1000
0000
0100
0000
0010
0000
0001
0000
0100
0010
1000
0010
,  // measure 52
2000
0000
3001
0010
0001
0010
0001
0010
,  // measure 53
0001
0000
1000
0100
1000
0000
0100
0000
1000
0000
0100
0000
1000
0000
0100
0000
,  // measure 54
1000
0000
0001
0010
0001
0000
0001
0000
0100
0000
0100
0000
0010
0000
0010
0000
,  // measure 55
1000
1000
0002
0000
0000
0000
0000
0000
,  // measure 56
0103
0000
0000
0000
0100
0000
0010
0000
1000
0000
0010
0100
0010
0000
0100
0000
,  // measure 57
0001
0010
0000
0001
0001
0001
1000
0010
,  // measure 58
0100
0010
0100
0010
0100
0000
0000
0000
0010
0000
1000
0100
1000
0000
0100
0000
,  // measure 59
0010
0001
0100
0010
1000
0001
0010
0010
,  // measure 60
0110
0000
0000
0000
1000
0000
0010
0000
0100
0000
0001
0010
0001
0000
1000
0000
,  // measure 61
0100
0010
0000
0001
0001
0001
0100
0010
,  // measure 62
1000
0100
1000
0100
1000
0000
0000
0000
0001
0000
0010
0100
0010
0000
0100
0000
,  // measure 63
1000
0010
0200
0000
0000
0000
0000
0000
,  // measure 64
0301
0000
0000
0000
0001
0000
0100
0000
0010
0000
1000
0100
1000
0000
0010
0000
,  // measure 65
0100
0001
0000
0010
0100
1000
0010
0010
,  // measure 66
0100
0001
0100
0001
0100
0000
0001
0000
1000
0000
0100
0000
0010
0000
0001
0000
,  // measure 67
0100
0100
0000
0010
1000
0001
0100
0100
,  // measure 68
0110
0000
0000
0000
0001
0000
0010
0000
0100
0000
1000
0010
1000
0000
0001
0000
,  // measure 69
0100
0010
0000
1000
0100
0010
0001
0001
,  // measure 70
1000
0001
1000
0001
1000
0000
0010
0000
0100
0000
0001
0000
0010
0000
0100
0000
,  // measure 71
1000
0010
0100
0001
0100
1000
0100
0001
,  // measure 72
0100
0010
0110
1000
0100
0010
0100
1000
,  // measure 73
0010
0000
0001
0000
0010
0000
1000
0000
0100
0010
0000
0000
0001
0100
0000
0000
,  // measure 74
0010
1000
0010
0000
0100
0000
0001
0000
0010
0000
0100
0000
1000
0000
0010
0000
,  // measure 75
0100
0000
0001
0010
0001
0000
0100
0000
0010
0000
1000
0000
0100
1000
0100
0000
,  // measure 76
0010
0000
0001
0100
0010
0000
1000
0000
0100
0000
0010
0000
0001
0000
0100
0000
,  // measure 77
1000
0000
0100
0000
0001
0000
0010
0000
0100
1000
0000
0000
0010
0100
0000
0000
,  // measure 78
0001
1000
0001
0000
0100
0000
0010
0000
1000
0000
0100
0000
0010
0000
0001
0000
,  // measure 79
0100
0000
0010
1000
0010
0000
0100
0000
0001
0000
0010
0000
0100
1000
0100
0000
,  // measure 80
0010
0000
0001
1000
0100
0000
1000
0000
0010
0000
0001
0000
0010
0000
1000
0000
,  // measure 81
0100
0000
0010
0000
0001
0000
0100
0000
0010
1000
0000
0000
0100
0010
0000
0000
,  // measure 82
0001
0100
0001
0000
0010
0000
0100
0000
0001
0000
0100
0000
1000
0000
0010
0000
,  // measure 83
0001
0000
0010
1000
0010
0000
0100
0000
0001
0000
0010
0000
0100
1000
0100
0000
,  // measure 84
0010
0000
0001
1000
0010
0000
1000
0000
0100
0000
1000
0000
0100
0000
1000
0000
,  // measure 85
0100
0000
0010
0001
0010
0000
0001
0000
0100
0000
0001
0000
0100
0000
0001
0000
,  // measure 86
0100
0000
0010
1000
0020
0000
0000
0000
2030
0000
0000
0000
3200
0000
0000
0000
,  // measure 87
0302
0000
0013
0010
1000
1000
0100
0100
,  // measure 88
0010
0010
1001
0000
0100
1010
0000
0010
,  // measure 89
0101
0000
0000
0000
0001
0000
0010
0000
0100
0000
1000
0001
0000
1000
0001
0000
,  // measure 90
0100
0010
0110
0000
0100
0011
0000
0010
,  // measure 91
1100
0000
0000
0000
1000
0000
0010
0000
0100
0000
0001
0000
1000
0001
0100
0001
,  // measure 92
0200
0000
0310
1000
0100
0010
0001
0100
,  // measure 93
0010
0000
1000
0001
1000
0000
0010
0000
0100
0000
0001
0000
0010
0000
0100
0000
,  // measure 94
1000
0000
0010
0100
0010
0000
0010
0000
1000
0000
1000
0000
0100
0000
0100
0000
,  // measure 95
0001
0001
0020
0000
0130
0002
2000
0000
,  // measure 96
0000
3003
1001
0000
0000
0000
0000
0000
;

//---------------dance-double - ----------------
#NOTEDATA:;
#CHARTNAME:;
#STEPSTYPE:dance-double;
#DESCRIPTION:;
#CHARTSTYLE:;
#DIFFICULTY:Hard;
#METER:14;
#RADARVALUES:0.689487,0.735525,0.209144,0.168924,0.100550,600.000000,574.000000,26.000000,21.000000,0.000000,0.000000,0.000000,0.000000,0.000000,0.689487,0.735525,0.209144,0.168924,0.100550,600.000000,574.000000,26.000000,21.000000,0.000000,0.000000,0.000000,0.000000,0.000000;
#CREDIT:MILEN;
#NOTES:
00000000
00000000
00000000
00000000
,
00000000
00000000
00000000
00000000
,
00000000
00000000
00000000
00000000
,
00000000
00000000
00000000
00000000
,
00000000
00000000
00000000
00000000
,
00000000
00000000
00000000
00000000
,
00000000
00000000
00000000
00000000
,
00000000
00000000
00000000
00000000
,
00000000
01000000
01000000
01000000
,
01000000
00010000
00010000
00010000
,
00010000
00001000
00001000
00001000
,
00001000
00000010
00000010
00000010
,
00000010
00000000
00000001
00000100
00000001
00000100
00000010
00001000
,
00000010
00001000
00000100
00010000
00000100
00010000
00001000
00100000
,
00001000
00100000
00010000
01000000
00100000
10000000
01000000
00100000
,
00010000
00000000
01000000
00000000
00001000
00000000
00010000
00001000
00000000
00001000
00010000
00000000
00001000
00010000
00001000
00000000
,
00020000
00000000
00030100
00001000
00000010
00000000
00000100
00000001
,
00000010
00000000
00000100
00001000
00000010
00000000
00000100
00000001
,
00000010
00001000
00010000
00001000
01000000
00000000
00001000
00010000
,
00000100
00001100
00010000
00011000
,
01000000
00000000
00010000
00100000
01000000
00000000
10000000
01000000
,
00100000
00000000
00010000
00100000
01000000
00000000
10000000
00100000
,
00010000
00001000
00010000
00000010
00001000
00000000
00000010
00010000
,
00001000
00000000
00001100
00000000
00000101
00000000
00000001
00001000
,
00001001
00000000
00000001
00000010
00000100
00000010
00000001
00000010
,
00001000
00000010
00000001
00000010
00000100
00000010
00000001
00000010
,
00001000
00000000
00010000
01000000
10000000
01000000
00100000
01000000
,
10000000
01000000
00010000
01000000
10000000
01000000
00100000
01000000
,
00010000
00000000
00001000
00000010
00000001
00000100
00000001
00000010
,
00001000
00010000
00100000
10000000
01000000
10000000
00100000
00010000
,
00001000
00000000
00100000
00010000
01000000
00001000
00010000
00000100
,
00001000
00000000
00000010
00000000
00010000
00001000
00010000
00000000
00001000
00010000
00001000
00000000
00010000
00000000
01000000
00000000
,
10000000
10200000
00000000
00000000
,
01000000
02300000
00000000
00000000
03020000
00000000
00230000
00000000
,
00001000
00302000
00000000
00000000
00000000
00000000
00000000
00010000
,
00010000
00023000
00000000
00000000
00000000
00000000
00000200
00000000
,
00030300
00000120
00000000
00000000
,
00000001
00000032
00000000
00000000
00000203
00000000
00002300
00000000
,
00010000
00023000
00000000
00000000
00000000
00000000
00000000
00100000
,
00100000
00230000
00000000
00000000
00000000
00000000
20000000
00000000
,
30300000
10010000
10000000
01000000
,
00100000
00010000
01000000
00001000
,
00010000
00000010
00001000
00000001
,
00000010
00000100
00001000
00000010
,
00010000
00000000
00001000
00010000
01000000
00000000
00010000
00001000
,
00000100
00000000
00001000
00010000
00100000
00000000
00010000
00001000
,
00000010
00000000
00000001
00000100
00001000
00000000
00010000
00100000
,
10000000
00000000
01000000
00010000
00001000
00000100
00001000
00010000
,
00100000
00010000
00011000
00000000
00000000
01010000
00000000
00000000
,
10010000
00000000
00000000
00000000
10000000
00000000
00100000
00000000
00010000
00000000
00100000
01000000
00000000
01000000
00100000
00000000
,
00010000
00001000
00011000
00000000
00000000
00001010
00000000
00000000
,
00001001
00000000
00000000
00000000
00000001
00000000
00000100
00000000
00001000
00000000
00000100
00000000
00000010
00000100
00000010
00000100
,
00000020
00000000
00001030
00000100
00000010
00000001
00000100
00000010
,
00010000
00000000
00001000
00010000
00001000
00000000
01000000
00000000
00010000
00000000
00100000
00000000
01000000
00000000
10000000
00000000
,
00100000
00000000
01000000
00010000
01000000
00000000
00001000
00000000
00010000
00000000
00000100
00000000
00001000
00000000
00000010
00000000
,
00010000
00001000
00200000
00000000
00000000
00000000
00000000
00000000
,
01300000
00000000
00000000
00000000
01000000
00000000
10000000
00000000
00100000
00000000
00010000
00001000
00010000
00000000
00100000
00000000
,
10000000
01000000
00000000
00010000
00001000
00000100
00000001
00000010
,
00000100
00000000
00000100
00000000
00000100
00000000
00000000
00000000
00000010
00000000
00000001
00000100
00000001
00000000
00000010
00000000
,
00001000
00010000
00100000
10000000
01000000
00100000
00010000
00010000
,
10010000
00000000
00000000
00000000
10000000
00000000
01000000
00000000
00100000
00000000
00010000
00100000
00010000
00000000
01000000
00000000
,
00001000
00010000
00000000
00000100
00000010
00000001
00000100
00001000
,
00010000
00000000
00010000
00000000
00010000
00000000
00000000
00000000
00001000
00000000
00100000
00010000
00100000
00000000
01000000
00000000
,
10000000
00100000
02000000
00000000
00000000
00000000
00000000
00000000
,
03010000
00000000
00000000
00000000
00010000
00000000
10000000
00000000
01000000
00000000
00100000
01000000
00100000
00000000
00010000
00000000
,
01000000
00001000
00000000
00010000
00001000
00000100
00000001
00000001
,
00000010
00000010
00000010
00000100
00000010
00001000
00010000
01000000
,
00100000
00100000
00000000
00010000
01000000
10000000
01000000
01000000
,
01100000
00000000
00000000
00000000
00100000
00000000
10000000
00000000
01000000
00000000
00100000
00010000
00100000
00000000
00001000
00000000
,
00010000
00000100
00000000
00000010
00000001
00000100
00001000
00001000
,
00010000
00010000
00010000
00000100
00000010
00001000
00010000
00100000
,
10000000
01000000
00100000
00010000
01000000
00100000
00010000
00001000
,
00000100
00000010
00000100
00000100
00000001
00000010
00000100
00001000
,
00000010
00000010
00000100
00000010
00001000
00001000
00000100
00000100
,
00010000
00010000
00010000
00001000
00100000
01000000
10000000
00100000
,
00100000
00100000
01000000
00010000
10000000
01000000
00100000
00100000
,
00010000
01000000
00001000
00001000
00010000
00000100
00000010
00000001
,
00000100
00000100
00001000
00010000
00100000
00100000
10000000
10000000
,
01000000
01000000
01000000
00100000
00010000
01000000
00100000
00010000
,
00010000
00010000
00001000
00000100
00000001
00000010
00000100
00000100
,
00010000
00001000
00100000
00100000
00010000
01000000
10000000
01000000
,
00010000
00010000
00100000
01000000
00010000
00010000
00001000
00001000
,
00000010
00000010
00000010
00000001
00000100
00001000
00000100
00000010
,
00000010
00000010
00001000
00000100
00000010
00000001
00000100
00000100
,
00001000
00010000
00100000
10000000
01000000
10000000
00100000
00010000
,
00001000
00000000
00010000
00001000
00010000
00000000
00001000
00000000
00000100
00000000
00000001
00000000
00000010
00000000
00000001
00000000
,
00000100
00000000
00001000
00010000
00001000
00000000
00000000
00000000
01001000
00000000
00000000
00000000
00011000
00000000
00000000
00000000
,
00010100
00000000
00000100
00000010
00000001
00001000
00000100
00000010
,
00001000
00010000
00011000
00000000
00000000
00110000
00000000
00000000
,
10010000
00000000
00000000
00000000
10000000
00000000
01000000
00000000
00100000
00000000
00010000
01000000
00000000
01000000
00001000
00000000
,
00010000
00001000
00011000
00000000
00000000
00001100
00000000
00000000
,
00001001
00000000
00000000
00000000
00000001
00000000
00000010
00000000
00000100
00000000
00001000
00000000
00000010
00000100
00000010
00000100
,
00000020
00000000
00001030
00000100
00000010
00000001
00000100
00001000
,
00010000
00000000
00001000
00010000
00001000
00000000
00010000
00000000
00100000
00000000
10000000
00000000
01000000
00000000
00100000
00000000
,
00001000
00000000
00010000
00001000
00010000
00000000
00001000
00000000
00000100
00000000
00000010
00000000
00001000
00000000
00000001
00000000
,
00000100
00001000
00020000
00000000
00001000
00001000
00002000
00000000
,
00033000
00011000
00000000
00000000
;

//---------------dance-single - ----------------
#NOTEDATA:;
#CHARTNAME:;
#STEPSTYPE:dance-single;
#DESCRIPTION:;
#CHARTSTYLE:;
#DIFFICULTY:Beginner;
#METER:4;
#RADARVALUES:0.176968,0.270983,0.024132,0.000000,0.000000,154.000000,151.000000,3.000000,0.000000,0.000000,0.000000,0.000000,0.000000,0.000000,0.176968,0.270983,0.024132,0.000000,0.000000,154.000000,151.000000,3.000000,0.000000,0.000000,0.000000,0.000000,0.000000,0.000000;
#CREDIT:MILEN;
#NOTES:
0000
0000
0000
0000
,
0000
0000
0000
0000
,
0000
0000
0000
0000
,
0000
0000
0000
0000
,
0000
0000
0000
0000
,
0000
0000
0000
0000
,
0000
0000
0000
0000
,
0000
0000
0000
0000
,
0000
1000
0000
0000
,
0000
1000
0000
0000
,
0000
0001
0000
0000
,
0000
0001
0000
0000
,
0000
1000
0000
0000
,
0000
0001
0000
0000
,
0000
1000
0000
0000
,
0000
1001
0000
0000
,
0000
0001
0000
0001
,
0000
0001
0000
0001
,
0000
1000
0000
1000
,
0000
1000
0000
0000
,
0000
0010
0000
0010
,
0000
0010
0000
0010
,
0000
0100
0000
0100
,
0000
0100
0000
0000
,
0000
0010
0000
1000
,
0000
0010
0000
1000
,
0000
0001
0000
0100
,
0000
0001
0000
0100
,
0000
0001
0000
0001
,
0000
1000
0000
1000
,
0000
0100
0000
0010
,
0000
0001
0000
0001
,
0000
1001
0000
0000
,
0000
0000
0000
0000
,
0000
1000
0000
0000
,
0000
0000
0000
0000
,
0000
0010
0000
0000
,
0000
0000
0000
0000
,
0000
0100
0000
0000
,
0000
0000
0000
0000
,
0000
0001
0000
0000
,
0000
0010
0000
0000
,
0000
0100
0000
0000
,
0000
1000
0000
0000
,
0000
0010
0000
0000
,
0000
0100
0000
0000
,
0000
0010
0000
0000
,
0000
0000
0000
0000
,
0000
1000
0000
1000
,
0000
1000
0000
1000
,
1000
0001
0000
0001
,
0000
0001
0000
0001
,
0001
1000
0000
0100
,
0000
0010
0000
0001
,
0000
0100
0100
0100
,
0100
0100
0000
0000
,
0000
0001
0000
0010
,
0000
0001
0000
0010
,
0000
0001
0000
1000
,
0000
0001
0000
1000
,
0000
0100
0000
1000
,
0000
0100
0000
1000
,
0000
0001
0000
1000
,
0000
0001
0000
0000
,
0000
0100
0000
0010
,
0000
0100
0000
0010
,
0000
1000
0000
0010
,
0000
1000
0000
0010
,
0000
0100
0000
0010
,
0000
0100
0000
0010
,
0000
0100
0000
0001
,
0000
0100
0000
0001
,
0000
1000
0000
0100
,
0000
0010
0000
0001
,
0000
0100
0000
0001
,
0000
0010
0000
0001
,
0000
0001
0000
0010
,
0000
0100
0000
1000
,
0000
0010
0000
1000
,
0000
0100
0000
1000
,
0000
0010
0000
0010
,
0000
0100
0000
0100
,
0000
0001
0000
0001
,
0000
1000
0000
1000
,
0000
0010
0000
0010
,
0000
0001
0000
0001
,
0000
0100
0000
0100
,
0000
1000
1000
1000
,
1000
1000
0000
1000
,
0000
1000
0000
1000
,
1000
0001
0000
0001
,
0000
0001
0000
0001
,
0001
1000
0000
0010
,
0000
0100
0000
0001
,
0000
0010
0000
1000
,
0000
0100
0000
0000
,
0000
1001
0000
0000
;

//---------------dance-single - ----------------
#NOTEDATA:;
#CHARTNAME:;
#STEPSTYPE:dance-single;
#DESCRIPTION:;
#CHARTSTYLE:;
#DIFFICULTY:Easy;
#METER:7;
#RADARVALUES:0.298778,0.387118,0.088484,0.072396,0.000000,260.000000,249.000000,11.000000,9.000000,0.000000,0.000000,0.000000,0.000000,0.000000,0.298778,0.387118,0.088484,0.072396,0.000000,260.000000,249.000000,11.000000,9.000000,0.000000,0.000000,0.000000,0.000000,0.000000;
#CREDIT:MILEN;
#NOTES:
0000
0000
0000
0000
,
0000
0000
0000
0000
,
0000
0000
0000
0000
,
0000
0000
0000
0000
,
0000
0000
0000
0000
,
0000
0000
0000
0000
,
0000
0000
0000
0000
,
0000
0000
0000
0000
,
0000
1000
0000
1000
,
0000
0001
0000
0001
,
0000
1000
0000
0001
,
0000
1000
0000
0001
,
0000
0100
0000
0100
,
0000
0010
0000
0010
,
0000
0100
0000
0010
,
0000
0220
0000
0000
,
0330
0100
0000
0001
,
0000
0100
0000
0001
,
0010
0100
0000
1000
,
0000
0200
0000
0300
,
0000
1000
0000
0010
,
0000
1000
0000
0010
,
0100
0001
0000
0010
,
0000
0001
0010
0001
,
1001
1000
0000
0010
,
0000
0100
0000
0001
,
0000
0010
0000
0100
,
0000
1000
0000
0001
,
1000
0001
0001
0010
,
0000
1000
1000
0100
,
0000
0001
0001
1000
,
1000
0010
0100
0010
,
0100
0110
0000
0000
,
0000
0000
0000
0000
,
0000
0001
0000
0000
,
0000
0010
0000
0000
,
0000
0100
0000
0000
,
0000
1000
0000
0000
,
0000
0010
0000
0000
,
0000
0100
0000
0000
,
0000
0010
0000
0010
,
0000
1000
0000
1000
,
0000
0001
0000
0001
,
0000
0100
0000
0100
,
0000
0010
0000
1000
,
0000
0001
0000
0100
,
0000
0010
0000
0100
,
0000
0001
0000
1000
,
0000
0000
0010
0000
0000
0010
0000
0000
,
0010
1000
0001
1000
,
0001
0000
0100
0000
0000
0100
0000
0000
,
0100
0001
1000
0001
,
1000
0001
0000
0010
,
0000
1000
0000
0100
,
0000
0001
1000
0010
,
0100
0220
0000
0000
,
0330
0010
1000
0100
,
0000
1000
0001
0010
,
0000
0010
0001
0100
,
0000
0001
1000
0100
,
0100
1000
0010
0100
,
0000
0100
0001
0010
,
0000
0010
0100
1000
,
0000
2002
0000
0000
,
3003
0001
0010
0001
,
0100
0001
0010
0001
,
0000
1000
0100
1000
,
0010
1000
0100
1000
,
1001
0010
0010
0001
,
0000
0100
0100
1000
,
0000
0010
0010
0100
,
0010
1000
0001
1000
,
0001
1001
1000
0100
,
0010
0100
1000
1000
,
0001
0001
0010
0001
,
0100
0100
0010
1000
,
1000
0100
0100
0010
,
0001
0010
0100
0100
,
0010
0010
0100
1000
,
0010
0010
0100
0001
,
0001
1000
1000
0100
,
0010
0001
0100
0100
,
1000
1000
0100
0001
,
0010
0010
1000
0010
,
0010
0001
0001
0100
,
0010
1000
0100
0100
,
0001
0001
0100
1000
,
0010
0100
0010
0100
,
0110
0000
1000
0000
0000
0001
0000
0000
,
1000
0100
0010
0001
,
1000
0000
0001
0000
0000
1000
0000
0000
,
0001
0010
0100
1000
,
1001
0010
0010
0001
,
0001
0100
0100
1000
,
1000
0001
0100
0010
,
1000
0100
0010
2002
,
3003
1001
0000
0000
;

//---------------dance-double - ----------------
#NOTEDATA:;
#CHARTNAME:;
#STEPSTYPE:dance-double;
#DESCRIPTION:;
#CHARTSTYLE:;
#DIFFICULTY:Easy;
#METER:8;
#RADARVALUES:0.299927,0.387118,0.096528,0.072396,0.000000,261.000000,249.000000,12.000000,9.000000,0.000000,0.000000,0.000000,0.000000,0.000000,0.299927,0.387118,0.096528,0.072396,0.000000,261.000000,249.000000,12.000000,9.000000,0.000000,0.000000,0.000000,0.000000,0.000000;
#CREDIT:MILEN;
#NOTES:
00000000
00000000
00000000
00000000
,
00000000
00000000
00000000
00000000
,
00000000
00000000
00000000
00000000
,
00000000
00000000
00000000
00000000
,
00000000
00000000
00000000
00000000
,
00000000
00000000
00000000
00000000
,
00000000
00000000
00000000
00000000
,
00000000
00000000
00000000
00000000
,
00000000
01000000
00000000
01000000
,
00000000
00001000
00000000
00001000
,
00000000
01000000
00000000
00001000
,
00000000
01000000
00000000
00001000
,
00000000
00010000
00000000
00010000
,
00000000
00000100
00000000
00000100
,
00000000
00010000
00000000
00000100
,
00000000
00000220
00000000
00000000
,
00000330
00000010
00000000
00000001
,
00000000
00000100
00000000
00001000
,
00010000
00001000
00000000
00010000
,
00000000
02000000
00000000
03000000
,
00000000
01000000
00000000
10000000
,
00000000
00100000
00000000
00010000
,
00001000
00010000
00000000
00001000
,
00000000
00000100
00000001
00000010
,
00000011
00000001
00000000
00001000
,
00000000
00000100
00000000
00010000
,
00000000
00001000
00000000
00100000
,
00000000
00010000
00000000
01000000
,
00100000
01000000
01000000
00010000
,
00000000
10000000
10000000
00100000
,
00000000
00010000
00010000
00001000
,
00001000
00000100
00000001
00001000
,
00000001
00001001
00000000
00000000
,
00000000
00000000
00000000
00000000
,
00000000
00000010
00000000
00000000
,
00000000
00000100
00000000
00000000
,
00000000
00001000
00000000
00000000
,
00000000
00010000
00000000
00000000
,
00000000
00100000
00000000
00000000
,
00000000
01000000
00000000
00000000
,
00000000
00010000
00000000
00010000
,
00000000
10000000
00000000
10000000
,
00000000
01000000
00000000
01000000
,
00000000
00010000
00000000
00010000
,
00000000
00001000
00000000
00000010
,
00000000
00000001
00000000
00000100
,
00000000
00001000
00000000
00010000
,
00000000
00100000
00000000
10000000
,
00000000
00000000
01000000
00000000
00000000
01000000
00000000
00000000
,
01000000
00010000
00001000
00010000
,
00001000
00000000
00000010
00000000
00000000
00000010
00000000
00000000
,
00000010
00000001
00001000
00000001
,
00001001
00000100
00000000
00001000
,
00000000
00010000
00000000
00100000
,
00000000
00010000
00001000
00010000
,
00001000
00022000
00000000
00000000
,
00033000
00010000
00100000
01000000
,
00000000
00100000
10000000
01000000
,
00000000
01000000
00100000
00010000
,
00000000
00100000
00001000
00010000
,
00010000
00001000
00000100
00000010
,
00000000
00000100
00000001
00001000
,
00000000
00000010
00010000
00001000
,
00000000
00022000
00000000
00000000
,
00033000
00001000
00000100
00000010
,
00000100
00001000
00010000
00001000
,
00000000
00010000
00100000
01000000
,
00100000
00010000
00001000
00010000
,
00011000
00000100
00000100
00000001
,
00000000
00000010
00000010
00001000
,
00000000
00000100
00000100
00000010
,
00000001
00000100
00001000
00010000
,
00001000
00011000
00100000
00010000
,
01000000
00100000
10000000
10000000
,
01000000
01000000
00010000
00001000
,
00000010
00000010
00000001
00001000
,
00001000
00000010
00000010
00010000
,
00001000
00100000
01000000
01000000
,
10000000
10000000
00100000
00010000
,
00001000
00001000
00100000
01000000
,
01000000
00010000
00010000
00001000
,
00000010
00000001
00000100
00000100
,
00000010
00000010
00010000
00001000
,
00100000
00100000
01000000
10000000
,
10000000
00100000
00100000
00010000
,
00001000
00000100
00000001
00000001
,
00000010
00000010
00000100
00010000
,
00001000
00100000
01000000
10000000
,
10010000
00000000
00010000
00000000
00000000
01000000
00000000
00000000
,
00010000
00100000
01000000
00010000
,
00000100
00000000
00001000
00000000
00000000
00000010
00000000
00000000
,
00001000
00000100
00000010
00001000
,
00011000
00100000
00100000
10000000
,
10000000
01000000
01000000
00010000
,
00010000
00001000
00000010
00000001
,
00000100
00001000
00010000
00022000
,
00033000
00011000
00000000
00000000
;

//---------------dance-single - ----------------
#NOTEDATA:;
#CHARTNAME:;
#STEPSTYPE:dance-single;
#DESCRIPTION:;
#CHARTSTYLE:;
#DIFFICULTY:Medium;
#METER:11;
#RADARVALUES:0.484939,0.658101,0.193056,0.128704,0.000000,422.000000,398.000000,24.000000,16.000000,0.000000,0.000000,0.000000,0.000000,0.000000,0.484939,0.658101,0.193056,0.128704,0.000000,422.000000,398.000000,24.000000,16.000000,0.000000,0.000000,0.000000,0.000000,0.000000;
#CREDIT:MILEN;
#NOTES:
0000
0000
0000
0000
,
0000
0000
0000
0000
,
0000
0000
0000
0000
,
0000
0000
0000
0000
,
0000
0000
0000
0000
,
0000
0000
0000
0000
,
0000
0000
0000
0000
,
0000
0000
0000
0000
,
0000
1000
0001
1000
,
0001
0100
0010
0100
,
0010
1000
0001
1000
,
0001
0010
0100
0010
,
0100
1000
1000
0001
,
0001
0100
0100
0010
,
0010
0000
1000
0001
1000
0000
0001
1000
,
0001
0000
0100
0010
0100
0010
0100
0000
,
0110
0010
1000
0100
,
0010
0001
0100
0010
,
1000
0001
1000
0000
0010
0000
0100
0000
,
0001
2002
0000
0000
,
3003
0001
0100
0010
,
1000
0001
0010
0100
,
1000
0001
1000
0000
0010
0000
0100
0000
,
0001
0000
0011
0000
1100
0000
1000
0001
,
2000
0000
3010
0010
0000
0100
0000
0100
,
0000
0001
0000
0001
0000
0010
0000
0010
,
0100
0000
1000
1000
0000
0001
0000
0001
,
0000
0100
0000
0100
0000
0010
0000
0010
,
1000
0000
0100
0100
0000
0010
0000
0010
,
0000
0001
0000
0001
0000
0100
0000
0100
,
0010
0000
0100
0001
0100
0000
0010
1000
,
0010
0000
1000
0001
1000
0001
1000
0000
,
0010
0120
0000
0000
,
0000
0000
0000
0000
,
0000
2030
0000
0000
,
0000
0000
0000
0000
,
0000
3002
0000
0000
,
0000
0000
0000
0000
,
0000
0203
0000
0000
,
0000
0000
0000
0000
,
0000
0310
0000
1000
,
0000
0100
0000
0001
,
0000
0010
0000
1000
,
0000
0100
0000
0001
,
0000
0010
0100
0010
,
0000
1000
0001
1000
,
0000
0100
0010
0100
,
1000
0001
1000
0010
,
0100
0000
0101
0000
0000
0011
0000
0000
,
0101
0000
0100
0001
0010
0000
0100
1000
,
0010
0000
1010
0000
0000
1100
0000
0000
,
1010
0000
0010
1000
0100
0000
0010
0001
,
0100
0000
0010
0000
1000
0000
0100
0010
,
0100
0000
0010
0000
0001
0000
0100
0010
,
0100
0000
0010
1000
0010
0000
0100
0001
,
0100
2002
0000
0000
,
3003
0000
1000
0100
0010
0000
0100
0010
,
0001
0000
0100
0010
1000
0001
0100
0000
,
0110
0000
0010
1000
0100
0000
0010
0001
,
0100
0000
0010
1000
0001
0100
0010
0010
,
0010
0000
1000
0100
0010
0000
0001
0010
,
0100
0000
1000
0010
0100
0001
1000
0000
,
1001
0000
0001
0100
0010
0000
1000
0010
,
0100
0220
0000
0330
,
1001
0000
1000
0100
0001
0000
0001
0100
,
1000
0000
1000
0010
0001
0010
1000
0000
,
1100
0000
0001
0100
1000
0000
1000
0100
,
0001
0000
0001
0010
0100
1000
0010
0010
,
0010
0000
1000
0010
0001
0000
1000
0100
,
0001
0000
0001
0010
1000
0000
0001
0100
,
1000
0000
0010
0100
0001
0100
0010
1000
,
0010
0100
0002
0000
2003
0000
3002
0000
,
2003
3001
0100
0010
,
1000
0100
0010
0000
0001
0000
0100
0000
,
0010
1000
0100
0000
0010
0000
0001
0000
,
0100
0010
1000
0000
0100
0000
0010
0000
,
0001
1000
0010
0000
0100
0000
0001
0000
,
0010
0100
1000
0000
0010
0000
0100
0000
,
0001
0010
0100
0000
1000
0000
0010
0000
,
0100
0001
0010
0000
0100
0000
1000
0000
,
0010
0100
0001
1000
0100
0000
0010
0001
,
0100
0000
0010
1000
0001
0000
0100
0001
,
1000
0000
0001
0010
0100
0000
0010
0100
,
1000
0000
0010
0100
0001
0000
0100
0010
,
1000
0000
0100
0010
0100
0010
0100
0010
,
0001
0000
0010
0100
0010
0100
0010
0100
,
1000
0000
0010
1000
0010
1000
0010
1000
,
0010
1000
0001
0100
0001
0100
0001
0100
,
0010
0000
0110
0000
0000
1010
0000
0000
,
0101
0000
0001
0010
1000
0000
0010
0001
,
0100
0000
0110
0000
0000
0101
0000
0000
,
1010
0000
1000
0100
0001
0000
0100
1000
,
0010
0000
0100
0001
0010
0000
0100
1000
,
0010
0000
0100
0001
1000
0000
0010
1000
,
0001
0000
0010
0100
1000
0001
0010
0100
,
1000
0010
0001
0000
1000
0100
0002
0000
,
0003
1001
0000
0000
;

//---------------dance-double - ----------------
#NOTEDATA:;
#CHARTNAME:;
#STEPSTYPE:dance-double;
#DESCRIPTION:;
#CHARTSTYLE:;
#DIFFICULTY:Medium;
#METER:12;
#RADARVALUES:0.510220,0.658101,0.281541,0.120660,0.000000,444.000000,409.000000,35.000000,15.000000,0.000000,0.000000,0.000000,0.000000,0.000000,0.510220,0.658101,0.281541,0.120660,0.000000,444.000000,409.000000,35.000000,15.000000,0.000000,0.000000,0.000000,0.000000,0.000000;
#CREDIT:MILEN;
#NOTES:
00000000
00000000
00000000
00000000
,
00000000
00000000
00000000
00000000
,
00000000
00000000
00000000
00000000
,
00000000
00000000
00000000
00000000
,
00000000
00000000
00000000
00000000
,
00000000
00000000
00000000
00000000
,
00000000
00000000
00000000
00000000
,
00000000
00000000
00000000
00000000
,
00000000
00001000
00010000
00001000
,
00010000
01000000
00100000
01000000
,
00100000
00001000
00010000
00001000
,
00010000
00000100
00000010
00000100
,
00000010
00001000
00010000
01000000
,
00100000
00001000
00010000
00000100
,
00000010
00000001
00000100
00001000
,
00010000
00100000
00100000
00100000
,
10010000
10000000
01000000
00100000
,
00010000
01000000
00100000
00010000
,
00001000
00010000
00001000
00000000
00000100
00000000
00000010
00000000
,
00001000
00002002
00000000
00000000
,
00003003
00000001
00000010
00000100
,
00001000
00000010
00000100
00001000
,
00010000
00001000
00010000
00000000
00100000
00000000
01000000
00000000
,
00010000
00000000
10010000
00000000
01100000
00000000
00100000
01000000
,
00200000
00000000
10300000
01000000
00000000
00010000
00000000
01000000
,
00000000
00010000
00000000
00001000
00000000
00000010
00000000
00000001
,
00000100
00000000
00000001
00000010
00000000
00001000
00000000
00000010
,
00000000
00001000
00000000
00010000
00000000
01000000
00000000
10000000
,
00100000
00000000
10000000
01000000
00000000
00010000
00000000
00001000
,
00000000
00010000
00000000
00001000
00000000
00000100
00000000
00000001
,
00000010
00001000
00001000
00010000
,
00010000
00000000
00001000
00010000
00001000
00010000
00001000
00000000
,
00010000
00012000
00000000
00000000
,
00103000
00100000
00000000
00000000
00110000
00000000
00010000
00000000
,
01000000
02000000
00000000
00000000
00000000
00000000
00000000
03100000
,
10000000
02000000
00000000
00000000
03000000
00000000
01010000
00000000
,
00000000
00021000
00000000
00000000
,
00030100
00000100
00000000
00000000
00001100
00000000
00001000
00000000
,
00000010
00000020
00000000
00000000
00000000
00000000
00000000
00000130
,
00000001
00000020
00000000
00000000
00000030
00000000
00001010
00000000
,
00000000
00001000
00010000
00100000
,
00000000
00010000
00001000
00000010
,
00000000
00001000
00010000
01000000
,
00000000
00010000
00001000
00000100
,
00000000
00000001
00000010
00001000
,
00000000
00010000
01000000
10000000
,
00000000
00100000
00010000
00001000
,
00000100
00001000
00010000
00100000
,
00010000
00000000
00011000
00000000
00000000
00001100
00000000
00000000
,
00001001
00000001
00000100
00001000
,
00010000
00000000
00011000
00000000
00000000
01010000
00000000
00000000
,
10010000
00000000
10000000
00000000
00100000
00000000
00010000
00001000
,
00010000
00000100
00000010
00000001
,
00000100
00001000
00010000
00100000
,
10000000
00000000
01000000
00000000
00100000
00000000
00001000
00010000
,
00001000
00022000
00000000
00033000
,
00011000
00000000
00010000
01000000
10000000
00000000
01000000
00010000
,
00001000
00000000
00010000
01000000
10000000
00100000
00010000
00000000
,
00011000
00000000
00001000
00000100
00000001
00000000
00000100
00001000
,
00010000
00000000
00001000
00000100
00000001
00000010
00001000
00010000
,
00011000
00000000
00001000
00100000
01000000
00000000
00010000
00000100
,
00000010
00000000
00001000
00010000
00001000
00010000
00001000
00000000
,
00011000
00000000
00010000
00001000
00000010
00000000
00001000
00010000
,
01000000
02200000
00000000
03300000
,
10010000
00000000
00010000
01000000
00001000
00000000
00010000
00000100
,
00001000
00000000
00000100
00000010
00000001
00000100
00001000
00000000
,
00011000
00000000
00001000
00100000
01000000
00000000
10000000
00100000
,
00010000
00000000
00001000
00010000
00001000
00000100
00000001
00001000
,
00001001
00000000
00000001
00000010
00000100
00000000
00000010
00001000
,
00010000
00000000
00001000
00100000
01000000
00000000
10000000
00100000
,
00010000
00000000
00001000
00010000
00000010
00010000
00001000
01000000
,
00001000
00010000
00010100
00000000
00001000
00000000
01001000
00000000
,
00010000
00011000
00001000
00010000
,
01000000
10000000
01000000
00000000
00010000
00000000
00001000
00000000
,
00000010
00000001
00000010
00000000
00001000
00000000
00010000
00000000
,
00100000
10000000
00100000
00000000
00010000
00000000
00001000
00000000
,
00000100
00000001
00000100
00000000
00001000
00000000
00010000
00000000
,
00100000
10000000
01000000
00000000
00010000
00000000
00001000
00000000
,
00000010
00000001
00000100
00000000
00001000
00000000
00010000
00000000
,
01000000
10000000
00100000
00000000
00010000
00000000
00001000
00000000
,
00000100
00000001
00000010
00000100
00000010
00000000
00000001
00000100
,
00001000
00000000
00000100
00001000
00010000
00000000
00001000
00010000
,
00100000
00000000
00010000
00100000
10000000
00000000
01000000
00010000
,
00001000
00000000
00010000
00001000
00000100
00000000
00001000
00000100
,
00000001
00000000
00000010
00000100
00010000
00001000
00100000
01000000
,
00100000
00000000
01000000
00100000
00001000
00010000
00000100
00000010
,
00000100
00000000
00010000
00001000
00010000
00001000
00100000
01000000
,
00100000
01000000
00010000
00001000
00010000
00001000
00000010
00000100
,
00000010
00000000
00000110
00000000
00000000
00000011
00000000
00000000
,
00001100
00000000
00000100
00010000
00001000
00000000
00001000
01000000
,
00100000
00000000
01100000
00000000
00000000
01010000
00000000
00000000
,
10100000
00000000
10000000
01000000
00010000
00000000
00001000
00000010
,
00000001
00000000
00001000
00000010
00010000
00000000
00001000
00100000
,
00010000
00000000
01000000
00100000
10000000
00000000
01000000
00100000
,
00010000
00000000
00100000
00001000
00010000
00000100
00001000
00000100
,
00000010
00000001
00000100
00000000
00001000
00020000
00002000
00000000
,
00033000
00011000
00000000
00000000
;
