#VERSION:0.83;
#TITLE:GLORIA;
#SUBTITLE:;
#ARTIST:Croire;
#TITLETRANSLIT:;
#SUBTITLETRANSLIT:;
#ARTISTTRANSLIT:;
#GENRE:VARIETY;
#ORIGIN:;
#CREDIT:MUINELIM;
#BANNER:GLORIA.png;
#BACKGROUND:GLORIA-bg.png;
#PREVIEWVID:;
#JACKET:GLORIA-jacket.png;
#CDIMAGE:;
#DISCIMAGE:;
#LYRICSPATH:;
#CDTITLE:;
#MUSIC:GLORIA.mp3;
#OFFSET:-0.125000;
#SAMPLESTART:8.941326;
#SAMPLELENGTH:10.775509;
#SELECTABLE:YES;
#DISPLAYBPM:61.000000:490.000000;
#BPMS:0.000=245.000,
32.000=122.500,
34.000=245.000,
130.000=122.500,
162.000=245.000,
226.000=61.250,
234.000=122.500,
250.000=490.000,
310.000=245.000,
371.500=490.000;
#STOPS:306.000=0.122,
307.000=0.122,
308.000=0.122,
309.000=0.122,
370.000=0.245,
370.500=0.245,
371.000=0.122;
#DELAYS:;
#WARPS:;
#TIMESIGNATURES:0.000=4=4;
#TICKCOUNTS:0.000=4;
#COMBOS:0.000=1;
#SPEEDS:0.000=1.000=0.000=0;
#SCROLLS:0.000=1.000;
#FAKES:;
#LABELS:0.000=Song Start;
#BGCHANGES:0.000=GLORIA.avi=1.000=1=0=0=StretchNoLoop==CrossFade==,
99999=-nosongbg-=1.000=0=0=0 // don't automatically add -songbackground-
;
#KEYSOUNDS:;
#ATTACKS:
;

//---------------dance-single - ----------------
#NOTEDATA:;
#CHARTNAME:;
#STEPSTYPE:dance-single;
#DESCRIPTION:;
#CHARTSTYLE:;
#DIFFICULTY:Hard;
#METER:17;
#RADARVALUES:0.980889,2.011140,0.295508,0.443262,0.508448,790.000000,756.000000,34.000000,51.000000,0.000000,0.000000,0.000000,0.000000,0.000000,0.980889,2.011140,0.295508,0.443262,0.508448,790.000000,756.000000,34.000000,51.000000,0.000000,0.000000,0.000000,0.000000,0.000000;
#CREDIT:MILEN;
#DISPLAYBPM:245.000000;
#NOTES:
0000
0000
0000
0000
,
0000
0000
0000
0000
,
0000
0000
0000
0000
,
0000
0000
0000
0000
,
0000
0000
0000
0000
,
1000
1000
0010
0010
,
0001
0001
0100
0100
,
1000
0000
0001
0000
0100
0000
0010
0000
1000
0001
1000
0001
1000
0001
1000
0002
,
2000
0000
0000
3003
1000
0010
0100
0010
,
1000
0100
0010
0200
0000
0310
0010
0001
,
0100
0010
0100
0001
0011
0010
0001
0100
,
0010
0000
0100
0000
0001
0000
0010
0000
0100
0000
0100
0000
0100
0000
1000
0010
,
1000
0001
0100
0001
1001
1000
0010
0100
,
0010
1000
0100
0020
0000
0130
0100
0010
,
0001
0100
0010
0100
0001
0010
0100
0010
,
0001
0000
0100
0000
0010
0000
1000
0000
0001
0010
0001
0000
0200
0000
0000
0000
,
0301
0010
0001
0000
1000
0010
1000
0000
0001
0000
0010
0000
0100
0000
0010
0000
,
0001
0100
0010
0200
0000
0310
0010
1000
,
0100
0010
0100
1000
1010
0010
1000
0100
,
0010
0000
0100
0000
1000
0000
0010
0000
0100
0000
0100
0000
0100
0000
0001
0010
,
0001
1000
0100
1000
1001
0001
0010
0100
,
0010
0001
0100
0020
0000
0130
0100
0010
,
1000
0100
0010
0100
1000
1010
0000
0001
,
0011
0000
1000
1100
0000
0001
0101
1000
,
0010
0000
0000
0010
0000
0000
0010
0000
0100
0001
0100
0001
2000
0000
0000
0000
,
0000
0000
3020
0000
0000
0230
0000
0000
,
0302
0000
0000
0000
2003
0000
0000
0000
3100
0010
0100
0010
0002
0000
0000
0000
,
0000
0000
0203
0000
0000
0320
0000
0000
,
1030
0100
1000
0000
0001
0100
0001
0000
1000
0000
0010
0000
0100
0000
0010
0000
,
0001
0010
0100
0010
1000
0100
0010
0100
,
0001
0100
0010
0100
1000
0010
1000
0010
,
0100
0000
0001
0000
0100
0000
0001
0000
0010
0100
0010
0000
0100
1000
0100
0000
,
0010
0001
0010
0000
0001
1000
0001
1000
0200
0000
0000
0000
0000
0000
0010
0000
,
0320
0000
0000
0000
0032
0000
0000
1000
,
2000
0000
0000
0000
0000
0000
3003
0000
1001
0000
0110
0000
0100
0001
0010
0100
,
2000
0000
0000
0000
0000
0000
0000
0000
0000
0000
0000
0000
0000
0000
0000
0000
0000
0000
0000
0000
0000
0000
0000
0000
0000
0000
0000
0000
0000
0000
0000
0000
0000
0000
0000
0000
3020
0000
0000
0000
0000
0000
0000
0000
0000
0000
0000
0000
0000
0000
0000
0000
0000
0000
0000
0000
0000
0000
0000
0000
0000
0000
0000
0000
0000
0000
0000
0000
0000
0000
0000
0000
0032
0000
0000
0000
0000
0000
0000
0000
0000
0000
0000
0000
0000
0000
0000
0000
0000
0000
0000
0000
0000
0000
0000
0000
0103
0000
0000
0000
0000
0000
0000
0000
0000
0000
0000
0000
0000
0000
0000
0000
1000
0000
0000
0000
0000
0000
0000
0000
0000
0000
0000
0000
0000
0000
0000
0000
0010
0000
0000
0000
0000
0000
0000
0000
0000
0000
0000
0000
0000
0000
0000
0000
0110
0000
0000
0000
0000
0000
0000
0000
0000
0000
0000
0000
0000
0000
0000
0000
0000
0000
0000
0000
0000
0000
0000
0000
0100
0000
0000
0000
0000
0000
0000
0000
0000
0000
0000
0000
0001
0000
0000
0000
0000
0000
0010
0000
0000
0000
0000
0000
,
0200
0000
0000
0000
0000
0000
0000
0000
1300
0010
1000
0000
0001
0100
0001
0100
0020
0000
0000
0000
0000
0000
2030
0000
0000
0000
0000
0000
3002
0000
0000
0000
,
0023
0000
0000
0000
0000
0000
0000
0000
0000
0000
0000
0000
0000
0000
0000
0000
0000
0000
0000
0000
0000
0000
0000
0000
0000
0000
0000
0000
0000
0000
0000
0000
0000
0000
0000
0000
0230
0000
0000
0000
0000
0000
0000
0000
0000
0000
0000
0000
0000
0000
0000
0000
0000
0000
0000
0000
0000
0000
0000
0000
0000
0000
0000
0000
0000
0000
0000
0000
0000
0000
0000
0000
1300
0000
0000
0000
0000
0000
0010
0000
0000
0000
0000
0000
1000
0000
0000
0000
0000
0000
0010
0000
0000
0000
0000
0000
0200
0000
0000
0000
0000
0000
0000
0000
0000
0000
0000
0000
0000
0000
0000
0000
0000
0000
0000
0000
0000
0000
0000
0000
0000
0000
0000
0000
0000
0000
0000
0000
0000
0000
0000
0000
0301
0000
0000
0000
0000
0000
0000
0000
0000
0000
0000
0000
0001
0000
0000
0000
0000
0000
0000
0000
0000
0000
0000
0000
0000
0000
0000
0000
0010
0000
0000
0000
0000
0000
0000
0000
0000
0000
0000
0000
0000
0000
0000
0000
0100
0000
0000
0000
0000
0000
0000
0000
0000
0000
0000
0000
0000
0000
0000
0000
,
2000
0000
0000
3020
0000
0000
0230
0000
0301
0010
0001
0010
0100
0010
0100
0010
,
0100
1000
0100
1000
0100
0010
0100
0010
0001
0101
0000
1000
1100
0000
0001
0011
,
0000
0000
0000
1000
0000
0000
1010
0000
0000
0000
0000
0000
0010
0000
0000
0000
0001
0000
0000
0000
0100
0000
0000
0000
0220
0000
0000
0000
0000
0000
0330
0000
0000
0000
0000
0000
0010
0000
0000
0000
0000
0000
1000
0000
0000
0000
0000
0000
,
0100
0000
0010
0001
0100
0000
0010
1000
,
0001
0000
0100
0001
1000
0000
0100
0010
,
0001
0000
1000
0100
0010
0000
0001
0001
,
0100
0000
0010
0000
1000
0000
0010
0000
0000
0100
0000
0000
0001
0000
0000
0001
0000
0000
0010
0000
0000
0100
0000
0000
,
0001
0100
0010
0001
0100
0100
0010
1000
,
0100
0010
1000
0010
0001
0001
0100
0100
,
0010
0000
0010
0000
1000
0000
1000
0000
0001
0010
0001
0000
0100
0010
0100
0000
,
0010
1000
0010
0000
1000
0001
1000
0001
0200
0000
0000
0000
0310
0000
1000
0000
,
0100
0000
0010
0001
0100
0000
0010
1000
,
0001
0000
0100
0001
1000
0000
0001
0010
,
0100
0000
1000
0100
0010
0000
0001
1000
,
0010
0000
0100
0000
0001
0000
0100
0000
0000
0010
0000
0000
1000
0000
0000
1000
0000
0000
0100
0000
0000
0010
0000
0000
,
1000
0010
0100
1000
0010
0010
0100
0001
,
0010
0100
0010
0001
0100
1010
0000
0010
,
0101
0000
0001
0011
0000
1000
1100
0001
,
0100
0000
0000
0100
0000
0000
0100
0000
0220
0000
0000
0000
0300
0000
0000
0000
,
2000
0030
0200
3000
,
0302
0000
0000
0000
0023
0000
0000
0000
1030
0100
0010
0100
1000
0100
0001
0100
,
1000
0100
0010
0001
0100
0010
0110
0000
0001
0010
0100
0010
0001
0010
1000
0010
,
0001
0010
0100
1000
0010
0100
0110
0000
0001
0100
1000
0100
0001
0010
1000
0001
,
0100
0000
1000
0000
0010
0000
0001
0000
0010
0000
1000
0000
0100
0000
0010
0000
0001
0100
0001
0000
0100
0000
0010
0000
1000
0010
1000
0000
0010
0000
0100
0000
,
0001
0010
0001
0000
1000
0100
1000
0000
0010
0100
0010
0100
0010
0100
0010
0100
0001
0000
0000
0000
0000
0000
0000
0000
1000
0000
0000
0000
0000
0000
0000
0000
,
0100
1000
0001
1000
,
0100
0000
1000
0000
0010
1000
0010
0000
,
0100
0000
0010
0000
0100
0001
0100
0000
,
0001
0010
0001
0010
0200
0000
1300
0000
,
1000
0000
0010
0100
0010
0000
1000
0000
,
0001
0010
0001
0010
0001
0000
1000
0000
,
0001
0000
0100
0000
0010
1000
0010
0000
,
0100
0001
0100
0010
1000
0000
0000
1000
,
0000
0000
1000
0000
0001
0010
0001
0000
,
1000
0010
1000
0000
0001
0000
1000
0000
,
0100
0000
1000
0100
0010
0000
0001
0000
,
0200
0310
0010
1000
,
0001
0000
0100
0000
0010
1000
0010
1000
,
0001
0100
0001
0100
0020
0000
2030
0000
,
3200
0000
0302
0000
0013
0100
0001
0010
,
1000
0001
0100
0000
0010
0100
1000
0010
,
0001
1000
0100
0000
0001
0010
1000
0001
,
0100
1000
0010
0000
0100
0001
0010
0100
,
1000
0010
0100
0000
0001
0100
0010
0000
1000
0000
0100
0000
0010
0000
0100
0000
,
1000
0100
0001
0100
0010
0001
1000
0100
,
0010
1000
0010
0001
1000
1000
0010
0010
,
0100
0000
0100
0000
0001
0000
0001
0000
0010
0100
0010
0100
1000
0000
0010
0000
,
0100
0000
0001
0000
0010
0100
0010
0100
1000
0000
1000
0000
0010
0000
0101
0000
,
0001
1000
0100
0010
0001
0001
0100
1010
,
1000
0100
0010
0100
0010
0010
0001
0011
,
0010
0100
1000
0010
0100
0100
0001
0001
,
1000
0010
1000
0010
0100
0000
0001
0000
0010
0000
0010
0000
0100
0000
1100
0000
,
1000
0100
0010
0001
0100
0100
0010
0010
,
1000
0010
0100
0000
0001
0100
0001
0100
0010
0000
1010
0000
0000
0000
0100
0000
,
0101
0000
0001
1000
0110
0011
1100
1000
,
0000
0010
0000
0100
0000
1000
0000
0100
,
0000
0010
0000
1000
0000
0001
0000
0100
,
0000
0010
0000
0001
0000
0010
0000
0100
,
0000
0001
0000
1000
0000
0010
0000
0110
,
0000
0100
0000
0001
0000
0010
0000
1000
,
0000
0001
0000
0100
0000
1000
0000
0020
,
0000
0130
0000
0200
0000
0310
0000
0010
,
1000
0010
0000
0100
0001
0100
0000
0001
,
0010
0100
0000
0010
0000
0001
0000
1000
,
0100
0010
0000
0100
0000
1000
0000
0010
,
0100
0001
0000
0100
0010
1000
0000
0001
,
1000
0100
0000
1000
0001
0010
0000
0001
,
0000
0001
0000
0100
0000
0100
0000
0010
,
0000
0010
0000
1000
0000
1000
0000
0100
,
0010
0100
0010
0001
0000
0001
0000
0010
,
0100
0000
0000
0010
0000
0000
0100
0000
0000
1000
0000
0000
0010
0000
0000
0100
0000
0000
0000
0001
0000
0000
0000
0010
,
0000
0100
0000
2002
0000
0000
0000
0000
,
0000
0000
0000
0000
,
0000
0000
0000
0000
,
0000
0000
0000
0000
0000
0000
0000
3003
;

//---------------dance-double - ----------------
#NOTEDATA:;
#CHARTNAME:;
#STEPSTYPE:dance-double;
#DESCRIPTION:;
#CHARTSTYLE:;
#DIFFICULTY:Hard;
#METER:17;
#RADARVALUES:0.931224,1.814931,0.156446,0.469337,0.434571,750.000000,732.000000,18.000000,54.000000,0.000000,0.000000,0.000000,0.000000,0.000000,0.931224,1.814931,0.156446,0.469337,0.434571,750.000000,732.000000,18.000000,54.000000,0.000000,0.000000,0.000000,0.000000,0.000000;
#CREDIT:MILEN;
#DISPLAYBPM:61.000000:490.000000;
#NOTES:
// measure 0
00000000
00000000
00000000
00000000
,  // measure 1
00000000
00000000
00000000
00000000
,  // measure 2
00000000
00000000
00000000
00000000
,  // measure 3
00000000
00000000
00000000
00000000
,  // measure 4
00000000
00000000
00000000
00000000
,  // measure 5
10000000
10000000
01000000
01000000
,  // measure 6
00100000
00100000
00001000
00001000
,  // measure 7
00010000
00000000
00001000
00000000
00010000
00000000
00001000
00000000
00010000
00001000
00010000
00001000
00010000
00001000
00010000
00002000
,  // measure 8
00020000
00000000
00000000
00033000
00010000
00000100
00001000
00000100
,  // measure 9
00010000
00001000
00000100
00000020
00000000
00000130
00000100
00000001
,  // measure 10
00000010
00000100
00001000
00000010
00000110
00000000
00000100
00000001
,  // measure 11
00000010
00000000
00000100
00000000
00010000
00000000
00001000
00000000
00100000
00000000
00100000
00000000
00100000
00000000
00010000
01000000
,  // measure 12
00010000
10000000
00100000
01000000
01000000
00010000
00100000
00001000
,  // measure 13
00100000
00010000
01000000
00200000
00000000
01300000
01000000
00100000
,  // measure 14
10000000
01000000
00100000
00010000
01000000
00100000
00010000
00001000
,  // measure 15
00100000
00000000
00010000
00000000
01000000
00000000
00001000
00000000
00010000
00000100
00010000
00000000
00002000
00000000
00000000
00000000
,  // measure 16
00013000
00000100
00010000
00000000
00001000
01000000
00001000
01000000
00001000
00000000
00100000
00000000
00010000
00000000
00100000
00000000
,  // measure 17
00001000
00010000
00100000
02000000
00000000
03100000
00100000
10000000
,  // measure 18
01000000
00100000
00010000
01000000
01100000
00000000
00100000
10000000
,  // measure 19
01000000
00000000
00100000
00000000
00001000
00000000
00010000
00000000
00000100
00000000
00000100
00000000
00000100
00000000
00001000
00000010
,  // measure 20
00001000
00000001
00000100
00000010
00000010
00001000
00000100
00010000
,  // measure 21
00000100
00001000
00000010
00000200
00000000
00000310
00000010
00000100
,  // measure 22
00000001
00000010
00000100
00001000
00000001
00000100
00000000
00001000
,  // measure 23
00010000
00000000
00100000
10000000
00000000
01000000
00010000
00001000
,  // measure 24
00010000
00000000
00000000
00010000
00000000
00000000
00010000
00000000
00000200
00000000
00000000
00000000
00000320
00000000
00000000
00000000
,  // measure 25
00000000
00000000
00000032
00000000
00000000
00000203
00000000
00000000
,  // measure 26
00002300
00023000
00230000
20300000
,  // measure 27
00000000
00000000
32000000
00000000
00000000
03200000
00000000
00000000
,  // measure 28
00301000
00010000
00000100
00000000
00010000
00001000
01000000
00000000
00001000
00000000
00010000
00000000
00100000
00000000
00010000
00000000
,  // measure 29
00001000
00010000
00100000
00010000
00001000
00000010
00001000
00010000
,  // measure 30
00001000
00000010
00001000
00010000
00000100
00001000
00000010
00010000
,  // measure 31
00001000
00000000
00100000
00000000
00010000
00000000
01000000
00000000
00001000
00010000
00001000
00000000
00100000
00010000
00100000
00000000
,  // measure 32
00001000
00010000
00001000
00000000
00010000
00000100
00010000
00000100
00000020
00000000
00000000
00000000
00000000
00000000
00000001
00000000
,  // measure 33
00000032
00000000
00000000
00000000
00000203
00000000
00000000
00001000
,  // measure 34
00002000
00000000
00000000
00000000
00000300
00000000
00000000
00000000
00013000
00000000
00011000
00000000
00001000
00010000
00100000
01000000
,  // measure 35
00020000
00000000
00000000
00000000
00000000
00000000
00000000
00000000
00000000
00000000
00000000
00000000
00000000
00000000
00000000
00000000
00000000
00000000
00000000
00000000
00000000
00000000
00000000
00000000
00000000
00000000
00000000
00000000
00000000
00000000
00000000
00000000
00000000
00000000
00000000
00000000
20030000
00000000
00000000
00000000
00000000
00000000
00000000
00000000
00000000
00000000
00000000
00000000
00000000
00000000
00000000
00000000
00000000
00000000
00000000
00000000
00000000
00000000
00000000
00000000
00000000
00000000
00000000
00000000
00000000
00000000
00000000
00000000
00000000
00000000
00000000
00000000
30200000
00000000
00000000
00000000
00000000
00000000
00000000
00000000
00000000
00000000
00000000
00000000
00000000
00000000
00000000
00000000
00000000
00000000
00000000
00000000
00000000
00000000
00000000
00000000
00310000
00000000
00000000
00000000
00000000
00000000
00000000
00000000
00000000
00000000
00000000
00000000
00000000
00000000
00000000
00000000
00001000
00000000
00000000
00000000
00000000
00000000
00000000
00000000
00000000
00000000
00000000
00000000
00000000
00000000
00000000
00000000
00010000
00000000
00000000
00000000
00000000
00000000
00000000
00000000
00000000
00000000
00000000
00000000
00000000
00000000
00000000
00000000
00011000
00000000
00000000
00000000
00000000
00000000
00000000
00000000
00000000
00000000
00000000
00000000
00000000
00000000
00000000
00000000
00000000
00000000
00000000
00000000
00000000
00000000
00000000
00000000
00001000
00000000
00000000
00000000
00000000
00000000
00000000
00000000
00000000
00000000
00000000
00000000
00010000
00000000
00000000
00000000
00000000
00000000
00000100
00000000
00000000
00000000
00000000
00000000
,  // measure 36
00002000
00000000
00000000
00000000
00000000
00000000
00000000
00000000
00003001
00000000
00000010
00000000
00000100
00000000
00010000
00001000
00200000
00000000
00000000
00000000
00000000
00000000
00320000
00000000
00000000
00000000
00000000
00000000
02030000
00000000
00000000
00000000
,  // measure 37
03002000
00000000
00000000
00000000
00000000
00000000
00000000
00000000
00000000
00000000
00000000
00000000
00000000
00000000
00000000
00000000
00000000
00000000
00000000
00000000
00000000
00000000
00000000
00000000
00000000
00000000
00000000
00000000
00000000
00000000
00000000
00000000
00000000
00000000
00000000
00000000
00023000
00000000
00000000
00000000
00000000
00000000
00000000
00000000
00000000
00000000
00000000
00000000
00000000
00000000
00000000
00000000
00000000
00000000
00000000
00000000
00000000
00000000
00000000
00000000
00000000
00000000
00000000
00000000
00000000
00000000
00000000
00000000
00000000
00000000
00000000
00000000
00030100
00000000
00000000
00000000
00000000
00000000
00001000
00000000
00000000
00000000
00000000
00000000
00000100
00000000
00000000
00000000
00000000
00000000
00000000
00000000
00000000
00000000
00000000
00000000
00000020
00000000
00000000
00000000
00000000
00000000
00000000
00000000
00000000
00000000
00000000
00000000
00000000
00000000
00000000
00000000
00000000
00000000
00000000
00000000
00000000
00000000
00000000
00000000
00000000
00000000
00000000
00000000
00000000
00000000
00000000
00000000
00000000
00000000
00000000
00000000
00000031
00000000
00000000
00000000
00000000
00000000
00000000
00000000
00000000
00000000
00000000
00000000
00000001
00000000
00000000
00000000
00000000
00000000
00000000
00000000
00000000
00000000
00000000
00000000
00000000
00000000
00000000
00000000
00000100
00000000
00000000
00000000
00000000
00000000
00000000
00000000
00000000
00000000
00000000
00000000
00000000
00000000
00000000
00000000
00001000
00000000
00000000
00000000
00000000
00000000
00000000
00000000
00000000
00000000
00000000
00000000
00000000
00000000
00000000
00000000
,  // measure 38
00020000
00000000
00000000
00230000
00000000
00000000
20300000
00000000
31000000
00100000
01000000
00100000
00001000
00010000
00001000
00010000
,  // measure 39
00000100
00000010
00000100
00000010
00000001
00000100
00001000
00010000
00100000
10000000
00000000
01000000
00010000
00000000
00001000
00000010
,  // measure 40
00000000
00000000
00000000
00000001
00000000
00000000
00000100
00000000
00000000
00000000
00000000
00000000
00001000
00000000
00000000
00000000
00010000
00000000
00000000
00000000
00001000
00000000
00000000
00000000
00022000
00000000
00000000
00000000
00000000
00000000
00033000
00000000
00000000
00000000
00000000
00000000
00001000
00000000
00000000
00000000
00000000
00000000
00010000
00000000
00000000
00000000
00000000
00000000
,  // measure 41
00100000
00000000
00010000
00100000
01000000
00000000
00100000
01000000
,  // measure 42
10000000
00000000
01000000
00100000
00010000
00000000
00100000
00010000
,  // measure 43
00001000
00000000
00010000
00001000
00000100
00000000
00001000
00000100
,  // measure 44
00000001
00000000
00000010
00000000
00000001
00000000
00000010
00000000
00000000
00001000
00000000
00000000
00010000
00000000
00000000
00000100
00000000
00000000
00000010
00000000
00000000
00000100
00000000
00000000
,  // measure 45
00010000
00001000
00100000
01000000
00100000
00001000
00010000
00100000
,  // measure 46
10000000
01000000
00100000
00010000
01000000
00001000
01000000
00010000
,  // measure 47
01000000
10000000
01000000
00010000
00100000
01000000
00010000
00001000
,  // measure 48
00000010
00000000
00000100
00000000
00010000
00001000
00010000
00002000
00020000
00000000
00033000
00000000
00010000
00000000
00001000
00000000
,  // measure 49
00000010
00000000
00001000
00000010
00000001
00000000
00000010
00000100
,  // measure 50
00000001
00000000
00000100
00000010
00001000
00000000
00000010
00001000
,  // measure 51
00010000
00000000
00001000
00010000
01000000
00000000
00010000
01000000
,  // measure 52
10000000
00000000
00100000
00000000
10000000
00000000
00100000
00000000
00000000
00010000
00000000
00000000
00001000
00000000
00000000
01000000
00000000
00000000
00100000
00000000
00000000
01000000
00000000
00000000
,  // measure 53
00001000
00010000
00000010
00000100
00000010
00010000
00001000
00000010
,  // measure 54
00000001
00000100
00000010
00001000
00000100
00000100
00000000
00010000
,  // measure 55
00010000
00000000
00001000
00001000
00000000
01000000
01000000
00100000
,  // measure 56
10000000
00000000
00000000
01000000
00000000
00000000
00010000
00000000
00022000
00000000
00000000
00000000
00030000
00000000
00000000
00000000
,  // measure 57
00000020
00000030
00020000
00003000
,  // measure 58
00230000
00000000
00000000
00000000
00320000
00000000
00000000
00000000
00031000
00100000
01000000
10000000
00100000
01000000
00001000
00010000
,  // measure 59
01000000
10000000
00100000
00010000
00001000
00010000
00011000
00000000
00010000
00000100
00000010
00000001
00000100
00000010
00010000
00001000
,  // measure 60
00000010
00000001
00000100
00001000
00010000
00001000
00011000
00000000
00010000
00100000
10000000
00100000
00010000
00100000
10000000
00100000
,  // measure 61
00010000
00001000
00000100
00000001
00000100
00001000
00000100
00000001
00000100
00001000
00010000
00100000
10000000
01000000
00010000
00001000
,  // measure 62
00000010
00000000
00000001
00000000
00000100
00000000
00001000
00000000
00010000
00001000
00010000
00001000
00010000
00001000
00010000
00001000
00010000
00000000
00000000
00000000
00000000
00000000
00000000
00000000
00000100
00000000
00000000
00000000
00000000
00000000
00000000
00000000
,  // measure 63
00001000
00000100
00000010
00000001
,  // measure 64
00000100
00000000
00001000
00000000
00010000
00001000
00010000
00000000
,  // measure 65
00100000
00000000
10000000
00000000
01000000
00100000
01000000
00000000
,  // measure 66
00010000
00001000
00010000
00000000
00000200
00000000
00000310
00000000
,  // measure 67
00000010
00000000
00000001
00000100
00000001
00000000
00000100
00000000
,  // measure 68
00001000
00010000
00001000
00000000
00100000
00000000
00010000
00000000
,  // measure 69
01000000
00000000
00100000
00000000
10000000
01000000
10000000
00000000
,  // measure 70
00010000
01000000
00010000
00000000
00100000
00000000
00000000
00001000
,  // measure 71
00000000
00000000
00010000
00000000
00000100
00001000
00000100
00000000
,  // measure 72
00000010
00000001
00000010
00000000
00000001
00000000
00000100
00000000
,  // measure 73
00001000
00000000
00010000
00001000
00010000
00000000
00100000
00000000
,  // measure 74
20000000
31000000
01000000
00100000
,  // measure 75
00010000
00000000
01000000
00000000
00001000
00010000
00001000
00010000
,  // measure 76
00001000
00010000
00001000
00010000
00000200
00000000
00002300
00000000
,  // measure 77
00023000
00000000
02030000
00000000
03100000
10000000
01000000
00010000
,  // measure 78
01000000
00010000
00001000
00000000
00000010
00000001
00000100
00001000
,  // measure 79
00000100
00001000
00010000
00000000
01000000
10000000
00100000
00010000
,  // measure 80
00001000
00000100
00000001
00000000
00000100
00000001
00000010
00001000
,  // measure 81
00010000
00001000
00010000
00000000
00001000
00010000
00001000
00000000
00010000
00000000
01000000
00000000
10000000
00000000
01000000
00000000
,  // measure 82
00010000
00001000
00000010
00000001
00000010
00001000
00010000
00100000
,  // measure 83
00010000
00001000
00000100
00001000
00010000
01000000
10000000
00100000
,  // measure 84
00010000
00000000
00001000
00000000
00000100
00000000
00000001
00000000
00000010
00000100
00000010
00000000
00001000
00000000
00010000
00000000
,  // measure 85
01000000
00000000
10000000
00000000
00100000
01000000
00100000
00000000
00010000
00000000
00010000
00000000
00001000
00000000
00011000
00000000
,  // measure 86
00000100
00001000
00000100
00000010
00000001
00000001
00001000
00001100
,  // measure 87
00000100
00010000
00001000
00010000
00100000
00100000
01000000
01100000
,  // measure 88
00100000
10000000
01000000
00100000
00010000
01000000
00001000
00010000
,  // measure 89
00000100
00001000
00000100
00000000
00000010
00000000
00000001
00000000
00000100
00000000
00000100
00000000
00001000
00000000
00011000
00000000
,  // measure 90
01000000
00010000
01000000
00100000
10000000
10000000
01000000
00100000
,  // measure 91
00010000
00100000
00001000
00000000
00010000
00000100
00001000
00000000
00000010
00000000
00010010
00000000
00000000
00000000
00100000
00000000
,  // measure 92
00101000
00000000
00000100
00010000
00011000
01001000
00010100
00000100
,  // measure 93
00000000
00001000
00000000
00000010
00000000
00000100
00000000
00000001
,  // measure 94
00000000
00001000
00000000
00000100
00000000
00010000
00000000
00001000
,  // measure 95
00000000
00100000
00000000
00010000
00000000
01000000
00000000
00100000
,  // measure 96
00000000
10000000
00000000
00010000
00000000
00100000
00000000
01000000
,  // measure 97
00010000
00001000
00000000
00010000
00000000
00000100
00000000
00001000
,  // measure 98
00000000
00000100
00000000
00000010
00000000
00000001
00000000
00000200
,  // measure 99
00000000
00001300
00000000
00002000
00000000
00013000
00000000
00010000
,  // measure 100
00001000
00010000
00000000
00001000
00010000
00001000
00000000
00010000
,  // measure 101
00000100
00001000
00000000
00000010
00000000
00000001
00000000
00000010
,  // measure 102
00000100
00001000
00000000
00010000
00000000
00001000
00000000
00100000
,  // measure 103
00010000
01000000
00000000
00100000
10000000
01000000
00000000
00100000
,  // measure 104
01000000
10000000
00000000
01000000
00100000
00010000
00000000
01000000
,  // measure 105
00000000
01000000
00000000
00001000
00000000
00001000
00000000
00010000
,  // measure 106
00000000
00010000
00000000
00000100
00000000
00000100
00000000
00000010
,  // measure 107
00000001
00000010
00000000
00001000
00000000
00010000
00000000
01000000
,  // measure 108
10000000
00000000
00000000
01000000
00000000
00000000
10000000
00000000
00000000
01000000
00000000
00000000
10000000
00000000
00000000
00100000
00000000
00000000
00000000
00010000
00000000
00000000
00000000
00001000
,  // measure 109
00000000
00010000
00000000
00022000
00000000
00000000
00000000
00000000
,  // measure 110
00000000
00000000
00000000
00000000
,  // measure 111
00000000
00000000
00000000
00000000
,  // measure 112
00000000
00000000
00000000
00000000
00000000
00000000
00000000
00033000
;

//---------------dance-single - ----------------
#NOTEDATA:;
#CHARTNAME:;
#STEPSTYPE:dance-single;
#DESCRIPTION:;
#CHARTSTYLE:;
#DIFFICULTY:Beginner;
#METER:8;
#RADARVALUES:0.293025,0.637679,0.034766,0.095606,0.000000,236.000000,232.000000,4.000000,11.000000,0.000000,0.000000,0.000000,0.000000,0.000000,0.293025,0.637679,0.034766,0.095606,0.000000,236.000000,232.000000,4.000000,11.000000,0.000000,0.000000,0.000000,0.000000,0.000000;
#CREDIT:MILEN;
#DISPLAYBPM:61.000000:490.000000;
#NOTES:
0000
0000
0000
0000
,
0000
0000
0000
0000
,
0000
0000
0000
0000
,
0000
0000
0000
0000
,
0000
0000
0000
0000
,
1000
0000
1000
0000
,
0001
0000
0001
0000
,
1000
0000
0001
0000
,
1001
0000
1000
0000
,
1000
0000
0100
0000
,
0100
0000
0010
0000
,
0010
0000
0001
0000
,
0001
0000
0100
0000
,
0100
0000
0010
0000
,
0010
0000
1000
0000
,
1000
0000
0001
0000
,
0001
0000
0010
0000
,
0010
0000
0100
0000
,
0100
0000
1000
0000
,
1000
0000
0010
0000
,
0010
0000
0100
0000
,
0100
0000
0001
0000
,
0001
0000
1000
0000
,
0100
0000
0010
0000
,
0001
0000
0100
0200
,
0000
0000
0000
0000
,
0300
0000
0010
0020
,
0000
0030
1000
1000
,
0001
0001
0100
0000
,
0010
0000
1000
0000
,
0001
0000
0100
0100
,
0100
0100
0010
0100
,
0020
0000
0030
0000
0110
0000
0000
1000
,
1000
0000
0000
0000
0010
0000
0000
0001
,
0001
0000
0100
0000
,
1000
0000
0000
0000
0010
0000
0000
0100
,
0200
0300
0010
1000
,
0001
0100
0010
1000
,
0001
0100
0100
1000
,
0010
0001
1000
0001
,
1000
0000
0001
0001
0001
0000
0000
0000
,
0100
0000
0010
0000
,
1000
0000
0001
0000
,
0100
0000
0010
0000
,
1000
0000
0001
0000
,
0001
0000
0001
0000
,
0001
0000
0001
0001
,
0001
0001
0002
0000
,
0003
0000
1000
0000
,
0100
0000
0010
0000
,
0001
0000
1000
0000
,
0100
0000
0010
0000
,
0001
0000
1000
0000
,
1000
0000
1000
0000
,
1000
1000
1000
0000
,
0010
0000
0100
0000
,
0001
0000
2002
0000
,
0000
0000
0000
0000
,
0000
3003
1000
0100
,
0010
0010
0010
0000
0001
0000
0010
0000
,
0100
0100
0100
0000
1000
0010
0100
0000
,
0001
0100
0010
0000
1000
0000
0001
0000
,
1000
0001
1000
0001
1000
0000
0000
0000
,
0000
0000
1000
0000
,
0000
0000
1000
0000
,
1000
0000
0001
0000
,
1000
0000
0001
0000
,
0000
0000
0001
0000
,
0000
0000
0001
0000
,
0001
0000
1000
0000
,
0001
0000
0100
0000
,
0000
0000
0100
0000
,
0000
0000
0010
0000
,
0010
0000
0100
0000
,
0010
0000
0100
0000
,
0000
0000
0010
0000
,
0000
0000
0200
0000
,
0000
0000
0310
0010
,
1000
0000
0010
0010
,
0001
0000
0010
0010
,
0100
0000
0010
0010
,
1000
0001
0100
0000
,
1000
0000
0010
0000
,
0001
0000
0100
0010
,
0100
0000
0010
0100
,
0020
0030
1000
0000
,
1000
0000
0100
0000
,
0100
0000
0001
0000
,
0001
0000
0010
0000
,
0010
0000
1000
0000
,
0001
0000
0100
0000
,
1000
0000
0010
0000
,
0001
0000
0000
0000
0100
0100
0100
0100
,
0000
0000
0000
0000
0000
0000
0000
0010
,
0000
0000
0000
0000
0000
0000
0000
1000
,
0000
0000
0000
0001
0000
0000
0000
0100
,
0000
0000
0000
0010
0000
0000
0000
1000
,
0000
0000
0000
0000
0000
0000
0000
0001
,
0000
0000
0000
0000
0000
0000
0000
1000
,
0000
0000
0000
0100
0000
0000
0000
0010
,
0000
0000
0000
0001
0000
0000
0000
0100
,
0000
0000
0000
0000
0000
0000
0000
0010
,
0000
0000
0000
0000
0000
0000
0000
1000
,
0000
0000
0000
0001
0000
0000
0000
0010
,
0000
0000
0000
0100
0000
0000
0000
1000
,
0000
0000
0000
0010
0000
0000
0000
1000
,
0000
0000
0000
0010
0000
0000
0000
0001
,
0000
0000
0000
0100
0000
0000
0000
0001
,
0000
0000
0000
0100
0000
0000
0000
1000
,
0000
0000
0000
2002
0000
0000
0000
0000
,
0000
0000
0000
0000
,
0000
0000
0000
0000
,
0000
0000
0000
0000
0000
0000
0000
3003
;

//---------------dance-single - ----------------
#NOTEDATA:;
#CHARTNAME:;
#STEPSTYPE:dance-single;
#DESCRIPTION:;
#CHARTSTYLE:;
#DIFFICULTY:Easy;
#METER:12;
#RADARVALUES:0.471820,0.882940,0.147754,0.252051,0.026074,380.000000,363.000000,17.000000,29.000000,0.000000,0.000000,0.000000,0.000000,0.000000,0.471820,0.882940,0.147754,0.252051,0.026074,380.000000,363.000000,17.000000,29.000000,0.000000,0.000000,0.000000,0.000000,0.000000;
#CREDIT:MILEN;
#DISPLAYBPM:61.000000:490.000000;
#NOTES:
0000
0000
0000
0000
,
0000
0000
0000
0000
,
0000
0000
0000
0000
,
0000
0000
0000
0000
,
0000
0000
0000
0000
,
1000
1000
0001
0001
,
1000
0001
1000
0001
,
1000
0001
1000
0000
0001
1000
0001
0000
,
2002
3003
1000
0100
,
0010
0110
0000
1000
,
0100
0001
0100
1000
,
0100
0010
0010
0001
,
0200
0300
0001
0010
,
0100
0110
0000
0001
,
0010
1000
0010
0001
,
0010
0100
0100
1000
,
0020
0030
1000
0100
,
0010
0110
0000
1000
,
0100
0001
1000
0010
,
0001
0100
0100
0010
,
2000
3000
0001
0010
,
0100
0110
0000
0001
,
0010
0000
1000
0000
0001
0000
0000
0100
,
0000
0000
1000
0000
0000
0010
0000
0000
,
0100
0100
0002
1000
,
0000
0000
0000
0000
,
1000
1003
2000
0001
,
0000
0000
0001
3001
,
0002
2003
3010
0010
,
0100
0100
0001
0001
,
1000
1000
0100
0010
,
0001
1000
0100
0100
,
0010
0100
0010
0000
0002
0000
0000
0100
,
0103
0000
0000
0000
2000
0000
0000
0010
,
3010
0000
0000
0000
0000
0001
1000
0001
,
0100
0000
0000
0100
0000
0000
0100
0000
0010
0000
0010
0000
1000
0000
0000
0000
,
2002
0000
0000
0000
3003
0000
0000
0000
0001
0000
0000
0001
0000
0000
0001
0000
,
0100
0000
0000
0100
0000
0000
0100
0000
0010
0000
0000
0010
0000
0000
0010
0000
,
2000
3200
0310
0010
,
0001
0001
0100
1000
,
0010
0000
0100
0100
0110
0000
0000
0000
,
0010
1000
0100
0000
,
0010
0001
0100
0000
,
0010
1000
0100
0000
,
0010
0001
0100
0001
,
0010
0001
0100
0100
,
1000
0001
1000
0001
,
0010
0100
2000
3000
,
0002
0003
0010
0001
,
0100
0000
0010
1000
,
0100
0000
0010
0001
,
0100
0000
0010
1000
,
0100
1000
0010
1000
,
0100
0100
0001
1000
,
0001
0000
1000
0000
0010
0000
0000
0001
,
0000
0000
0100
0000
0000
1000
0000
0000
,
0010
0000
0100
0010
0200
0000
0000
0000
,
0302
0000
2003
0000
,
3020
0000
0200
0330
0010
1000
0010
0000
,
0100
0001
0100
0100
0001
0010
0001
0000
,
1000
0100
1000
1000
0100
0010
0001
0000
,
1000
0000
0100
0000
0010
0000
0010
0000
0001
0100
0001
0000
1000
0000
0100
0000
,
1000
0100
1000
0000
0001
0000
0100
0000
0010
0000
0000
0000
0000
0000
0000
0000
,
0010
0000
1000
0000
,
1000
0000
0010
1000
,
0010
0000
1000
0010
,
2000
0000
3001
0000
,
0001
0000
0010
0000
,
0010
0000
0001
0010
,
0001
0000
0010
0001
,
0020
0000
0031
0000
,
0001
0000
1000
0000
,
1000
0000
0001
1000
,
0001
0000
0100
0010
,
0200
0000
0310
1000
,
0010
0000
0100
0001
,
0100
0001
1000
0010
,
0001
0000
0100
0000
1000
0000
0000
0001
,
0000
1000
0100
0010
,
0001
1000
0100
0100
,
0000
0010
0000
0000
0001
0000
0000
0100
,
0000
0010
0110
0100
,
0001
0100
0010
1000
,
0010
0100
0001
1000
,
0001
0000
1000
0000
0001
1000
0001
0000
,
2002
0000
3003
0000
1000
0000
0000
1010
,
0000
0000
1000
0000
0001
0000
0000
0011
,
0000
0000
0001
0000
1000
0000
0000
1100
,
0000
0000
1000
0000
0001
0000
0000
0101
,
0000
0000
0001
0000
1000
0000
0000
1001
,
0000
0000
0100
0000
0010
0000
0000
0110
,
0000
0000
0001
0000
1000
0000
0000
0010
,
0000
0000
0001
0000
0100
0100
0100
0100
,
0000
0000
0000
0010
0000
0000
0000
0100
,
0000
0000
0000
0010
0000
0000
0000
1000
,
0000
0000
0000
0001
0000
0000
0000
1000
,
0000
0000
0000
0001
0000
0000
0000
0010
,
0000
0000
0000
0100
0000
0000
0000
0010
,
0000
0000
0000
0100
0000
0000
0000
1000
,
0000
0000
0000
0001
0000
0000
0000
1000
,
0000
0000
0000
1001
0000
0000
0000
0001
,
0000
0100
0000
0001
0000
0000
0000
1000
,
0000
0100
0000
1000
0000
0000
0000
0001
,
0000
0010
0000
0001
0000
0000
0000
1000
,
0000
0010
0000
1000
0000
0000
0000
0001
,
0000
0100
0000
0001
0000
0100
0000
0010
,
0000
1000
0000
0010
0000
1000
0000
0001
,
0000
0010
0000
0100
0000
1000
0000
0100
,
0000
0010
0000
0001
0000
0100
0000
0010
,
0000
0000
0000
0220
0000
0000
0000
0000
,
0000
0000
0000
0000
,
0000
0000
0000
0000
,
0000
0000
0000
0000
0000
0000
0000
0330
;

//---------------dance-double - ----------------
#NOTEDATA:;
#CHARTNAME:;
#STEPSTYPE:dance-double;
#DESCRIPTION:;
#CHARTSTYLE:;
#DIFFICULTY:Easy;
#METER:12;
#RADARVALUES:0.446987,0.735783,0.139063,0.286817,0.017383,360.000000,344.000000,16.000000,33.000000,0.000000,0.000000,0.000000,0.000000,0.000000,0.446987,0.735783,0.139063,0.286817,0.017383,360.000000,344.000000,16.000000,33.000000,0.000000,0.000000,0.000000,0.000000,0.000000;
#CREDIT:MILEN;
#DISPLAYBPM:61.000000:490.000000;
#NOTES:
00000000
00000000
00000000
00000000
,
00000000
00000000
00000000
00000000
,
00000000
00000000
00000000
00000000
,
00000000
00000000
00000000
00000000
,
00000000
00000000
00000000
00000000
,
00001000
00001000
00010000
00010000
,
00001000
00010000
00001000
00010000
,
00001000
00010000
00001000
00000000
00010000
00001000
00010000
00000000
,
00022000
00033000
00001000
00010000
,
01000000
10000000
00000000
10000000
,
01000000
00010000
00001000
00010000
,
01000000
00010000
00001000
00010000
,
00022000
00033000
00010000
00001000
,
00000010
00000001
00000000
00000001
,
00000010
00001000
00010000
00001000
,
00000010
00001000
00010000
00001000
,
00022000
00033000
00001000
00010000
,
01000000
10000000
00000000
10000000
,
00100000
00010000
00001000
00000100
,
00000001
00000010
00001000
00010000
,
00022000
00033000
00010000
00001000
,
00000010
00000001
00000000
00000001
,
00000100
00000000
00001000
00000000
00010000
00000000
00000000
00100000
,
00000000
00000000
10000000
00000000
00000000
01000000
00000000
00000000
,
00010000
00001000
00020000
00001000
,
00000000
00000000
00000000
00000000
,
00001000
00031000
00002000
00010000
,
00000000
00000000
00010000
00013000
,
00020000
00032000
00103000
00010000
,
01000000
00001000
00010000
00000100
,
00001000
00000010
00010000
00001000
,
00100000
00010000
01000000
00001000
,
00010000
00001000
00010000
00000000
00002000
00000000
00000000
01000000
,
01003000
00000000
00000000
00000000
00020000
00000000
00000000
00000100
,
00030100
00000000
00000000
00000000
00000000
00010000
00001000
00010000
,
00100000
00000000
00000000
00100000
00000000
00000000
00100000
00000000
10000000
00000000
10000000
00000000
01000000
00000000
00000000
00000000
,
20020000
00000000
00000000
00000000
30030000
00000000
00000000
00000000
00010000
00000000
00000000
00010000
00000000
00000000
00010000
00000000
,
00100000
00000000
00000000
00100000
00000000
00000000
00100000
00000000
00001000
00000000
00000000
00001000
00000000
00000000
00001000
00000000
,
00000020
00000032
00000103
00000100
,
00001000
00001000
00010000
01000000
,
10000000
00100000
00022000
00033000
,
00001000
00010000
01000000
00000000
,
00010000
00001000
01000000
00000000
,
00001000
00010000
01000000
00000000
,
00010000
00001000
01000000
00001000
,
00010000
00001000
02000000
03000000
,
00010000
10000000
01000000
00100000
,
00010000
01000000
00002000
00000000
,
00020000
00033000
00010000
00001000
,
00000100
00000000
00001000
00010000
,
00000100
00000000
00010000
00001000
,
00000100
00000000
00001000
00010000
,
00000100
00010000
00001000
00010000
,
00000200
00000300
00001000
00000010
,
00000100
00000000
00000001
00000000
00000010
00000000
00000000
00001000
,
00000000
00000000
00010000
00000000
00000000
01000000
00000000
00000000
,
10000000
00000000
00100000
01000000
00200000
00000000
00000000
00000000
,
00320000
00000000
00032000
00000000
,
00003200
00000000
00000320
00000000
00000130
00000001
00000100
00000000
,
00000010
00001000
00000010
00000000
00010000
00001000
00010000
00000000
,
00100000
10000000
00100000
00000000
01000000
00010000
01000000
00000000
,
00010000
10000000
01000000
00000000
00010000
00001000
00010000
00001000
,
00000010
00000001
00000100
00001000
00010000
00000000
00000000
00000000
,
00010000
00000000
00001000
00000000
,
00001000
00000000
00010000
00000100
,
00010000
00000000
00001000
01000000
,
00001000
00000000
00010000
00000000
,
00010000
00000000
00001000
00000000
,
00001000
00000000
00010000
00000010
,
00010000
00000000
00001000
00100000
,
00001000
00000000
00010000
00000000
,
00010000
00000000
00001000
00000000
,
00001000
00000000
00010000
00000100
,
00001000
00000000
00000010
00010000
,
00001000
00000000
01000000
00001000
,
00010000
00000000
00001000
00100000
,
00010000
00000000
01000000
00001000
,
00010000
00000000
00000010
00000000
00001000
00000000
00000000
00000001
,
00000000
00000100
00001000
00010000
,
00001000
00000100
00001000
00010000
,
00000000
00100000
00000000
00000000
10000000
00000000
00000000
01000000
,
00000000
00010000
00011000
00001000
,
00010000
00100000
00010000
00001000
,
00010000
00100000
00010000
00001000
,
00000010
00000001
00000100
00001000
,
00022000
00000000
00033000
00000000
00010000
00000000
00000000
00010010
,
00000000
00000000
00000000
00000000
00001000
00000000
00000000
00101000
,
00000000
00000000
00000000
00000000
00010000
00000000
00000000
00010100
,
00000000
00000000
00000000
00000000
00001000
00000000
00000000
01001000
,
00000000
00000000
00000000
00000000
00010000
00000000
00000000
00011000
,
00000000
00000000
00000000
00000000
00001000
00000000
00000000
00011000
,
00000000
00000000
00010000
00000000
00001000
00000000
00000000
00000010
,
00000000
00000000
00010000
00000000
00100000
00100000
00100000
00100000
,
00000000
00000000
00000000
01000000
00000000
00000000
00000000
00100000
,
00000000
00000000
00000000
01000000
00000000
00000000
00000000
00010000
,
00000000
00000000
00000000
00001000
00000000
00000000
00000000
00010000
,
00000000
00000000
00000000
00001000
00000000
00000000
00000000
00000010
,
00000000
00000000
00000000
00000100
00000000
00000000
00000000
00000010
,
00000000
00000000
00000000
00000100
00000000
00000000
00000000
00010000
,
00000000
00000000
00000000
00001000
00000000
00000000
00000000
00010000
,
00000000
00000000
00000000
00011000
00000000
00000000
00000000
00001000
,
00000000
00010000
00000000
00001000
00000000
00000000
00000000
01000000
,
00000000
00000000
00000000
00100000
00000000
00000000
00000000
00010000
,
00000000
00001000
00000000
00010000
00000000
00000000
00000000
00000010
,
00000000
00000000
00000000
00000100
00000000
00000000
00000000
00001000
,
00000000
01000000
00000000
00001000
00000000
00000000
00000000
00010000
,
00000000
00000100
00000000
00010000
00000000
00000000
00000000
00001000
,
00000000
00100000
00000000
00001000
00000000
00010000
00000000
00000010
,
00000000
00010000
00000000
00001000
00000000
00010000
00000000
00001000
,
00000000
00000000
00000000
00022000
00000000
00000000
00000000
00000000
,
00000000
00000000
00000000
00000000
,
00000000
00000000
00000000
00000000
,
00000000
00000000
00000000
00000000
00000000
00000000
00000000
00033000
;

//---------------dance-single - ----------------
#NOTEDATA:;
#CHARTNAME:;
#STEPSTYPE:dance-single;
#DESCRIPTION:;
#CHARTSTYLE:;
#DIFFICULTY:Medium;
#METER:14;
#RADARVALUES:0.669239,1.520618,0.295508,0.521485,0.178174,539.000000,505.000000,34.000000,60.000000,0.000000,0.000000,0.000000,0.000000,0.000000,0.669239,1.520618,0.295508,0.521485,0.178174,539.000000,505.000000,34.000000,60.000000,0.000000,0.000000,0.000000,0.000000,0.000000;
#CREDIT:MILEN;
#DISPLAYBPM:61.000000:490.000000;
#NOTES:
0000
0000
0000
0000
,
0000
0000
0000
0000
,
0000
0000
0000
0000
,
0000
0000
0000
0000
,
0000
0000
0000
0000
,
1000
1000
0001
0001
,
0100
0100
0010
0010
,
1000
0001
1000
0001
0100
0010
0100
0010
,
0220
0000
0000
0330
0100
0000
0001
0000
,
0010
0001
0010
0001
0000
0010
0100
0000
,
1000
0000
0010
0000
0100
0001
0100
0000
,
0010
1000
0010
0000
0100
0001
0100
0000
,
0010
1000
0010
1000
0100
0000
1000
0000
,
0010
1000
0010
1000
0000
0010
0100
0000
,
0001
0000
0010
0000
0100
1000
0100
0000
,
0010
0001
0010
0000
0100
1000
0100
0000
,
0010
0001
0010
0001
0100
0000
0010
0000
,
1000
0100
1000
0100
0000
1000
0001
0000
,
0100
0000
0010
0000
1000
0010
1000
0000
,
0001
0100
0001
0000
1000
0010
1000
0000
,
0001
0010
0001
0010
0100
0000
0010
0000
,
0001
0100
0001
0100
0000
0001
1000
0000
,
0100
0000
0010
0000
0001
0100
0000
0010
,
0100
0000
1000
0100
0000
0010
0100
0000
,
0001
1000
0001
0000
2001
0000
3020
0000
,
0000
0000
0000
0000
,
0100
0130
1002
0203
,
0000
0000
0010
0310
,
0002
0000
2003
0000
3001
0100
0010
0000
,
1000
0010
0100
0000
0001
0010
0100
0000
,
1000
0100
0010
0000
0001
0100
0010
0100
,
0001
0100
0010
0000
1000
0100
0010
0100
,
1000
0100
0010
0000
0120
0000
0000
0001
,
0032
0000
0000
0000
0203
0000
0000
0010
,
0320
0000
0000
0000
0000
0000
0000
0000
0000
0000
1030
0000
1000
0010
0100
0000
,
0101
0000
0000
0000
0000
0000
0000
0000
0000
0011
0000
0000
0000
0000
0000
0000
0000
0000
1001
0000
0000
0000
0000
0000
1000
0000
0000
0000
0100
0000
0000
0000
1000
0000
0000
0000
0010
0000
0000
0000
0000
0000
0100
0000
0000
0001
0000
0000
,
0200
0000
0000
0000
0000
0000
0000
0000
0310
0000
0000
1010
0000
0000
1100
0000
,
0100
0000
0000
0101
0000
0000
0011
0000
0010
0000
0000
1010
0000
0000
1001
0000
,
0001
0000
0000
0101
0000
0000
1001
0000
1000
0100
0010
0000
0100
0000
0010
0000
,
0001
0010
0100
0000
0010
0000
0100
0000
1000
0010
0000
0100
0010
0000
0001
0010
,
0000
0000
0000
0100
0000
0000
0010
0000
0000
0000
0000
0000
1000
0000
0000
0000
0001
0000
0000
0000
1000
0000
0000
0000
1002
0000
0000
0000
0000
0000
0000
0000
0000
0000
0000
0000
0000
0000
0000
0000
0000
0000
0203
0000
0000
0000
0000
0000
,
0000
0000
2300
0000
3200
0000
0000
0302
,
0000
0000
0023
0000
2030
0000
0000
3020
,
0000
0000
0032
0000
0203
0000
0000
2300
,
0000
3200
0310
0100
,
0001
0000
1000
0000
1001
0000
0000
0110
,
0000
0000
1001
0000
0001
0010
0001
0010
,
0100
1000
0100
1000
0001
0100
0010
1000
,
0100
0010
0001
0000
2001
0000
0000
3020
,
0000
0000
0032
0000
0023
0000
0000
2030
,
0000
0000
3200
0000
0302
0000
0000
0203
,
0000
0000
2300
0000
3020
0000
0000
0032
,
0000
0000
0023
0000
0130
0010
0100
0000
,
0001
0000
1000
0000
0010
0100
0010
0000
,
1000
0000
0001
0000
0100
0010
0000
0100
,
1000
0000
0100
0001
0000
0100
0010
0000
,
1000
0001
1000
0000
2020
0000
3000
0000
,
0002
0030
0200
0003
,
2300
0000
0000
0000
3002
0000
0000
0000
0013
0100
1000
0000
0010
0100
0001
0000
,
0010
0100
1000
0000
0010
0100
0001
0000
1000
0100
0010
0000
0001
0100
0010
0000
,
1000
0100
0010
0000
0001
0100
0010
0000
1000
0010
0100
0010
1000
0010
0100
0000
,
0001
0010
0100
0010
0001
0010
0100
0000
1000
0010
1000
0010
0100
0001
0100
0001
,
1000
0100
0010
0001
0100
0010
1000
0001
0100
0000
0000
0000
0000
0000
0000
0000
,
0001
0000
0010
0001
,
0100
0000
0010
0000
,
1000
0000
0100
1000
,
0010
0100
0110
0000
,
0001
0000
0010
0100
,
1000
0000
0010
0000
,
1000
0000
0100
0010
,
0001
1000
1001
0010
,
0001
0010
0100
0010
,
0001
0000
1000
0100
,
1000
0100
0010
0100
,
1000
0000
0010
0100
,
0001
1000
0100
0010
,
0001
0100
0110
1001
,
0110
0000
1001
0000
0002
0000
0000
0203
,
0000
2300
0000
0000
,
0000
3002
0023
2030
,
0000
3200
0000
0000
0320
0000
0000
0032
,
0000
0203
0020
0000
,
0000
0000
0330
0000
0010
1000
0001
0100
,
0010
1000
0100
0010
0001
0000
0100
0000
,
1000
0000
0010
0000
0001
0010
0100
1000
,
0020
0000
0230
0000
0301
0010
0001
0100
,
0000
0100
1000
0000
1000
0010
1000
0100
,
0000
0100
0001
0000
0001
0100
0001
0010
,
0000
0010
1000
0000
1000
0100
1000
0010
,
0000
0010
0001
0000
0001
0010
0001
1000
,
0010
1000
0001
0000
1000
0100
1000
0001
,
0100
0001
1000
0000
0001
0100
0000
1000
,
0010
0000
0001
1000
1001
0110
1001
1000
,
0000
0010
0000
0100
0000
0010
0000
1000
,
0000
0100
0000
0010
0000
0200
0000
0000
,
0000
0310
0000
0011
0000
0000
0000
0001
,
0000
0100
0000
0010
0000
1000
0000
0001
,
0000
0010
0000
0100
0000
0000
0000
1000
,
0000
0010
0000
0001
0000
0000
0000
1000
,
0000
0100
0000
0001
0000
0010
0000
0100
,
0000
1000
0000
1001
0000
0000
0000
0001
,
0000
0010
0000
0100
0000
0010
0000
0001
,
0000
0100
0000
0010
0000
0200
0000
0000
,
0000
0310
0000
1010
0000
0000
0000
1000
,
0000
0100
0000
0010
0000
0001
0000
1000
,
0000
0010
0000
0100
0000
0000
0000
0001
,
0000
0010
0000
1000
0000
0000
0000
0001
,
0000
0100
0000
1000
0000
0001
0000
0100
,
0000
0000
0000
0010
0000
0000
0000
0000
0000
1000
0000
0000
0000
0000
0000
0001
0000
0000
0000
1000
0000
0000
0000
0001
,
0000
1000
0000
2002
0000
0000
0000
0000
,
0000
0000
0000
0000
,
0000
0000
0000
0000
,
0000
0000
0000
0000
0000
0000
0000
3003
;

//---------------dance-double - ----------------
#NOTEDATA:;
#CHARTNAME:;
#STEPSTYPE:dance-double;
#DESCRIPTION:;
#CHARTSTYLE:;
#DIFFICULTY:Medium;
#METER:14;
#RADARVALUES:0.633232,1.324409,0.260743,0.521485,0.126026,510.000000,480.000000,30.000000,60.000000,0.000000,0.000000,0.000000,0.000000,0.000000,0.633232,1.324409,0.260743,0.521485,0.126026,510.000000,480.000000,30.000000,60.000000,0.000000,0.000000,0.000000,0.000000,0.000000;
#CREDIT:MILEN;
#DISPLAYBPM:61.000000:490.000000;
#NOTES:
00000000
00000000
00000000
00000000
,
00000000
00000000
00000000
00000000
,
00000000
00000000
00000000
00000000
,
00000000
00000000
00000000
00000000
,
00000000
00000000
00000000
00000000
,
00000001
00000001
00000100
00000100
,
00000010
00000010
00001000
00001000
,
00000100
00010000
00000100
00010000
00001000
00010000
00001000
00010000
,
00022000
00000000
00000000
00033000
00001000
00000000
00100000
00000000
,
00010000
01000000
00010000
01000000
00000000
00010000
10000000
00000000
,
01000000
00100000
00110000
00010000
,
01000000
00000000
00001000
00000000
00010000
00000100
00010000
00000000
,
00001000
01000000
00001000
00000000
00010000
00000000
00000100
00000000
,
00001000
00000010
00001000
00000010
00000000
00001000
00000001
00000000
,
00000010
00000100
00001100
00001000
,
00000010
00000000
00010000
00000000
00001000
00100000
00001000
00000000
,
00010000
00000010
00010000
00000000
00001000
00000000
00100000
00000000
,
00010000
01000000
00010000
01000000
00000000
00010000
10000000
00000000
,
00100000
01000000
01010000
00010000
,
00100000
00000000
01000000
00000000
00010000
00001000
00010000
00000000
,
00000010
00001000
00000010
00000000
00010000
00000000
00000100
00000000
,
00001000
00000010
00001000
00000010
00000000
00001000
00000001
00000000
,
00000100
00000000
00000010
00000000
00001000
00000100
00000000
00000100
,
00010000
00000000
00010000
00001000
00000000
00001000
01000000
00000000
,
01000000
00100000
10000000
00000000
10020000
00000000
02030000
00000000
,
00000000
00000000
00000000
00000000
,
00001000
03001000
00021000
00030020
,
00000000
00000000
00000100
00000130
,
00000002
00000000
00002003
00000000
00003001
00000100
00000001
00000000
,
00000100
00001000
00000100
00000000
00001000
00010000
00001000
00000000
,
00010000
00100000
00010000
00000000
00100000
10000000
00100000
00000000
,
10000000
01000000
10000000
00000000
01000000
00010000
01000000
00000000
,
00010000
00001000
00010000
00000000
00012000
00000000
00000000
00000010
,
00000020
00000000
00000030
00000000
00023000
00000000
00000000
00100000
,
00200000
00000000
00000000
00000000
00000000
00000000
00030000
00000000
00000000
00000000
10300000
00000000
10000000
01000000
10000000
00000000
,
01000000
00000000
00000000
00000000
00000000
00000000
00000000
00000000
00000000
00100000
00000000
00000000
00000000
00000000
00000000
00000000
00000000
00000000
00010000
00000000
00000000
00000000
00000000
00000000
01000000
00000000
00000000
00000000
00010000
00000000
00000000
00000000
01000000
00000000
00000000
00000000
00010000
00000000
00000000
00000000
00000000
00000000
00100000
00000000
00000000
00001000
00000000
00000000
,
00020000
00000000
00000000
00000000
00000000
00000000
00000000
00000000
00030100
00000000
00000000
00001100
00000000
00000000
00001001
00000000
,
00000001
00000000
00000000
00000101
00000000
00000000
00000110
00000000
00000010
00000000
00000000
00010010
00000000
00000000
00011000
00000000
,
00001000
00000000
00000000
00101000
00000000
00000000
00110000
00000000
00010000
00000000
10000000
00000000
01000000
00000000
00010000
00000000
,
00001000
00000000
00000010
00000000
00000001
00000000
00001000
00000000
00000010
00010000
00000000
00010000
00001000
00000000
00001000
00100000
,
00000000
00000000
00000000
00100000
00000000
00000000
00010000
00000000
00000000
00000000
00000000
00000000
01000000
00000000
00000000
00000000
00100000
00000000
00000000
00000000
10000000
00000000
00000000
00000000
10200000
00000000
00000000
00000000
00000000
00000000
00000000
00000000
00000000
00000000
00000000
00000000
00000000
00000000
00000000
00000000
00000000
00000000
00320000
00000000
00000000
00000000
00000000
00000000
,
00000000
00000000
00032000
00000000
00003020
00000000
00000000
00000032
,
00000000
00000000
00000203
00000000
00002300
00000000
00000000
00023000
,
00000000
00000000
00230000
00000000
20300000
00000000
00000000
32000000
,
00000000
03020000
00031000
00010000
,
00000100
00000000
00000010
00000000
00000110
00000000
00000000
00001001
,
00000000
00000000
00000110
00000000
00000010
00000001
00000100
00000000
,
00000010
00001000
00000100
00000000
00010000
00001000
00100000
00000000
,
00010000
00100000
01000000
00000000
21000000
00000000
00000000
30200000
,
00000000
00000000
00320000
00000000
00032000
00000000
00000000
00003200
,
00000000
00000000
00000302
00000000
00000023
00000000
00000000
00002030
,
00000000
00000000
00023000
00000000
02030000
00000000
00000000
23000000
,
00000000
00000000
30200000
00000000
01300000
00010000
01000000
00000000
,
00001000
00000000
00010000
00000000
00000010
00001000
00000010
00000000
,
00010000
00000000
00001000
00000000
00100000
01000000
00000000
01000000
,
00010000
00000000
00010000
00001000
00000000
00001000
00000010
00000000
,
00000010
00000001
00000100
00000000
00000220
00000000
00000030
00000000
,
00002000
00000300
00020000
00003000
,
00230000
00000000
00000000
00000000
02300000
00000000
00000000
00000000
03100000
10000000
01000000
00000000
00100000
00000000
00010000
00000000
,
00100000
00010000
01000000
00000000
00001000
00000000
00010000
00000000
00000100
00001000
00000010
00000000
00000100
00000000
00000010
00000000
,
00000100
00000001
00000010
00000000
00000100
00000000
00001000
00000000
00000010
00010000
00001000
00010000
00000010
00010000
00001000
00000000
,
00100000
00001000
00010000
00001000
00100000
00001000
00010000
00000000
00000100
00001000
00000010
00000000
00010000
00001000
00000100
00000000
,
00001000
00010000
01000000
00000000
00010000
00001000
00100000
00000000
00001000
00000000
00000000
00000000
00000000
00000000
00000000
00000000
,
00010000
00000000
00100000
10000000
,
00100000
00000000
00010000
00000000
,
00001000
00000000
00000010
00000001
,
00000010
00000100
00010000
00000000
,
00001000
00000000
00000100
00000001
,
00000100
00000000
00001000
00000000
,
00010000
00000000
00100000
10000000
,
00100000
01000000
00001000
00010000
,
00001000
00010000
01000000
00010000
,
00001000
00000000
00010000
00001000
,
00010000
00001000
00000100
00001000
,
00010000
00000000
00001000
00010000
,
00100000
00010000
00001000
00000010
,
00001000
00010000
00011000
01001000
,
00011000
00000000
00010010
00000000
00020000
00000000
00000000
00032000
,
00000000
00003200
00000000
00000000
,
00000000
00000302
00000023
00002030
,
00000000
00023000
00000000
00000000
02030000
00000000
00000000
23000000
,
00000000
30200000
00020000
00000000
,
00300000
00000000
00000000
00000000
00031000
00010000
00001000
00010000
,
00000100
00000010
00000001
00001000
00000100
00000000
00000010
00000000
,
00000001
00000000
00000100
00000000
00001000
00010000
00001000
00010000
,
00002000
00000000
00023000
00000000
00130000
10000000
00100000
01000000
,
00000000
00100000
00010000
00000000
00001000
00010000
00001000
00000100
,
00000000
00000010
00000100
00000000
00000001
00000010
00000001
00001000
,
00000000
00000010
00001000
00000000
00000100
00010000
00000100
00000010
,
00000000
00000100
00001000
00000000
00000100
00010000
00001000
00100000
,
00010000
01000000
00001000
00000000
00100000
00010000
01000000
00001000
,
00010000
00000010
00001000
00000000
00000100
00000010
00000000
00000010
,
00000001
00000000
00000001
00000100
00001000
01001000
00010100
00010000
,
00000000
00001000
00000000
00000100
00000000
00000010
00000000
00001000
,
00000000
00000100
00000000
00000010
00000000
00002000
00000000
00000000
,
00000000
00013000
00000000
00011000
00000000
00000000
00000000
00010000
,
00000000
00100000
00000000
10000000
00000000
01000000
00000000
00100000
,
00000000
00010000
00000000
01000000
00000000
00000000
00000000
00100000
,
00000000
10000000
00000000
01000000
00000000
00000000
00000000
00100000
,
00000000
00010000
00000000
01000000
00000000
10000000
00000000
01000000
,
00000000
00010000
00000000
00100000
00000000
00000000
00000000
00001000
,
00000000
00010000
00000000
00100000
00000000
01000000
00000000
00010000
,
00000000
00100000
00000000
01000000
00000000
00020000
00000000
00000000
,
00000000
00031000
00000000
00011000
00000000
00000000
00000000
00001000
,
00000000
00000100
00000000
00000001
00000000
00000010
00000000
00000100
,
00000000
00001000
00000000
00000010
00000000
00000000
00000000
00000100
,
00000000
00000001
00000000
00000010
00000000
00000000
00000000
00000100
,
00000000
00001000
00000000
00000010
00000000
00000001
00000000
00000010
,
00000000
00001000
00000000
00000100
00000000
00010000
00000000
00001000
,
00000000
00010000
00000000
00022000
00000000
00000000
00000000
00000000
,
00000000
00000000
00000000
00000000
,
00000000
00000000
00000000
00000000
,
00000000
00000000
00000000
00000000
00000000
00000000
00000000
00033000
;
