#TITLE:GIRI GIRI;
#SUBTITLE:;
#ARTIST:鈴木雅之 feat. すぅ;
#TITLETRANSLIT:;
#SUBTITLETRANSLIT:;
#ARTISTTRANSLIT:Masayuku Suzuki feat. Suu;
#GENRE:J-MUSIC;
#CREDIT:MUINELIM;
#BANNER:giri-giri.png;
#BACKGROUND:giri-giri-bg.png;
#JACKET:giri-giri-jacket.png
#LYRICSPATH:;
#CDTITLE:;
#MUSIC:giri-giri.ogg;
#OFFSET:0.293000;
#SAMPLESTART:65.561234;
#SAMPLELENGTH:14.938831;
#SELECTABLE:YES;
#DISPLAYBPM:128;
#BPMS:0.000000=128;
#STOPS:
;
#BGCHANGES:0.000=giri-giri-bg.png=1.000=0=0=1=StretchNormal===#000000=#000000,
2.000=giri-giri.avi=1.000=1=0=0=StretchNoLoop==CrossFade==,
99999=-nosongbg-=1.000=0=0=0 // don't automatically add -songbackground-
;
#KEYSOUNDS:;
#ATTACKS:;

//---------------dance-single - ----------------
#NOTES:
     dance-single:
     :
     Beginner:
     2:
     0.085032,0.181796,0.011231,0.000000,0.000000,53.000000,52.000000,1.000000,0.000000,0.000000,0.000000,0.085032,0.181796,0.011231,0.000000,0.000000,53.000000,52.000000,1.000000,0.000000,0.000000,0.000000:
// measure 0
0000
0000
0000
0000
,  // measure 1
0000
0000
0000
0000
,  // measure 2
0000
0000
0000
0000
,  // measure 3
0000
0000
0000
0000
,  // measure 4
0000
0000
0010
0000
,  // measure 5
0000
0000
1000
0000
,  // measure 6
0000
0000
0001
0000
,  // measure 7
0000
0000
0100
0000
,  // measure 8
0000
0000
0010
0000
,  // measure 9
0000
0000
1000
0000
,  // measure 10
0000
0000
0001
0000
,  // measure 11
0000
0000
0100
0000
,  // measure 12
0000
0000
0100
0000
,  // measure 13
0100
0000
0100
0100
,  // measure 14
0000
0000
0001
0000
,  // measure 15
0000
0000
0000
0000
,  // measure 16
0000
0000
0001
0000
,  // measure 17
0001
0000
0001
0001
,  // measure 18
0001
0001
0001
0000
,  // measure 19
0000
0000
0100
0000
,  // measure 20
0000
0000
0010
0000
,  // measure 21
0000
0000
1000
0000
,  // measure 22
0000
0000
0001
0000
,  // measure 23
0000
0000
0100
0000
,  // measure 24
0000
0000
0010
0000
,  // measure 25
0000
0000
1000
0000
,  // measure 26
0000
0000
0001
0000
,  // measure 27
0000
0000
0010
0000
,  // measure 28
0000
0000
0100
0000
,  // measure 29
0000
0000
1000
0000
,  // measure 30
0000
0000
0001
0000
,  // measure 31
0000
0000
0010
0000
,  // measure 32
0000
0000
0100
0000
,  // measure 33
0000
0000
1000
0000
,  // measure 34
0000
0000
0010
0010
,  // measure 35
0010
0000
0010
0000
,  // measure 36
0000
0000
0001
0000
,  // measure 37
0000
0000
0100
0000
,  // measure 38
0000
0000
1000
0000
,  // measure 39
0000
0000
0010
0000
,  // measure 40
0000
0000
0001
0000
,  // measure 41
0000
0000
0100
0000
,  // measure 42
0000
0000
1000
0000
,  // measure 43
0000
0000
0010
0000
,  // measure 44
0010
0000
0010
0010
,  // measure 45
0000
0000
0100
0000
,  // measure 46
0000
1001
0000
0000
;

//---------------dance-single - ----------------
#NOTES:
     dance-single:
     :
     Easy:
     3:
     0.134768,0.233738,0.033692,0.000000,0.000000,84.000000,81.000000,3.000000,0.000000,0.000000,0.000000,0.134768,0.233738,0.033692,0.000000,0.000000,84.000000,81.000000,3.000000,0.000000,0.000000,0.000000:
0000
0000
0000
0000
,
0000
0000
0000
0000
,
0000
0000
0000
0000
,
0000
0000
0000
0000
,
0000
0000
0001
0000
,
0010
0000
0100
0000
,
1000
0000
0001
0000
,
0010
0000
0100
0000
,
1000
0000
0001
0000
,
0010
0000
0100
0000
,
1000
0000
0001
0000
,
0010
0000
0100
0000
,
0000
0100
0100
0000
,
0100
0000
0100
0110
,
0000
0000
0001
0000
,
0000
0000
1000
0000
,
0000
0000
0001
0000
,
0000
0000
1000
0000
,
0000
0000
0001
0000
,
0100
0000
0010
0000
,
1000
0000
0001
0000
,
0100
0000
0010
0000
,
0000
0000
1000
0000
,
0010
0000
0100
0000
,
0001
0000
1000
0000
,
0010
0000
0100
0000
,
0000
0000
0001
0000
,
0010
0000
0100
0000
,
1000
0000
0010
0000
,
0100
0000
0001
0000
,
1000
0000
0100
0000
,
0010
0000
0001
0000
,
1000
0000
0010
0000
,
0100
0000
0010
0000
,
0010
0000
0010
0010
,
0010
0000
0001
0000
,
0100
0000
1000
0000
,
0010
0000
0001
0000
,
0100
0000
1000
0000
,
0010
0000
1000
0000
,
0100
0000
0001
0000
,
0010
0000
1000
0000
,
0100
0000
0001
0000
,
0010
0000
0000
0010
,
0000
0010
0010
0110
,
0000
0000
0010
1000
,
0001
1001
0000
0000
;

//---------------dance-single - ----------------
#NOTES:
     dance-single:
     :
     Medium:
     6:
     0.301623,0.367523,0.134768,0.044923,0.000000,188.000000,176.000000,12.000000,4.000000,0.000000,0.000000,0.301623,0.367523,0.134768,0.044923,0.000000,188.000000,176.000000,12.000000,4.000000,0.000000,0.000000:
0000
0000
0000
0000
,
0000
0000
0000
0000
,
0000
0000
0000
0000
,
0000
0000
0000
0000
,
0000
0000
0001
0010
,
0100
1000
0001
0010
,
0100
1000
0010
0100
,
0001
1000
0010
0010
,
0010
0010
0001
0010
,
0100
1000
0001
0010
,
0100
1000
0010
0100
,
0001
1000
0010
0100
,
0010
0000
0110
0000
0000
1000
0100
0000
,
0001
0100
0000
1000
0100
0000
1001
0000
,
0000
0000
0010
0100
0010
0000
1000
0000
,
0200
0300
0010
0001
,
0200
0300
0010
0100
,
0010
1000
0001
0101
,
1000
1100
0001
0100
,
0010
0010
0000
0000
0100
0000
0001
0001
,
0000
0000
0100
0010
0100
0000
0001
0000
,
0010
0100
1000
0010
,
0100
0001
1001
1000
,
0010
0010
0000
0000
1000
0000
0100
0100
,
0000
1000
0001
0010
,
0100
0000
1000
0000
0010
0100
0010
0010
,
0000
0100
0010
0000
1010
0000
1000
0000
,
1100
0010
0011
0001
,
0101
1000
0010
0100
,
0001
0000
1000
0000
0010
0100
0010
0010
,
0000
0000
1000
0001
1000
0000
0100
0000
,
0001
0010
1000
0100
,
0001
0010
1000
0100
,
0001
0010
0100
0100
,
0100
0000
0100
0000
0010
0100
0010
0100
,
0010
0000
1000
0100
,
0010
0001
1000
0100
,
0010
0001
1000
0100
,
0010
0001
0100
0100
,
0100
0100
1000
0010
,
0100
0001
1000
0010
,
0100
0001
1000
0010
,
0001
0100
1000
0001
,
1000
0000
1001
0000
0000
0001
0010
0000
,
1000
0010
0000
0001
0010
0000
0110
0000
,
0000
0000
0100
1000
0010
0000
0100
0000
,
0001
0010
0100
0220
0000
0000
0330
0000
;

//---------------dance-single - ----------------
#NOTES:
     dance-single:
     :
     Hard:
     9:
     0.425160,0.472530,0.280766,0.235844,0.044923,265.000000,240.000000,25.000000,21.000000,0.000000,0.000000,0.425160,0.472530,0.280766,0.235844,0.044923,265.000000,240.000000,25.000000,21.000000,0.000000,0.000000:
0000
0000
0000
0000
,
0000
0000
0000
0000
,
0000
0000
0000
0000
0000
0000
0000
0000
1000
0000
0000
1000
0000
0000
1000
0000
,
0001
0000
0000
0001
0000
0000
0001
0000
1001
0000
0000
0000
0220
0000
0000
0000
,
0000
0000
0330
0000
0010
1000
0100
0000
,
0010
1000
0100
0000
0010
1000
0100
0010
,
0000
0010
0001
0000
0100
0000
1000
0000
,
0010
0000
0001
0000
1000
0010
0100
0010
,
1000
0010
0100
0000
0001
0010
0100
0000
,
0001
0010
0100
1100
0000
0101
0000
1100
,
0000
0101
0000
1001
0000
1000
0100
0010
,
0001
0000
0000
0000
0001
0000
0100
0000
0010
0000
0000
0010
0000
0000
0010
0000
,
0000
1000
0001
0000
1000
0100
0100
0000
,
0001
0100
0000
1000
0100
0000
2002
3003
,
0000
0001
0010
0100
1000
0000
0010
0000
,
0200
0300
0001
0010
,
0200
0000
1300
0010
0100
0000
0010
1000
,
0100
0010
0001
0011
0000
1010
0000
0011
,
0000
1010
0000
1001
0000
1000
0100
0000
,
1000
0000
0001
0000
1000
0100
1000
0000
,
0001
0000
1000
0100
1000
0000
0001
0100
,
0001
0000
0000
0000
1000
0000
0100
0000
1000
0000
0100
0000
1000
0000
0001
0100
,
0001
0000
1000
0100
1000
0000
0001
0100
0001
0000
0000
0000
1000
0000
0000
0000
,
0001
0100
0001
0000
1000
0000
0001
0100
,
0001
1000
0001
0010
,
0100
0000
1000
0010
0000
0010
0100
0010
,
0000
0010
1000
0001
0200
0000
0320
0000
,
0230
0000
0310
1000
0100
0100
0000
1001
,
0000
0001
1000
0100
0000
0100
1000
0001
,
0100
0001
1000
0100
0010
0001
0100
0100
,
0000
0010
1000
0100
0020
0000
0032
0000
,
0203
0320
2030
3002
,
0023
0230
2300
3010
,
0002
0013
1001
1100
,
1001
0000
0101
0000
0100
0010
0100
0010
,
0100
0000
0000
0000
1000
0100
0010
0000
,
1000
0100
0010
0000
1000
0100
0010
1000
,
0000
1000
0001
0000
0010
0000
1000
0000
,
0100
0000
0001
0000
0010
0100
0010
0001
,
0010
0100
1000
0000
0010
0100
0001
0000
,
0010
0100
0001
0011
0000
1010
0000
0011
,
0000
1010
0000
1001
0000
0001
0100
0010
,
1000
0000
0000
0000
0001
0000
0010
0000
0100
0000
0000
0100
0000
0000
0100
0000
,
0000
1000
0010
0000
0100
0001
0001
0000
,
0100
1000
0000
0100
0001
0000
0110
0000
,
1000
0000
0010
0000
0100
0000
0001
0000
1000
0000
0000
1000
0000
0000
1000
0000
,
0000
0010
0100
0220
0000
0000
0330
0000
;

//---------------dance-double - ----------------
#NOTES:
     dance-double:
     :
     Easy:
     4:
     0.136372,0.233738,0.044923,0.000000,0.000000,85.000000,81.000000,4.000000,0.000000,0.000000,0.000000,0.136372,0.233738,0.044923,0.000000,0.000000,85.000000,81.000000,4.000000,0.000000,0.000000,0.000000:
00000000
00000000
00000000
00000000
,
00000000
00000000
00000000
00000000
,
00000000
00000000
00000000
00000000
,
00000000
00000000
00000000
00000000
,
00000000
00000000
10000000
00000000
,
01000000
00000000
00100000
00000000
,
00001000
00000000
00010000
00000000
,
00000100
00000000
00000010
00000000
,
00000001
00000000
00000100
00000000
,
00000010
00000000
00010000
00000000
,
00001000
00000000
00100000
00000000
,
01000000
00000000
10000000
00000000
,
00000000
00100000
00100000
00000000
,
01000000
00000000
00010000
10010000
,
00000000
00000000
10000000
00000000
,
00000000
00000000
00010000
00000000
,
00000000
00000000
00001000
00000000
,
00000000
00000000
00000001
00000000
,
00000000
00000000
00000100
00000000
,
00000010
00000000
00010000
00000000
,
00001000
00000000
00100000
00000000
,
01000000
00000000
00010000
00000000
,
00000000
00000000
01000000
00000000
,
00100000
00000000
00001000
00000000
,
00010000
00000000
00000100
00000000
,
00000010
00000000
00001000
00000000
,
00000000
00000000
00010000
00000000
,
00001000
00000000
00000100
00000000
,
00000001
00000000
00000010
00000000
,
00001000
00000000
00010000
00000000
,
01000000
00000000
10000000
00000000
,
00100000
00000000
00010000
00000000
,
00001000
00000000
00000100
00000000
,
00000001
00000000
00000010
00000000
,
00000010
00000000
00000010
00000010
,
00000110
00000000
00000001
00000000
,
00000100
00000000
00001000
00000000
,
00000100
00000000
00000001
00000000
,
00000100
00000000
00001000
00000000
,
00010000
00000000
00100000
00000000
,
10000000
00000000
00100000
00000000
,
00010000
00000000
00100000
00000000
,
10000000
00000000
01000000
00000000
,
00100000
00000000
00000000
00001000
,
00000000
00010000
00001000
00011000
,
00000000
00000000
00000100
00000010
,
00000001
00001001
00000000
00000000
;

//---------------dance-double - ----------------
#NOTES:
     dance-double:
     :
     Medium:
     7:
     0.300019,0.367523,0.145999,0.067384,0.000000,187.000000,174.000000,13.000000,6.000000,0.000000,0.000000,0.300019,0.367523,0.145999,0.067384,0.000000,187.000000,174.000000,13.000000,6.000000,0.000000,0.000000:
00000000
00000000
00000000
00000000
,
00000000
00000000
00000000
00000000
,
00000000
00000000
00000000
00000000
,
00000000
00000000
00000000
00000000
,
00000000
00000000
10000000
01000000
,
00100000
00001000
00010000
00000100
,
00000010
00000001
00001000
00000010
,
00010000
00001000
00100000
00100000
,
00100000
00100000
01000000
10000000
,
00100000
00010000
00001000
00000100
,
00000001
00000010
00001000
00010000
,
00100000
00010000
00001000
00000010
,
00001000
00000000
00011000
00000000
00000000
00010000
00100000
00000000
,
00010000
00001000
00000000
00010000
00100000
00000000
01100000
00000000
,
00000000
20020000
30030000
10000000
,
02000000
03000000
00100000
00010000
,
02000000
03000000
00001000
00010000
,
00000100
00001000
00000010
00010010
,
00001000
01001000
01000000
00010000
,
00100000
00001000
00000000
00000000
00100000
00000000
00010000
01000000
,
00000000
00000000
00010000
10000000
00010000
00000000
01000000
00000000
,
00001000
00010000
00000010
00001000
,
00000100
00010000
00011000
00000100
,
00001000
00000010
00000000
00000000
00001000
00000000
00000100
00010000
,
00000000
00001000
00010000
00100000
,
01000000
00000000
00100000
00000000
10000000
01000000
00100000
01000000
,
00000000
00010000
00001000
00000000
00011000
00000000
01000000
00000000
,
00011000
00000100
00011000
01000000
,
00011000
00000100
00010000
00001000
,
00000100
00000000
00000001
00000000
00000010
00000100
00000010
00001000
,
00000000
00000000
00010000
00001000
00010000
00000000
01000000
00000000
,
10000000
00100000
00010000
00001000
,
00000100
00000001
00000010
00001000
,
00010000
00100000
01000000
01000000
,
01000000
00000000
01000000
00000000
00100000
10000000
00100000
10000000
,
00100000
00000000
10000000
01000000
,
00100000
00001000
00010000
00000100
,
00000010
00000001
00001000
00000010
,
00010000
00001000
00100000
00100000
,
00100000
00100000
01000000
10000000
,
00100000
00010000
00001000
00000100
,
00000001
00000010
00001000
00010000
,
00100000
00010000
00001000
00000010
,
00001000
00000000
00011000
00000000
00000000
00010000
00000010
00000000
,
00010000
00100000
00000000
00010000
00000010
00000000
00000110
00000000
,
00000000
00000000
00000100
00000001
00000010
00000000
00001000
00000000
,
00010000
01000000
10000000
22000000
00000000
00000000
33000000
00000000
;

//---------------dance-double - ----------------
#NOTES:
     dance-double:
     :
     Hard:
     9:
     0.447622,0.472530,0.460457,0.112307,0.028077,279.000000,238.000000,41.000000,10.000000,0.000000,0.000000,0.447622,0.472530,0.460457,0.112307,0.028077,279.000000,238.000000,41.000000,10.000000,0.000000,0.000000:
00000000
00000000
00000000
00000000
,
00000000
00000000
00000000
00000000
,
00000000
00000000
00000000
00000000
00000000
00000000
00000000
00000000
00010000
00000000
00000000
00010000
00000000
00000000
00010000
00000000
,
00001000
00000000
00000000
00001000
00000000
00000000
00001000
00000000
00101000
00000000
00000000
00000000
00020020
00000000
00000000
00000000
,
00000000
00000000
00030030
00000000
00010000
00001000
00000010
00000000
,
00001000
00000010
00000001
00000000
00000010
00000001
00000100
00001000
,
00000000
00010000
00001000
00000000
00100000
00000000
00010000
00000000
,
01000000
00000000
00001000
00000000
00010000
00000100
00010000
00001000
,
01000000
00001000
00010000
00000000
00100000
10000000
01000000
00000000
,
00100000
00010000
01000000
01100000
00000000
00110000
00000000
00011000
,
00000000
00001010
00000000
00000110
00000000
00000100
00000001
00000010
,
00000100
00000000
00000000
00000000
00000010
00000000
00000001
00000000
00000100
00000000
00000000
00000100
00000000
00000000
00000100
00000000
,
00000000
00001000
00011000
00000000
00010000
01000000
10000000
00000000
,
01000000
00010000
00000000
00001000
00010000
00000000
00022000
00033000
,
00000000
00100000
00001000
00010000
00000010
00000000
00000100
00000000
,
00000002
00000003
00000010
00000100
,
00002000
00000000
00003010
00001000
00000100
00000000
00010000
00001000
,
00000100
00000001
00000010
00000110
00000000
00001100
00000000
00011000
,
00000000
01010000
00000000
11000000
00000000
10000000
00100000
00000000
,
01000000
00000000
10000000
00000000
01000000
00010000
01000000
00000000
,
10000000
00000000
01000000
00010000
01000000
00000000
00001000
00010000
,
00001000
00000000
00000100
00000001
00000100
00000001
00000100
00000010
,
00001000
00010000
01000000
00100000
10000000
00000000
01000000
00000000
,
00100000
00001000
00100000
00000000
01000000
00000000
00100000
00010000
,
00100000
01000000
00100000
00001000
,
00010000
00000000
00000100
00000010
00000000
00000001
00000100
00000010
,
00000000
00000001
00000010
00001000
00001001
00000000
00000101
00000000
,
00001100
00000000
00000100
00010000
00001000
01000000
00000000
01100000
,
00000000
00100000
10000000
01000000
00000000
00010000
01000000
10000000
,
00100000
01000000
00100000
10000000
01000000
00010000
00001000
00011000
,
00000000
00100000
00010000
01000000
01100000
00000000
00010000
00000000
,
00101000
00000100
00010010
00000100
,
00011000
00100000
01010000
10000000
,
01100000
00010000
00101000
00010010
,
00001100
00000000
00001001
00000000
00000001
00000100
00001000
00010000
,
00022000
00000000
00033000
00000000
00001000
00010000
01000000
00000000
,
00010000
01000000
10000000
00000000
01000000
10000000
00100000
00010000
,
00000000
00001000
00010000
00000000
00000100
00000000
00001000
00000000
,
00000010
00000000
00010000
00000000
00001000
00100000
00001000
00010000
,
00000010
00010000
00001000
00000000
00000100
00000001
00000010
00000000
,
00000100
00001000
00000010
00000110
00000000
00001100
00000000
00011000
,
00000000
01010000
00000000
01100000
00000000
00100000
10000000
01000000
,
00100000
00000000
00000000
00000000
01000000
00000000
10000000
00000000
00100000
00000000
00000000
00100000
00000000
00000000
00100000
00000000
,
00000000
00010000
00011000
00000000
00000010
00001000
00010000
00000000
,
00100000
00010000
00001000
00000000
00000100
00001000
00011000
00000000
,
00100000
00000000
10000000
00000000
01000000
00000000
00010000
00000000
00011000
00000000
00000000
01001000
00000000
00000000
00010100
00000000
,
00000000
00000100
00000010
00000022
00000000
00000000
00000033
00000000
;
