#VERSION:0.83;
#TITLE:Flaming Heart;
#SUBTITLE:;
#ARTIST:D_AAN;
#TITLETRANSLIT:;
#SUBTITLETRANSLIT:;
#ARTISTTRANSLIT:;
#GENRE:WORLD MUSIC;
#ORIGIN:;
#CREDIT:MUINELIM;
#BANNER:Flaming Heart.png;
#BACKGROUND:Flaming Heart-bg.png;
#PREVIEWVID:;
#JACKET:Flaming Heart-jacket.png;
#CDIMAGE:;
#DISCIMAGE:;
#LYRICSPATH:;
#CDTITLE:;
#MUSIC:Flaming Heart.ogg;
#OFFSET:-0.037000;
#SAMPLESTART:28.537003;
#SAMPLELENGTH:13.159996;
#SELECTABLE:YES;
#BPMS:0.000=100.000,
32.000=200.000,
192.000=107.500,
196.000=115.000,
200.500=122.500,
204.000=130.000,
244.000=50.000,
250.000=100.000,
252.000=200.000;
#STOPS:192.000=0.279,
192.500=0.279,
193.000=0.279,
193.500=0.279,
194.000=0.279,
194.500=0.279,
195.000=0.279,
195.500=0.279,
196.000=0.261,
196.500=0.261,
197.000=0.261,
197.500=0.261,
198.000=0.783,
200.500=0.245,
201.000=0.245,
201.500=0.245,
202.000=0.245,
202.500=0.245,
203.000=0.245,
203.500=0.735;
#DELAYS:;
#WARPS:;
#TIMESIGNATURES:0.000=4=4;
#TICKCOUNTS:0.000=4;
#COMBOS:0.000=1;
#SPEEDS:0.000=1.000=0.000=0;
#SCROLLS:0.000=1.000;
#FAKES:;
#LABELS:0.000=Song Start;
#BGCHANGES:;
#KEYSOUNDS:;
#ATTACKS:
;

//---------------dance-single - ----------------
#NOTEDATA:;
#CHARTNAME:;
#STEPSTYPE:dance-single;
#DESCRIPTION:;
#CHARTSTYLE:;
#DIFFICULTY:Hard;
#METER:16;
#RADARVALUES:0.777195,1.041191,0.442074,0.755804,0.474160,763.000000,701.000000,62.000000,106.000000,0.000000,0.000000,0.000000,0.000000,0.000000,0.777195,1.041191,0.442074,0.755804,0.474160,763.000000,701.000000,62.000000,106.000000,0.000000,0.000000,0.000000,0.000000,0.000000;
#CREDIT:MILEN;
#NOTES:
0000
0000
0000
0000
,
0000
0000
0000
0000
,
2000
3010
0002
0013
,
2002
0000
0000
0000
0000
0000
3003
0000
0110
0000
0010
1000
0001
0100
0010
1000
,
0001
0000
0010
0000
0100
0000
1000
0010
0100
0000
0001
0000
1000
0000
0100
0010
,
0002
0000
0000
0103
0010
0000
0100
0001
0010
0200
0000
1300
0010
1000
0100
0010
,
0011
0000
0001
0000
0100
0000
0010
1000
0100
0000
1000
0000
0001
0000
0010
0001
,
0200
0000
0000
0000
0310
0000
1000
0000
0001
0000
0010
0000
0100
0000
1000
0000
0010
0000
0100
0000
0001
0000
1000
0000
0100
0010
0100
0010
0100
0010
0100
0010
,
0002
0000
0000
0103
0100
0010
0010
1000
,
1000
0001
0001
0010
0010
0100
0100
1000
,
1020
0000
0000
0130
0100
0001
0001
1000
,
1000
0100
0100
0010
0010
0001
0001
0100
,
0110
0010
1000
0100
0010
0100
1000
0010
,
0110
0100
0001
0010
0100
0010
0001
0100
,
0110
0010
1000
0100
0001
0100
1000
0010
,
0101
0001
1000
0010
2010
0000
3100
0010
,
0021
0000
1000
0000
0031
0000
0001
0100
,
1200
0000
0001
0000
1300
0000
0100
0001
,
0021
0000
0130
0010
0002
0000
0103
1000
,
0100
0001
1000
0010
0001
0010
0100
0010
,
1020
0000
0001
0000
1030
0000
1000
0100
,
0201
0000
1000
0000
0301
0000
0100
1000
,
1020
0000
0031
0010
0200
0000
0310
1000
,
0100
0010
0001
1000
0010
0100
0101
1010
,
0120
0000
0001
0000
1030
0000
1000
0100
,
0210
0000
0001
0000
1300
0000
1000
0010
,
0022
0033
0000
2200
3300
0000
2020
3030
,
0202
0303
1001
1000
0010
0100
0001
0010
,
0100
1000
0100
0000
0010
0000
0100
0000
1000
0000
0010
0000
0100
0000
0001
0000
,
0010
0001
0010
0000
0100
0000
0010
0000
0001
0000
0100
0000
0010
0000
1000
0000
,
0001
0100
0001
0000
0010
0000
0100
0000
1000
0010
1000
0000
0100
0000
0010
0000
,
0011
0000
0001
0100
0010
0000
1000
0010
0100
0000
0001
0010
0100
0000
1100
0000
,
1002
0000
0000
0013
0010
0100
0100
1000
,
1000
0010
0010
0001
0001
1000
1000
0100
,
0110
0010
1000
0100
0001
0100
0010
0001
,
0100
0000
1000
0000
0100
0000
0010
0000
1000
0000
0001
0000
0010
0100
0010
0100
,
2000
0000
0000
3100
0100
0010
0010
0001
,
0001
0100
0100
1000
1000
0001
0001
0010
,
0110
0100
0001
0010
1000
0010
0100
1000
,
0010
0000
0001
0000
0010
0000
0100
0000
0001
0000
1000
0000
0100
0010
0100
0010
,
0002
0000
0000
0013
0010
1000
1000
0001
,
0001
0100
0100
1000
1000
0010
0010
0100
,
0101
1000
0010
0100
1000
0100
0001
1000
,
0010
0000
0001
0000
0010
0000
0100
0000
1000
0000
0100
0000
0001
0010
0001
0010
,
0200
0310
0001
0001
0100
0100
0010
0010
,
1000
0100
0010
0000
0001
0010
0100
0000
1000
0010
0100
0000
0001
0100
0001
0100
,
0020
2030
3200
0302
,
0023
0230
0000
0000
0000
0000
0020
0330
,
0120
1030
0210
0301
0210
1300
0120
0031
,
2010
3100
0012
0103
0110
0010
1000
0001
,
0100
0102
1003
2100
3001
0012
1003
2010
,
0002
0000
0000
3003
,
0220
0000
0330
0000
1010
1010
0101
0101
,
0110
0000
0010
1000
0100
1000
0100
0010
0200
0000
1300
0010
0100
0002
0000
0000
,
0013
0000
0000
0000
0000
0000
0000
0000
0000
0010
0000
0000
0100
0000
0000
1000
0000
0000
0010
0000
0000
0100
0000
0000
0002
0000
0000
0000
0000
0000
1003
0000
0010
0000
1000
0000
0010
0000
0000
0000
0000
0000
0110
0000
0000
0000
0000
0000
,
0100
0000
0000
0001
0000
0000
0100
0000
0000
0001
0000
0000
0100
0000
0000
0001
0000
0000
0010
0000
0000
0100
0000
0000
1000
0000
0000
0010
0000
0000
1000
0000
0000
0010
0000
0000
1000
0000
0000
0010
0000
0000
0100
0000
0001
0000
0100
0000
,
0001
1000
0100
0010
0001
0200
0000
0000
0320
0000
0130
0001
0100
0010
1000
0010
,
0200
0000
0301
0010
1000
0010
0001
0200
0000
0000
1300
0100
0010
0200
0000
0000
,
0302
0000
0000
0000
0000
0000
0000
0000
0000
0013
0000
0000
0100
0000
0000
1000
0000
0000
0100
0000
0000
0001
0000
0000
0200
0000
0000
0000
0000
0000
0310
0000
0001
0000
0010
0000
0001
0000
0000
0200
0000
0000
0000
0000
0000
0000
0000
0000
,
0000
0000
0000
1300
0000
0000
0100
0000
0000
0010
0000
0000
1000
0000
0000
0200
0000
0000
0000
0000
0000
0000
0000
0000
0301
0000
0000
0100
0000
0000
0010
0000
0000
0001
0000
0000
0100
0000
0000
0010
0000
0000
1000
0000
0100
0000
1000
0000
,
0100
0010
0001
0100
1000
0200
0000
0000
0320
0000
0031
0010
0100
0001
0010
0100
,
2000
0000
0000
0000
3020
0000
0032
0000
0203
0000
0000
2300
3002
0000
0203
0320
,
2030
0000
0000
0000
0000
0000
3002
0023
0230
0000
0000
0000
2300
0000
0000
0000
,
3001
0000
0001
0010
0100
1000
0010
0100
,
0201
0000
1000
0000
0310
0000
0100
0010
,
1020
0000
0001
0000
0130
0000
0010
1000
,
1200
0000
0000
0310
0002
0000
0103
1000
,
0100
0020
0000
1030
0001
0010
0100
1000
,
0010
0100
0001
0000
1000
0000
0100
0000
0010
0000
0001
0000
1000
0000
0010
0000
,
0100
0010
1000
0000
0001
0000
0010
0000
0100
0000
1000
0000
0001
0000
0100
0000
,
0010
1000
0001
0000
0010
0000
0100
0000
1000
0000
0001
0000
0100
0000
0010
0000
,
1000
0100
0010
0000
0100
0010
0001
0000
0100
0010
1000
0000
0010
0100
0010
0100
,
0002
0000
0000
0000
0000
0000
1003
0000
1000
0100
1000
0000
0010
0100
0010
0000
,
0100
0001
0100
0000
0001
0010
0001
0000
0010
0100
0010
0000
0100
1000
0100
1000
,
0020
0000
0000
0130
0001
0100
1000
0001
,
0010
1000
0100
0010
0001
0100
0010
1000
,
1002
0000
0000
0000
0000
0000
0013
0000
0010
0100
0010
0000
0100
1000
0100
0000
,
1000
0010
1000
0000
0010
0100
0010
0000
0100
0001
0100
0000
0001
0010
0001
0010
,
0200
0000
0000
0310
0001
1000
0100
0001
,
1000
0010
0100
2000
0000
3010
0100
0001
,
0022
0000
0033
0202
0000
0303
2200
0000
,
3300
2020
0000
3030
0220
0330
2002
3003
,
0220
0030
1000
0010
,
0001
0000
0010
0000
1300
0100
0010
0001
,
0010
0100
0010
0000
1000
0010
1000
0000
0001
0100
0001
0000
0100
0010
0100
0010
,
1000
0100
0010
0000
0100
0010
0001
0000
0100
0010
1000
0000
0010
0100
0001
0000
,
1000
0010
1000
0010
0100
0000
0001
0000
1000
0010
1000
0010
0100
0000
0010
0000
,
1000
0100
1000
0100
0010
0001
0200
0000
0000
0000
0000
0000
0310
0000
1010
0000
,
0101
2002
3003
0000
;

//---------------dance-double - ----------------
#NOTEDATA:;
#CHARTNAME:;
#STEPSTYPE:dance-double;
#DESCRIPTION:;
#CHARTSTYLE:;
#DIFFICULTY:Hard;
#METER:16;
#RADARVALUES:0.736451,0.978089,0.363642,0.762934,0.370772,723.000000,672.000000,51.000000,107.000000,0.000000,0.000000,0.000000,0.000000,0.000000,0.736451,0.978089,0.363642,0.762934,0.370772,723.000000,672.000000,51.000000,107.000000,0.000000,0.000000,0.000000,0.000000,0.000000;
#CREDIT:MILEN;
#NOTES:
00000000
00000000
00000000
00000000
,
00000000
00000000
00000000
00000000
,
00002000
00103000
00020000
00030010
,
00022000
00000000
00000000
00000000
00000000
00000000
00033000
00000000
00011000
00000000
00001000
00100000
00010000
01000000
00001000
00100000
,
00010000
00000000
01000000
00000000
00100000
00000000
10000000
01000000
00100000
00000000
00001000
00000000
00010000
00000000
00000100
00000010
,
00000002
00000000
00000000
00001003
00000010
00000000
00001000
00000100
00010000
00002000
00000000
00013000
00000100
00001000
00000100
00000010
,
00000001
00000000
00000100
00000000
00001000
00000000
00010000
00100000
10000000
00000000
01000000
00000000
00010000
00000000
00001000
00000010
,
00000002
00000000
00000103
00000010
00001000
00000010
00010000
00001000
00100000
00010000
00100000
01000000
10000000
00100000
00010000
00001000
,
00021000
00000000
00000000
00030100
00000100
00000010
00000010
00000001
,
00000001
00001000
00001000
00000010
00000010
00010000
00010000
00001000
,
00201000
00000000
00000000
00310000
00010000
10000000
10000000
01000000
,
01000000
00100000
00100000
00010000
00010000
01000000
01000000
00001000
,
00011000
00010000
00000100
00000010
00000100
00001000
00000010
00010000
,
00011000
00001000
00100000
01000000
00100000
00010000
01000000
00001000
,
00101000
00100000
00010000
01000000
00001000
00010000
00001000
00010000
,
00010010
00000010
00001000
00000100
00020100
00000000
00031000
00010000
,
00210000
00000000
20300000
00000000
32000000
00000000
03010000
00001000
,
00001020
00000000
00000032
00000000
00000203
00000000
00001300
00010000
,
00210000
00000000
10300000
00100000
00020000
00000000
00130000
00100000
,
10000000
01000000
00010000
01000000
10000000
00100000
00010000
00001000
,
00001020
00000000
00000032
00000000
00000203
00000000
00001300
00010000
,
02010000
00000000
23000000
00000000
30200000
00000000
00310000
00001000
,
00001020
00000000
00000031
00000010
00002000
00000000
00003010
00000001
,
00000100
00001000
00000100
00000001
00000010
00000100
00010100
00011000
,
02001000
00000000
03200000
00000000
20300000
00000000
31000000
00010000
,
00002000
00000000
00003020
00000000
00000230
00000000
00001300
00000001
,
00002002
00000003
00000000
00020000
00003000
00000000
20000000
30030000
,
02200000
03300000
00100000
10000000
01000000
00100000
00010000
01000000
,
00001000
00010000
00001000
00000000
00100000
00000000
00010000
00000000
01000000
00000000
00001000
00000000
00010000
00000000
00000100
00000000
,
00010000
00001000
00010000
00000000
00000010
00000000
00001000
00000000
00000100
00000000
00010000
00000000
00001000
00000000
00100000
00000000
,
00001000
00010000
00001000
00000000
00000010
00000000
00000100
00000000
00010000
00001000
00010000
00000000
01000000
00000000
00100000
00000000
,
00001000
00000000
00010000
00000010
00010000
00000000
00001000
01000000
00001000
00000000
00010000
00000100
00010000
00000000
00011000
00000000
,
00000020
00000000
00000000
00001030
00001000
00000100
00000100
00000001
,
00000001
00000100
00000100
00000010
00000010
00000001
00000001
00000100
,
00001010
00001000
00000100
00010000
00001000
00100000
01000000
10000000
,
00100000
00010000
00001000
00100000
01000000
10000000
00100000
01000000
,
00020000
00000000
00000000
00130000
00100000
10000000
10000000
00100000
,
00100000
01000000
01000000
10000000
10000000
00100000
00100000
00010000
,
00011000
00001000
00000100
00000001
00000100
00000010
00001000
00000100
,
00000010
00000001
00000100
00001000
00010000
01000000
10000000
00100000
,
02000000
00000000
00000000
03010000
00010000
00100000
00100000
01000000
,
01000000
00010000
00010000
00001000
00001000
00000010
00000010
00000001
,
00001100
00001000
00000010
00010000
00001000
00000100
00010000
01000000
,
00100000
10000000
01000000
00100000
00001000
00010000
00000100
00000010
,
00000002
00001003
00000100
00000100
00010000
00010000
00001000
00001000
,
00100000
10000000
00100000
00001000
00010000
00000100
00000001
00000100
,
00002000
00003020
00020030
00230000
,
20300000
32000000
00000000
00000000
00000000
00000000
03020000
00000000
,
00031000
00101000
00010000
00010010
00001000
01001000
00010000
00010100
,
00001000
01001000
00010000
00010010
00011000
00001000
00100000
00000100
,
00010000
00011000
00001010
00001001
00011000
00110000
10010000
00011000
,
00200000
00000000
00000000
00300000
,
00000020
00000000
00000030
00000000
00000110
00000001
00000100
00001000
,
00010000
00000000
00100000
10000000
00100000
10000000
00100000
10000000
02000000
00000000
03100000
00001000
00010000
00000200
00000000
00000000
,
00000310
00000000
00000000
00000010
00000001
00000010
00000001
00000100
00000020
00000000
00010030
00001000
00100000
00000000
01100000
00000000
,
01000000
10000000
01000000
10000000
01000000
10000000
00100000
01000000
00010000
00100000
00010000
00100000
00010000
00100000
00001000
00010000
,
00000100
00000010
00000001
00001000
00000100
00000020
00000000
00000000
00000032
00000000
00000103
00001000
00000100
00001000
00010000
00001000
,
00020000
00000000
00130000
10000000
00100000
10000000
01000000
00200000
00000000
00000000
01300000
00010000
00001000
00020000
00000000
00000000
,
00030200
00000000
00000000
00000310
00000001
00000010
00000001
00001000
00000020
00000000
00010030
00001000
00100000
02000000
00000000
00000000
,
00000000
13000000
01000000
00100000
00010000
02000000
00000000
00000000
03001000
00010000
00000100
00000010
00000001
00001000
00000010
00001000
,
00000010
00010000
00001000
00100000
01000000
20000000
00000000
00000000
30200000
00000000
00310000
00001000
00000100
00000001
00000010
00001000
,
00021000
00000000
00000000
00000000
00230000
00000000
00320000
00000000
00032000
00000000
00000000
00003020
00002030
00000000
00023000
00230000
,
20300000
00000000
00000000
00000000
00000000
00000000
32000000
03020000
00032000
00000000
00000000
00000000
00003020
00000000
00000000
00000000
,
00000031
00000000
00000001
00000010
00000100
00001000
00010000
01000000
,
10200000
00000000
00320000
00000000
00032000
00000000
00003010
00000001
,
00000201
00000000
00002300
00000000
00023000
00000000
01030000
10000000
,
10200000
00000000
00000000
00310000
00002000
00000000
00013000
00100000
,
10000000
02000000
00000000
03010000
00001000
00010000
00000100
00000010
,
00000011
00000001
00000100
00000010
00001000
00010000
01000000
00100000
,
10100000
10000000
01000000
00100000
00010000
00001000
00000100
00000010
,
00000110
00000001
00000100
00001000
00010000
00100000
10000000
01000000
,
00100000
01000000
00100000
00000000
00001000
00010000
00001000
00000000
00000010
00000100
00000010
00000000
00000001
00000100
00000001
00000100
,
00000020
00000000
00000000
00000000
00000000
00000000
00001030
00000000
00001000
00000100
00000010
00000000
00000001
00000000
00000100
00000000
,
00001000
00010000
00100000
00000000
10000000
00000000
01000000
00000000
00100000
00010000
01000000
00000000
00001000
00010000
00001000
00010000
,
00000200
00000000
00000000
00000310
00000001
00000010
00001000
00000010
,
00000001
00000010
00000100
00001000
00010000
01000000
00100000
10000000
,
12000000
00000000
00000000
00000000
00000000
00000000
03100000
00000000
00100000
00001000
00010000
00000000
00001000
00000000
00000100
00000000
,
00000001
00000010
00000100
00000000
00000010
00000000
00000001
00000000
00000100
00001000
00010000
00000000
00100000
01000000
00100000
01000000
,
00020000
00000000
00000000
10030000
01000000
00010000
01000000
00100000
,
00010000
00001000
00000010
00000200
00000000
00000301
00000010
00000100
,
00020200
00000300
00000000
00002000
00030000
00000000
00000200
00003000
,
00000000
00020000
00000300
00000000
02030000
00000000
03200000
00000000
,
20000000
00300000
32000000
03020000
,
00032000
00000000
00003020
00000000
00000031
00000010
00000100
00001000
,
00010000
01000000
00100000
00000000
10000000
00000000
01000000
00000000
00100000
00001000
00010000
00000000
00000100
00000000
00000100
00000010
,
00000001
00000000
00000100
00000000
00000010
00010000
00001000
00000000
00100000
00001000
00010000
00000000
00000100
00010000
00001000
00000000
,
00100000
01000000
00100000
01000000
10000000
00000000
00100000
00000000
00010000
00001000
00010000
00001000
00000100
00000000
00000001
00000000
,
00000010
00000100
00000010
00000100
00000010
00000100
00002000
00000000
00000000
00000000
00000000
00000000
00003010
00000000
00010000
00000000
,
00011000
20020000
30030000
00000000
;

//---------------dance-single - ----------------
#NOTEDATA:;
#CHARTNAME:;
#STEPSTYPE:dance-single;
#DESCRIPTION:;
#CHARTSTYLE:;
#DIFFICULTY:Beginner;
#METER:5;
#RADARVALUES:0.169088,0.283159,0.021391,0.021391,0.000000,166.000000,163.000000,3.000000,3.000000,0.000000,0.000000,0.000000,0.000000,0.000000,0.169088,0.283159,0.021391,0.021391,0.000000,166.000000,163.000000,3.000000,3.000000,0.000000,0.000000,0.000000,0.000000,0.000000;
#CREDIT:MILEN;
#NOTES:
// measure 0
0000
0000
0000
0000
,  // measure 1
0000
0000
0000
0000
,  // measure 2
0000
0000
0000
0000
,  // measure 3
0000
0000
0000
0000
,  // measure 4
0100
0000
0100
0000
,  // measure 5
0100
0000
0100
0000
,  // measure 6
0010
0000
0010
0000
,  // measure 7
0010
0010
0010
0000
,  // measure 8
1000
0000
0000
0000
,  // measure 9
0001
0000
0000
0000
,  // measure 10
1000
0000
0000
0000
,  // measure 11
0001
0000
0000
0000
,  // measure 12
1000
0000
1000
0000
,  // measure 13
0001
0000
0001
0000
,  // measure 14
1000
0000
1000
0000
,  // measure 15
0001
0000
0000
0100
,  // measure 16
0100
0000
0010
0000
,  // measure 17
0100
0000
0010
0000
,  // measure 18
0100
0000
0010
0000
,  // measure 19
0000
0000
0000
1000
,  // measure 20
1000
0000
0001
0000
,  // measure 21
1000
0000
0001
0000
,  // measure 22
1000
0000
0001
0000
,  // measure 23
0000
0000
0000
0100
,  // measure 24
0100
0000
0010
0000
,  // measure 25
1000
0000
0001
0000
,  // measure 26
0100
0000
0100
0000
,  // measure 27
0100
0000
0100
0000
,  // measure 28
0010
0000
1000
0000
,  // measure 29
0001
0000
0010
0000
,  // measure 30
0100
0000
1000
0000
,  // measure 31
0010
0000
0100
0100
,  // measure 32
0100
0000
0001
0000
,  // measure 33
0001
0000
0001
0000
,  // measure 34
0001
0000
0000
0000
,  // measure 35
0100
0000
0000
0000
,  // measure 36
0010
0000
1000
0000
,  // measure 37
1000
0000
1000
0000
,  // measure 38
1000
0000
0000
0000
,  // measure 39
0010
0000
0000
0000
,  // measure 40
0100
0000
0001
0000
,  // measure 41
1000
0000
0001
0000
,  // measure 42
1000
0000
0000
0000
,  // measure 43
0010
0000
0100
0000
,  // measure 44
0010
0000
0010
0000
,  // measure 45
1000
0000
1000
0000
,  // measure 46
0001
0000
0001
0000
,  // measure 47
0100
0100
0000
0000
,  // measure 48
0010
0000
1000
0000
,  // measure 49
0001
0000
0000
0000
0100
0100
0000
0100
,  // measure 50
0000
0010
0000
1000
0000
0001
0000
0100
,  // measure 51
0200
0000
0300
0000
,  // measure 52
0020
0000
0030
0000
,  // measure 53
0010
0000
1000
0000
,  // measure 54
0100
0000
0010
0000
,  // measure 55
0001
0000
1000
0000
,  // measure 56
0100
0000
0010
0000
,  // measure 57
0001
0000
1000
0000
,  // measure 58
0100
0000
0010
0000
,  // measure 59
0001
0000
1000
0000
,  // measure 60
0100
0000
0010
0000
,  // measure 61
0001
0000
0100
0000
,  // measure 62
1000
0000
0010
0010
,  // measure 63
0020
0000
0030
0000
,  // measure 64
0001
0000
0000
0000
,  // measure 65
1000
0000
0000
0000
,  // measure 66
0001
0000
1000
0000
,  // measure 67
0001
0000
1000
0000
,  // measure 68
0010
0000
0100
0000
,  // measure 69
0001
0000
1000
0000
,  // measure 70
0010
0000
0100
0000
,  // measure 71
0010
0010
0010
0010
,  // measure 72
0010
0000
1000
0000
,  // measure 73
0100
0000
0010
0000
,  // measure 74
0001
0000
1000
0000
,  // measure 75
0010
0000
0100
0000
,  // measure 76
0001
0000
0010
0000
,  // measure 77
0100
0000
1000
0000
,  // measure 78
0001
0000
0100
0000
,  // measure 79
0010
0010
0000
0000
,  // measure 80
1001
0000
1000
0000
,  // measure 81
1001
0000
0001
0000
,  // measure 82
1001
0000
1000
0000
,  // measure 83
0001
0000
1000
0000
,  // measure 84
0001
0000
0100
0000
,  // measure 85
0010
0000
1000
0000
,  // measure 86
0001
0000
0010
0000
,  // measure 87
1000
1000
0000
0000
,  // measure 88
0100
0100
0000
0000
;

//---------------dance-single - ----------------
#NOTEDATA:;
#CHARTNAME:;
#STEPSTYPE:dance-single;
#DESCRIPTION:;
#CHARTSTYLE:;
#DIFFICULTY:Easy;
#METER:9;
#RADARVALUES:0.334102,0.410166,0.199646,0.106953,0.000000,328.000000,300.000000,28.000000,15.000000,0.000000,0.000000,0.000000,0.000000,0.000000,0.334102,0.410166,0.199646,0.106953,0.000000,328.000000,300.000000,28.000000,15.000000,0.000000,0.000000,0.000000,0.000000,0.000000;
#CREDIT:MILEN;
#NOTES:
0000
0000
0000
0000
,
0000
0000
0000
0000
,
0000
0000
0000
0000
,
2002
3003
0001
1000
,
0010
0010
0100
0100
,
0001
1000
1001
0010
,
0100
0100
0010
0010
,
1000
0001
1001
0110
,
1001
0000
1000
0100
,
0010
0100
1000
0100
,
0010
0000
0001
0010
,
0100
0010
0001
0010
,
0100
0000
1000
0000
,
0010
0000
0001
0000
,
0100
0000
1000
0001
,
0100
0100
0100
0000
0110
0000
0010
0000
,
1000
0100
0010
0000
,
0100
0010
0001
0000
,
1000
0100
0010
0001
,
0010
0100
1100
0000
,
0001
0010
0100
0000
,
0010
0100
1000
0000
,
0001
0010
0100
1000
,
0100
0010
0011
0000
,
0001
0100
0010
0000
,
1000
0010
0100
0000
,
0001
0000
0000
1000
0000
0000
0001
0000
,
1001
0010
0100
0010
,
1000
0100
0010
0000
,
0001
0100
0010
0000
,
1000
0100
0010
0001
,
0100
0000
0010
0000
0100
0000
0010
0010
,
0010
0000
1000
0001
,
1000
0001
1000
0001
,
0110
0000
1000
0001
,
0100
1000
0010
0001
,
1001
0000
0001
1000
,
0001
1000
0001
1000
,
0110
0000
0001
0010
,
1000
0100
0001
1000
,
1001
0000
0001
0010
,
0100
1000
0001
0010
,
0110
0000
1000
0010
,
0001
0100
1000
0001
,
1001
1000
0100
0010
,
0001
1000
0100
0110
,
0002
0000
2003
0000
,
3020
0000
0000
0000
,
0130
0001
1000
0010
,
0100
0000
0001
0000
1001
0010
0000
0010
,
0000
1000
0000
0001
0000
0100
0000
0010
,
2000
0000
0000
0000
,
0002
0000
3003
0000
0001
1000
0001
0001
,
0001
0000
0100
0000
1000
0010
1000
0000
,
0100
0000
0001
0000
0010
0100
0010
0000
,
1000
0000
0010
0000
0001
0100
0001
0000
,
0010
0000
1000
0000
0100
0010
0100
0000
,
0001
0000
1000
0000
0010
0001
0010
0000
,
1000
0000
0001
0000
0100
1000
0100
0000
,
0001
0000
1000
0000
0010
0100
0001
0000
,
0100
0010
1000
0000
0010
0010
0010
0100
,
0010
1000
0001
0100
,
0020
0000
2030
3002
,
0203
0000
0000
0310
,
0110
0000
0000
0100
,
0110
0000
0000
0000
,
1001
0000
0110
0010
,
1000
0100
0010
0001
,
1000
0010
0100
0001
,
0010
0100
1000
0010
,
0100
0001
1000
0001
,
1000
0001
0100
1000
,
0110
0000
0001
1000
,
0100
0010
0001
1000
,
0110
0000
1000
0001
,
0010
0100
1000
0001
,
0110
0000
1000
0010
,
0001
0100
1000
0010
,
0101
0000
1000
0100
,
0001
0001
0001
0000
0010
0000
0100
0000
,
1000
0000
0000
0001
0000
0000
0100
0000
,
0000
0010
0000
0000
0100
0000
0100
0000
,
0220
0000
0000
0000
,
0000
0000
0000
0330
,
0010
1000
0100
0001
,
0100
1000
0010
0001
,
0110
0000
1001
0000
,
0010
0100
0010
0100
0000
0000
0000
0000
,
0002
2000
3003
0000
;

//---------------dance-single - ----------------
#NOTEDATA:;
#CHARTNAME:;
#STEPSTYPE:dance-single;
#DESCRIPTION:;
#CHARTSTYLE:;
#DIFFICULTY:Medium;
#METER:13;
#RADARVALUES:0.575511,0.757230,0.349381,0.313730,0.049912,565.000000,516.000000,49.000000,44.000000,0.000000,0.000000,0.000000,0.000000,0.000000,0.575511,0.757230,0.349381,0.313730,0.049912,565.000000,516.000000,49.000000,44.000000,0.000000,0.000000,0.000000,0.000000,0.000000;
#CREDIT:MILEN;
#NOTES:
0000
0000
0000
0000
,
0000
0000
0000
0000
,
2000
3010
0002
0013
,
2002
0000
3003
0000
1000
0010
0100
0001
,
1000
0100
0000
0100
0001
0100
0000
0100
,
1000
0010
0001
0010
1000
0100
0010
0001
,
0100
0100
0000
0100
1000
0100
0000
0100
,
0001
0000
0010
0000
0100
0000
1000
0000
0010
0000
0100
0000
0010
0100
0010
0000
,
0210
0000
0301
0001
,
0010
0010
1000
1000
,
0200
0000
1300
1000
,
0010
0010
0001
0001
,
0100
1000
0100
0000
0001
0000
1000
0000
,
0010
0001
0010
0000
1000
0000
0001
0000
,
0100
0001
0100
0000
0010
1000
0010
0000
,
0100
0001
0100
0010
1000
0010
0100
0001
,
1000
0000
0100
0000
1100
0000
0100
1000
,
0001
0000
0100
0000
0101
0000
0100
0001
,
1000
0000
0100
1000
0001
0000
0100
0001
,
0010
0200
0000
1300
0010
0100
0010
1000
,
0100
0000
0010
0000
0011
0000
0010
0001
,
0100
0000
0010
0000
1010
0000
1000
0100
,
0002
0000
0103
1000
0010
0100
0001
0010
,
0100
1000
0010
0100
0001
1000
0100
0010
,
0001
0000
0100
0000
0110
0000
0010
1000
,
0100
0000
0010
0000
0110
0000
0100
0010
,
0002
0000
0000
0203
0000
0000
2300
0000
,
3020
0000
0031
1000
0001
1000
0100
0010
,
0100
0000
1000
0000
0010
0000
0001
1000
,
0001
0000
0100
0000
1000
0000
0010
0100
,
0010
0010
0000
1000
0100
0010
0001
1000
,
0100
0101
0000
0011
0000
1010
0000
1100
,
0200
0000
0000
0310
0001
0010
0100
1000
,
0010
0100
0001
1000
0100
0010
0001
0100
,
0020
0000
0000
1030
0001
0000
1000
0010
,
1000
0000
0001
0010
0001
0000
1000
0001
,
0020
0000
0000
0130
1000
0100
0010
0001
,
0100
0010
1000
0001
0010
0100
1000
0010
,
0200
0000
0000
0301
1000
0000
0001
0100
,
0001
0000
1000
0100
1000
0000
0001
1000
,
0200
0000
0000
0310
0001
0100
0010
1000
,
0001
0010
0100
1000
0010
0100
0001
1000
,
0200
0000
0000
0310
0100
0000
1000
0010
,
0100
0000
0001
0100
0010
0000
1000
0010
,
0110
0000
1000
0010
0001
0000
0100
0000
,
0110
0000
0001
0010
1000
0000
0100
0000
,
0120
1000
0001
1000
,
0031
0200
0000
0000
0000
0000
0000
0000
,
0310
1000
0001
0100
0010
1000
0001
0100
,
0010
1000
0001
0100
0110
0010
1000
0100
,
0010
0001
0100
1000
0010
0001
0100
1000
,
0220
0000
0000
0330
,
2002
0000
3003
0000
0001
1000
0100
0010
,
0001
1000
0010
0100
0001
1000
0100
0010
,
0011
0000
0000
1100
0000
0000
0110
0000
0010
0000
0100
0010
0001
0000
0001
0000
,
0100
0000
1000
0000
0100
0000
0001
0010
0100
0000
1100
0000
1000
0000
0010
0100
,
0110
0000
0000
1010
0000
0000
0101
0000
0001
0000
1000
0010
0100
0000
0010
0000
,
1010
1000
0100
0010
0002
0000
1003
0010
,
0110
0000
0000
0101
0000
0000
1100
0000
1000
0000
0010
0100
0001
0000
1000
0000
,
0100
0000
0001
0000
0100
0000
0010
0000
0001
0000
0010
0000
1000
0000
0010
0100
,
1100
0000
0000
1010
0000
0000
0011
0000
0001
0000
1000
0001
0100
0010
1000
0001
,
0200
0000
0010
0010
0320
0000
2030
3002
,
0023
0000
0000
0100
0230
0000
2300
0000
,
3001
0000
0001
0010
0100
1000
0010
0100
,
0102
1000
0000
1000
,
0000
1000
0000
1000
,
0000
1000
0000
1000
,
0000
1000
0000
1003
,
1000
0100
0010
0000
0001
0010
0100
0000
,
1000
0010
0100
0000
0001
0100
0010
0000
,
1000
0001
0010
0100
1000
0001
0100
0010
,
1000
0100
0010
0001
1000
0010
0100
0010
,
0210
0000
0000
0301
0010
0100
1000
0100
,
0001
0100
1000
0100
0010
0001
1000
0010
,
0220
0030
0000
0301
1000
0001
0100
0001
,
1000
0001
0100
0001
0010
0100
1000
0001
,
0201
0000
0000
0310
1000
0001
0010
0100
,
1000
0001
0100
0010
1000
0100
0010
0001
,
2002
0003
0000
3010
0100
1000
0100
0001
,
0010
0010
0010
0020
0000
0130
0100
1000
,
1001
0000
0000
0011
0000
0000
1010
0000
,
0000
1100
0000
0000
0101
0000
0110
0000
,
2001
0000
0000
3100
0010
0001
1000
0100
,
0010
0010
0001
0001
0100
0100
1000
1000
,
0010
0100
1000
0100
0001
0100
1000
0100
,
0010
1000
0010
0001
0010
1000
0010
0100
,
1100
1000
0010
0100
0101
0001
0100
0010
,
1010
0100
0001
0021
0000
0000
0130
1000
,
0001
2002
3003
0000
;

//---------------dance-double - ----------------
#NOTEDATA:;
#CHARTNAME:;
#STEPSTYPE:dance-double;
#DESCRIPTION:;
#CHARTSTYLE:;
#DIFFICULTY:Easy;
#METER:9;
#RADARVALUES:0.311693,0.378615,0.213907,0.128344,0.000000,306.000000,276.000000,30.000000,18.000000,0.000000,0.000000,0.000000,0.000000,0.000000,0.311693,0.378615,0.213907,0.128344,0.000000,306.000000,276.000000,30.000000,18.000000,0.000000,0.000000,0.000000,0.000000,0.000000;
#CREDIT:MILEN;
#NOTES:
00000000
00000000
00000000
00000000
,
00000000
00000000
00000000
00000000
,
00000000
00000000
00000000
00000000
,
00022000
00033000
00001000
00010000
,
00000100
00000100
00001000
00001000
,
00000010
00010000
00011000
00100000
,
00010000
00010000
01000000
01000000
,
00001000
00010000
00011000
00101000
,
00010010
00000000
00010000
00001000
,
00000010
00001000
00000010
00001000
,
00010000
00000000
00001000
00010000
,
00100000
00010000
00100000
00010000
,
00001000
00000000
00000010
00000000
,
00000001
00000000
00000100
00000000
,
00001000
00000000
00010000
00100000
,
10000000
01000000
01100000
00100000
,
00001000
00000000
00010000
00000000
,
00100000
00000000
00001000
00000000
,
00000010
00000100
00000001
00000100
,
00000010
00001000
00000100
00000000
,
00010000
00000000
00001000
00000000
,
00000010
00000000
00010000
00000000
,
00100000
01000000
10000000
01000000
,
00100000
00010000
01000000
00000000
,
00001000
00000000
00010000
00000000
,
00100000
00000000
00001000
00000000
,
00000010
00000000
00000000
00000100
00000000
00000000
00000010
00000000
,
00001001
00000001
00000100
00001000
,
00010000
00000000
00100000
00000000
,
00001000
00000000
00000010
00000000
,
00010000
00001000
00000100
00000001
,
00000010
00001000
00010000
01000000
,
01100000
00000000
00010000
10000000
,
00010000
10000000
00010000
10000000
,
10010000
00000000
00010000
01000000
,
00001000
00010000
00000100
00001000
,
00001001
00000000
00000001
00001000
,
00000001
00001000
00000001
00001000
,
00001001
00000000
00000001
00000100
,
00001000
00010000
00100000
10000000
,
10010000
00000000
00010000
01000000
,
00001000
00010000
00000100
00000010
,
00000011
00000000
00000001
00000100
,
00000010
00010000
00001000
00100000
,
00110000
00010000
00100000
01000000
,
10000000
00100000
00010000
00011000
,
02000000
00000000
00000000
03000000
,
00200000
00000000
00000000
00300000
,
10000000
01000000
00100000
00010000
,
00001000
00000000
00000010
00000000
00000110
00000001
00000000
00000001
,
00000000
00000100
00000000
00001000
00000000
00010000
00000000
00100000
,
20000000
00000000
00000000
00000000
,
00020000
00000000
30030000
00000000
00010000
10000000
00010000
10000000
,
00010000
01000000
00001000
00010000
,
00000100
00000010
00000001
00000100
,
00001000
00010000
00100000
10000000
,
01000000
00100000
01000000
00010000
,
00001000
00010000
00000010
00000100
,
00000010
00000001
00000010
00010000
,
00001000
01000000
10000000
01000000
,
00100000
01000000
00010000
00001000
,
00000020
00000230
00000302
00002003
,
00003200
00000000
00020300
00032000
,
02003000
00000000
00000000
03100000
,
01100000
00000000
00000000
00010000
,
00011000
00000000
00000000
00000000
,
00010100
00000000
01001000
00001000
,
00010000
00000100
00000010
00000001
,
00001000
00000010
00010000
00001000
,
00100000
01000000
10000000
00010000
,
01000000
00001000
00010000
00000100
,
00000010
00000001
00001000
00000010
,
00000110
00000000
00000100
00000001
,
00000010
00001000
00010000
00100000
,
01100000
00000000
00100000
10000000
,
01000000
00010000
00001000
00000010
,
00000110
00000000
00000010
00000001
,
00000100
00001000
00010000
00100000
,
10100000
00000000
10000000
01000000
,
00010000
00011000
00001000
00000100
,
00000001
00000000
00000000
00001000
00000000
00000000
00010000
00000000
,
00000000
10000000
00000000
00000000
00010000
00000000
00001000
00000000
,
00022000
00000000
00000000
00000000
,
00000000
00000000
00000000
00033000
,
00010000
00000010
00000100
00000001
,
00000010
00000100
00001000
00000010
,
00010010
00000000
00101000
00000000
,
01100000
01100000
00000000
00000000
,
20000000
00020000
30030000
00000000
;

//---------------dance-double - ----------------
#NOTEDATA:;
#CHARTNAME:;
#STEPSTYPE:dance-double;
#DESCRIPTION:;
#CHARTSTYLE:;
#DIFFICULTY:Medium;
#METER:13;
#RADARVALUES:0.544953,0.662576,0.235297,0.327990,0.010695,535.000000,502.000000,33.000000,46.000000,0.000000,0.000000,0.000000,0.000000,0.000000,0.544953,0.662576,0.235297,0.327990,0.010695,535.000000,502.000000,33.000000,46.000000,0.000000,0.000000,0.000000,0.000000,0.000000;
#CREDIT:MILEN;
#NOTES:
00000000
00000000
00000000
00000000
,
00000000
00000000
00000000
00000000
,
00002000
00103000
00020000
00030010
,
00022000
00000000
00033000
00000000
00001000
00100000
01000000
00100000
,
00010000
01000000
00000000
00001000
00010000
00001000
00000000
01000000
,
00010000
00100000
00001000
00010000
00001000
00000010
00000100
00001000
,
00000010
00010000
00000000
00000100
00001000
00000100
00000000
00010000
,
00000010
00001000
00000100
00000010
00000001
00000100
00001000
00010000
,
00012000
00000000
00103000
00100000
,
01000000
01000000
10000000
10000000
,
00200000
00000000
00310000
00010000
,
00001000
00001000
00000010
00000010
,
00000001
00000100
00000010
00000000
00010000
00000000
00001000
00000000
,
01000000
00100000
10000000
00000000
00010000
00000000
00100000
00000000
,
01000000
00010000
00001000
00000000
00010000
00001000
00000100
00000000
,
00000001
00000010
00000100
00001000
00000100
00000010
00000001
00000100
,
00001000
00000000
00010000
00000000
00011000
00000000
00001000
00010000
,
01000000
00000000
10000000
00000000
10010000
00000000
00010000
01000000
,
00001000
00000000
00010000
00001000
01000000
00000000
00010000
01000000
,
00001000
00020000
00000000
00031000
00000100
00001000
00000100
00000001
,
00000010
00000000
00001000
00000000
00011000
00000000
00010000
00100000
,
10000000
00000000
01000000
00000000
01010000
00000000
00010000
00001000
,
00000020
00000000
00000031
00000100
00000001
00000100
00001000
00010000
,
00100000
00010000
00001000
00000010
00001000
00010000
00100000
10000000
,
01000000
00000000
00010000
00000000
00011000
00000000
00001000
00000010
,
00000001
00000000
00000100
00000000
00001100
00000000
00001000
00010000
,
00200000
00000000
00000000
00320000
00000000
00000000
00032000
00000000
,
00003020
00000000
00000031
00000100
00000001
00000100
00001000
00010000
,
00001000
00000000
00100000
00000000
01000000
00000000
10000000
00100000
,
00010000
00000000
00000100
00000000
00000010
00000000
00000001
00000100
,
00001000
00001000
00000000
00010000
00001000
00010000
00100000
10000000
,
01000000
00200000
00000000
00302000
00000000
00023000
00000000
00030100
,
00000120
00000000
00000000
00000031
00000100
00001000
00000100
00000001
,
00000100
00001000
00010000
00100000
00010000
00001000
00000010
00001000
,
00020000
00000000
00000000
00130000
00100000
00000000
10000000
00000000
,
01000000
00010000
00001000
00100000
,
02100000
00000000
00000000
13000000
00100000
00010000
00100000
10000000
,
00100000
00010000
00001000
00000100
00001000
00010000
01000000
00010000
,
00002000
00000000
00000000
00003100
00000100
00000000
00000001
00000000
,
00000010
00001000
00010000
00000100
,
00000120
00000000
00000000
00000031
00000001
00000100
00001000
00010000
,
00001000
00000100
00001000
00010000
00100000
00010000
00001000
00010000
,
02000000
00000000
00000000
13000000
10000000
00000000
00100000
00000000
,
00010000
00001000
00000100
00000001
,
00001001
00001000
00000100
00010000
,
00011000
00001000
01000000
00010000
,
20010000
32000000
03200000
00302000
,
00013000
00021000
00000000
00000000
00000000
00000000
00000000
00000000
,
00030010
00001000
00000100
00010000
00001000
00100000
00010000
01000000
,
00001000
00010000
00000100
00000010
00000011
00000001
00000010
00000100
,
00001000
00000010
00010000
00100000
00001000
00000100
00010000
01000000
,
20000000
00000000
00000000
00000000
,
00020000
00000000
30030000
00000000
00010000
10000000
01000000
00010000
,
00011000
00001000
00000010
00000100
00000010
00000001
00000100
00001000
,
00000100
00000010
00010000
00001000
00000010
00001000
00010000
00100000
,
00010000
00001000
01000000
00100000
00010000
00100000
10000000
01000000
,
00100000
00001000
00010000
00000100
00000010
00000001
00001000
00000010
,
00000100
00001000
00000100
00000001
00000010
00000100
00000001
00000100
,
00001000
00000010
00010000
00001000
00100000
00010000
01000000
10000000
,
01000000
00010000
00100000
01000000
00010000
01000000
10000000
00100000
,
00010000
00000000
00001000
00000000
00000010
00000000
00000001
00000000
00000100
00001000
00010000
00000000
00001000
00010000
01000000
10000000
,
20100000
00000000
01000000
01000000
32000000
00000000
03020000
00000000
,
00032000
00000000
00000000
00000010
00003020
00000000
00000032
00000000
,
00001003
00000000
00001000
00000100
00010000
00001000
00100000
00010000
,
02010000
00001000
00000000
00010000
,
00000000
10000000
00000000
00010000
,
00000000
00001000
00000000
00010000
,
00000000
10000000
00000000
03010000
,
00010000
00100000
01000000
00000000
00010000
00001000
00000010
00000000
,
00001000
00010000
00100000
00000000
01000000
00010000
00100000
00000000
,
01000000
10000000
00100000
00010000
00001000
00010000
00100000
00010000
,
00001000
00000100
00001000
00010000
00001000
00000100
00000001
00000010
,
00000210
00000000
00000000
00000310
00000001
00000100
00001000
00000100
,
00000001
00000010
00000100
00010000
00001000
00100000
01000000
10000000
,
20200000
30000000
00000000
01300000
00010000
00100000
10000000
00100000
,
00010000
01000000
00100000
10000000
01000000
00100000
00001000
00010000
,
00010200
00000000
00000000
00000310
00000001
00000100
00001000
01000000
,
00001000
00010000
00000100
00010000
01000000
10000000
00100000
00010000
,
00022000
00030000
00000000
00103000
01000000
10000000
01000000
00100000
,
00001000
00010000
00001000
00021000
00000000
00031000
00000010
00000001
,
00000101
00000000
00000000
00010010
00000000
00000000
00101000
00000000
,
00000000
11000000
00000000
00000000
10010000
00000000
01100000
00000000
,
10020000
00000000
00000000
01030000
00100000
00010000
00001000
00000100
,
00000010
00000001
00000010
00000100
00001000
00010000
00100000
01000000
,
10000000
01000000
00010000
00100000
01000000
00010000
00001000
00000010
,
00000100
00001000
00000010
00000001
00000010
00000100
00001000
00010000
,
00100000
10000000
00100000
10000000
01000000
00100000
00010000
00001000
,
00000100
00000010
00000001
00000201
00000000
00000000
00001300
00010000
,
00100000
20020000
30030000
00000000
;
