#TITLE:Festival of Death Moon;
#SUBTITLE:;
#ARTIST:SHK;
#TITLETRANSLIT:;
#SUBTITLETRANSLIT:;
#ARTISTTRANSLIT:;
#GENRE:VARIETY;
#CREDIT:MUINELIM;
#BANNER:Festival of Death Moon.png;
#BACKGROUND:Festival of Death Moon-bg.png;
#LYRICSPATH:;
#CDTITLE:;
#MUSIC:Festival of Death Moon.mp3;
#OFFSET:-0.097000;
#SAMPLESTART:40.096649;
#SAMPLELENGTH:12.941174;
#SELECTABLE:YES;
#BPMS:0.000000=204;
#STOPS:124.000000=0.882,285.000000=0.882
;
#BGCHANGES:;
#KEYSOUNDS:;
#ATTACKS:;

//---------------dance-single - ----------------
#NOTES:
     dance-single:
     :
     Hard:
     14:
     0.777089,0.824319,0.925705,0.599505,0.960970,617.000000,512.000000,105.000000,68.000000,0.000000,0.000000,0.777089,0.824319,0.925705,0.599505,0.960970,617.000000,512.000000,105.000000,68.000000,0.000000,0.000000:
// measure 0
0000
0000
0000
0000
,  // measure 1
0000
0000
0000
0000
,  // measure 2
0000
0000
0000
0000
,  // measure 3
0000
0000
0000
0000
,  // measure 4
0000
0000
0000
0000
,  // measure 5
0000
0000
0000
0000
,  // measure 6
1000
0000
0010
1000
0000
0020
0000
0000
0000
0130
0000
0001
,  // measure 7
0100
0000
0000
0000
0010
0000
0000
0000
0000
0110
0000
0000
0000
0000
0000
2002
0000
0000
0000
0000
0000
3003
0000
0000
,  // measure 8
0001
0000
0010
0001
0000
0020
0000
0000
0000
0130
0000
1000
,  // measure 9
0100
0000
0000
0000
1000
0000
0000
0000
0000
1001
0000
0000
0000
0000
0000
0220
0000
0000
0330
0000
0000
0000
0000
0000
,  // measure 10
1010
0000
0000
0101
0000
0000
0001
0010
0100
1000
0000
1000
,  // measure 11
0010
0000
0010
0100
0000
0101
0000
0000
0001
0010
0000
0010
,  // measure 12
0100
0000
0100
1000
0000
1010
0000
0000
0010
0100
0000
0100
,  // measure 13
0001
0000
0001
1000
0000
1100
0000
0000
0100
0010
0000
0010
,  // measure 14
0001
0000
0000
0000
0001
0000
0100
0000
0000
0000
0110
0000
0000
0000
0000
2002
0000
0000
0000
0000
0000
3003
0000
0000
,  // measure 15
0001
0000
0001
1000
0000
1100
0000
0000
0100
0010
0000
0010
,  // measure 16
0001
0000
0001
0100
0000
0110
0000
0000
0010
1000
0000
1000
,  // measure 17
0100
0000
0100
0010
0000
0011
0000
0000
0001
0100
0000
0100
,  // measure 18
0010
1010
0000
0101
0000
2002
0000
3003
,  // measure 19
1010
0000
0011
0000
0101
2000
0000
0020
,  // measure 20
3030
0011
1010
1100
,  // measure 21
0101
0011
0110
1100
,  // measure 22
0110
0010
0100
2000
0000
0002
0000
3003
,  // measure 23
0011
0000
0101
0000
1100
0002
0000
0020
,  // measure 24
0033
1010
0011
0101
,  // measure 25
1100
1010
0110
0101
,  // measure 26
0110
0010
0100
0002
0000
2000
0000
3003
,  // measure 27
1000
0000
0001
0010
0000
0001
0100
0000
0001
0010
0000
0001
,  // measure 28
0100
0000
1000
0010
0000
1000
0100
0000
1000
0010
0000
1000
,  // measure 29
0100
0000
0001
0010
0000
0010
0100
0000
0100
1000
0000
1000
,  // measure 30
0010
0000
0010
0001
0000
0001
0010
0000
0010
0100
0000
0110
,  // measure 31
0000
2002
0000
0000
,  // measure 32
0000
3003
0001
0100
0010
1000
0100
0010
,  // measure 33
0001
0000
0000
0000
0000
0000
0100
0000
0000
0010
0000
0000
0100
0000
0000
0000
0000
0000
0000
0000
0100
0000
0000
0000
0001
0000
0000
0000
0000
0000
0000
0000
0001
0000
0000
0000
1000
0000
0000
0000
0000
0000
0000
0000
1000
0000
0000
0000
,  // measure 34
0010
0000
0010
0100
0000
0100
1000
0000
0200
0000
0000
0000
,  // measure 35
0301
0000
0000
0011
0000
0010
0100
0000
2000
0000
0000
0000
,  // measure 36
3010
0000
0000
0110
0000
0100
0001
0000
0020
0000
0000
0000
,  // measure 37
1030
0000
0000
0010
0000
0010
0001
0000
0001
0100
0000
0100
,  // measure 38
0010
0000
0010
0001
0000
0001
0010
0000
2000
0000
0000
0000
,  // measure 39
3100
0000
0000
0110
0000
0010
0001
0000
0200
0000
0000
0000
,  // measure 40
0310
0000
0000
1010
0000
1000
0100
0000
0002
0000
0000
0000
,  // measure 41
0103
0000
0000
0110
0000
0010
0001
0000
0001
0100
0000
0100
,  // measure 42
1000
0000
1000
0100
0000
0100
0010
0000
2020
0000
3030
0000
,  // measure 43
0101
0000
0000
0011
0000
0010
0100
0000
2200
0000
3300
0000
,  // measure 44
0011
0000
0000
1001
0000
0100
0010
0000
0100
0001
0000
1000
,  // measure 45
0010
0000
0100
0010
0000
1000
0100
0000
0100
0001
0000
0001
,  // measure 46
0100
0000
0100
0010
0000
0010
0001
0000
0202
0000
0303
0000
,  // measure 47
1010
0000
0000
1100
0000
0100
0010
0000
0022
0000
0033
0000
,  // measure 48
1001
0000
0000
0110
0000
0010
1000
0000
0001
1000
0000
0001
,  // measure 49
0100
0000
0010
0100
0000
0100
0001
0000
0001
0010
0000
0010
,  // measure 50
1000
0000
1000
0000
0000
0000
2002
0000
0000
0000
0000
0000
,  // measure 51
3003
0000
0000
0101
0000
0100
1000
0000
0020
0000
0030
0000
,  // measure 52
0110
0000
0100
0001
0000
0011
0000
0000
1100
0000
0000
2002
,  // measure 53
0000
3003
0000
1010
0000
0010
0001
0000
0200
0000
0300
0000
,  // measure 54
0110
0000
0010
1000
0000
1100
0000
0000
0011
0000
0000
1001
,  // measure 55
0000
0000
0010
0100
0000
0100
0001
0000
0020
0000
0030
0000
,  // measure 56
0110
0000
0100
1000
0000
1010
0000
0000
0110
0000
0000
0202
,  // measure 57
0000
0303
0000
0011
0000
0010
1000
0000
0200
0000
0300
0000
,  // measure 58
0110
0000
0010
0001
0000
0101
0000
0000
1010
0000
0000
1001
,  // measure 59
0000
0000
0000
0110
0000
0000
0010
0000
0000
0000
1000
0000
0100
0000
0000
0000
0100
0000
0001
0000
0000
0000
0001
0000
,  // measure 60
0100
0000
0100
1000
0000
1000
0010
0000
0010
0001
0000
0001
,  // measure 61
0010
0000
0010
1000
0000
1000
0100
0000
0100
0010
0000
0010
,  // measure 62
0001
0000
0000
0000
0001
0000
0100
0000
0000
0010
0000
0000
1000
0000
0000
1100
0000
0000
0000
0000
0000
0202
0000
0000
,  // measure 63
0000
0000
0000
0303
0000
0000
0001
0000
0000
0000
0001
0000
0010
0000
0000
0000
0010
0000
1000
0000
0000
0000
1000
0000
,  // measure 64
0010
0000
0010
0001
0000
0001
0100
0000
0100
1000
0000
1000
,  // measure 65
0100
0000
0100
0001
0000
0001
0010
0000
0010
0100
0000
0100
,  // measure 66
1000
0000
0000
0000
1000
0000
0010
0000
0000
0110
0000
0000
0000
0000
0000
0011
0000
0000
0000
0000
0000
2020
0000
0000
,  // measure 67
0000
0000
0000
3030
0000
0000
0010
0000
0000
0000
0100
0000
0001
0000
0000
0000
0100
0000
1000
0000
0000
0000
0100
0000
,  // measure 68
0010
0000
0100
0001
0000
0010
1000
0000
0010
0100
0000
0010
,  // measure 69
0001
0000
0100
1000
0000
0100
0001
0000
0010
1000
0000
0010
,  // measure 70
0001
0000
0100
0010
0000
1000
0100
0000
0001
0010
0000
1000
,  // measure 71
0001
0000
1001
0000
0000
0000
0220
0000
0000
0000
0000
0000
,  // measure 72
0000
0000
0000
0330
0010
1000
0100
0010
,  // measure 73
0001
0000
0000
0000
0000
0000
0100
0000
0000
0000
0000
0000
0010
0000
0000
0000
0000
0000
1000
0000
0000
0001
0000
0000
1000
0000
0000
0000
0000
0000
0000
0000
1000
0000
0000
0000
0010
0000
0000
0000
0000
0000
0000
0000
0010
0000
0000
0000
,  // measure 74
0100
0000
0100
1000
0000
1000
0100
0000
0100
0001
0000
0020
,  // measure 75
0000
0000
0000
0130
0000
0000
1100
0000
1000
0010
0000
0200
,  // measure 76
0000
0000
0000
0301
0000
0000
0011
0000
0010
0100
0000
2000
,  // measure 77
0000
0000
0000
3001
0000
0000
0010
0000
0010
0100
0000
0100
,  // measure 78
0001
0000
0001
0100
0000
0100
1000
0000
1000
0001
0000
0200
,  // measure 79
0000
0000
0000
0310
0000
0000
1010
0000
1000
0100
0000
0002
,  // measure 80
0000
0000
0000
0103
0000
0000
0110
0000
0010
0001
0000
0200
,  // measure 81
0000
0000
0000
1300
0000
0000
0101
0000
0001
0010
0000
0010
,  // measure 82
1000
0000
1000
0010
0000
0010
0100
0000
0100
1000
0000
2020
,  // measure 83
0000
3030
0000
0101
0000
0000
0011
0000
0001
1000
0000
2200
,  // measure 84
0000
3300
0000
0110
0000
0000
1001
0000
0001
0100
0000
1000
,  // measure 85
0100
0000
0001
0010
0000
1000
0010
0000
0001
0100
0000
0010
,  // measure 86
1000
0000
0100
0010
0000
0001
0100
0000
0010
1000
0000
2200
,  // measure 87
0000
3300
0000
0101
0000
0000
0011
0000
0010
1000
0000
2200
,  // measure 88
0000
3300
0000
0110
0000
0000
1001
0000
0001
0100
0000
0100
,  // measure 89
0010
1000
0100
0010
0001
0100
0010
0000
0010
1000
0000
1000
,  // measure 90
0100
0000
0100
0001
0000
0021
0000
0000
0000
0200
0000
0000
,  // measure 91
0000
0330
2002
0000
,  // measure 92
0000
0000
0000
0000
,  // measure 93
0000
0000
3003
0000
;

//---------------dance-double - ----------------
#NOTES:
     dance-double:
     :
     Hard:
     14:
     0.759456,0.741887,0.837543,0.687667,0.943338,603.000000,508.000000,95.000000,78.000000,0.000000,0.000000,0.759456,0.741887,0.837543,0.687667,0.943338,603.000000,508.000000,95.000000,78.000000,0.000000,0.000000:
00000000
00000000
00000000
00000000
,
00000000
00000000
00000000
00000000
,
00000000
00000000
00000000
00000000
,
00000000
00000000
00000000
00000000
,
00000000
00000000
00000000
00000000
,
00000000
00000000
00000000
00000000
,
01000000
00000000
00001000
01000000
00000000
00002000
00000000
00000000
00000000
00013000
00000000
00000100
,
00010000
00000000
00000000
00000000
00000100
00000000
00000000
00000000
00000000
00001100
00000000
00000000
00000000
00000000
00000000
00002020
00000000
00000000
00000000
00000000
00000000
00003030
00000000
00000000
,
00000010
00000000
00010000
00000010
00000000
00020000
00000000
00000000
00000000
00031000
00000000
00100000
,
00001000
00000000
00000000
00000000
00100000
00000000
00000000
00000000
00000000
00110000
00000000
00000000
00000000
00000000
00000000
22000000
00000000
00000000
33000000
00000000
00000000
00000000
00000000
00000000
,
10100000
00000000
00000000
01010000
00000000
00000000
00010000
00100000
00001000
00010000
00000000
00010000
,
00000100
00000000
00000100
00000010
00000000
00000011
00000000
00000000
00000001
00000100
00000000
00000100
,
00000010
00000000
00000010
00010000
00000000
00011000
00000000
00000000
00001000
00100000
00000000
00100000
,
00010000
00000000
00010000
01000000
00000000
01100000
00000000
00000000
00100000
10000000
00000000
10000000
,
00010000
00000000
00000000
00000000
00010000
00000000
01000000
00000000
00000000
00000000
01001000
00000000
00000000
00000000
00000000
00022000
00000000
00000000
00000000
00000000
00000000
00033000
00000000
00000000
,
00010000
00000000
00010000
00000100
00000000
00001100
00000000
00000000
00001000
00000010
00000000
00000010
,
00000100
00000000
00000100
00000001
00000000
00000011
00000000
00000000
00000010
00000100
00000000
00000100
,
00010000
00000000
00010000
00001000
00000000
00101000
00000000
00000000
00100000
01000000
00000000
01000000
,
10000000
10100000
00000000
01010000
00000000
02200000
00000000
03300000
,
01100000
00000000
11000000
00000000
00110000
00100000
00000000
00202000
,
00303000
00011000
00010100
00000110
,
00000011
00000101
00001100
00011000
,
00101000
00100000
01000000
10000000
00000000
20020000
30030000
00000000
,
01100000
00000000
10100000
00000000
01010000
01000000
00000000
02002000
,
03003000
00011000
00010010
00000110
,
00000101
00000011
00001010
00011000
,
01001000
01000000
00100000
10000000
00000000
22000000
33000000
00000000
,
01000000
00000000
01000000
00010000
00000000
00010000
00001000
00000000
00001000
00010000
00000000
00010000
,
01000000
00000000
01000000
10000000
00000000
10000000
00100000
00000000
00100000
00010000
00000000
00010000
,
00001000
00000000
00001000
00000100
00000000
00000100
00000010
00000000
00000010
00001000
00000000
00001000
,
00000001
00000000
00000001
00000100
00000000
00000100
00000010
00000000
00000010
00010000
00000000
00011000
,
00000000
00022000
00000000
00000000
,
00000000
00033000
00010000
00001000
00100000
01000000
00010000
00001000
,
00000010
00000000
00000000
00000001
00000000
00000000
00001001
00000000
00000000
00000000
00001000
00000000
00000100
00000000
00000000
00000000
00010000
00000000
00001000
00000000
00000000
00000000
00100000
00000000
,
00010000
00000000
01000000
00100000
00000000
10000000
01000000
00000000
00020000
00000000
00000000
00000000
,
00031000
00000000
00000000
00011000
00000000
00010000
00000100
00000000
00000020
00000000
00000000
00000000
,
00000031
00000000
00000000
00000101
00000000
00000100
00001000
00000000
00020000
00000000
00000000
00000000
,
00130000
00000000
00000000
00100000
00000000
10000000
01000000
00000000
00100000
00001000
00000000
00010000
,
00000100
00000000
00000010
00000001
00000000
00000100
00001000
00000000
00020000
00000000
00000000
00000000
,
00130000
00000000
00000000
10100000
00000000
10000000
01000000
00000000
00200000
00000000
00000000
00000000
,
00301000
00000000
00000000
00011000
00000000
00010000
00000100
00000000
00002000
00000000
00000000
00000000
,
00003010
00000000
00000000
00000110
00000000
00000100
00000001
00000000
00001000
00000010
00000000
00010000
,
00001000
00000000
00100000
01000000
00000000
10000000
00100000
00000000
02200000
00000000
03300000
00000000
,
01100000
00000000
00000000
01010000
00000000
00010000
00100000
00000000
00202000
00000000
00303000
00000000
,
00101000
00000000
00000000
00011000
00000000
00010000
00000100
00000000
00000100
00001000
00000000
00001000
,
00000001
00000000
00000001
00000100
00000000
00000010
00001000
00000000
00000100
00010000
00000000
00001000
,
00100000
00000000
01000000
10000000
00000000
00100000
01000000
00000000
02020000
00000000
03030000
00000000
,
01010000
00000000
00000000
00110000
00000000
00100000
00001000
00000000
00022000
00000000
00033000
00000000
,
00011000
00000000
00000000
00010100
00000000
00000100
00001000
00000000
00000100
00000010
00000000
00000001
,
00000100
00000000
00001000
00010000
00000000
00010000
00100000
00000000
00100000
10000000
00000000
10000000
,
01000000
00000000
00010000
00000000
00000000
00000000
00022000
00000000
00000000
00000000
00000000
00000000
,
00033000
00000000
00000000
00011000
00000000
00010000
01000000
00000000
20000000
00000000
00000000
00000000
,
30100000
00000000
00100000
00020000
00000000
00032000
00000000
00000000
00003200
00000000
00000000
00000002
,
00000000
00000303
00000000
00001001
00000000
00001000
00000100
00000000
00000020
00000000
00000000
00000000
,
00000031
00000000
00000001
00000200
00000000
00002300
00000000
00000000
00023000
00000000
00000000
00130000
,
00000000
00000000
00100000
10000000
00000000
01000000
00100000
00000000
02000000
00000000
00000000
00000000
,
03010000
00000000
00010000
00002000
00000000
00003020
00000000
00000000
00000032
00000000
00000000
00000200
,
00000000
00000303
00000000
00000110
00000000
00000010
00010000
00000000
00002000
00000000
00000000
00000000
,
00103000
00000000
00100000
02000000
00000000
23000000
00000000
00000000
30200000
00000000
00000000
00310000
,
00000000
00000000
00000000
00011000
00000000
00000000
00001000
00000000
00000000
00000000
00100000
00000000
00010000
00000000
00000000
00000000
00010000
00000000
01000000
00000000
00000000
00000000
01000000
00000000
,
10000000
00000000
10000000
01000000
00000000
01000000
00100000
00000000
00100000
00010000
00000000
00010000
,
00001000
00000000
00001000
00000100
00000000
00000100
00000010
00000000
00000010
00001000
00000000
00001000
,
00000001
00000000
00000000
00000000
00000001
00000000
00000100
00000000
00000000
00001000
00000000
00000000
00010000
00000000
00000000
00100000
00000000
00000000
00000000
00000000
00000000
20200000
00000000
00000000
,
00000000
00000000
00000000
30300000
00000000
00000000
10000000
00000000
00000000
00000000
01000000
00000000
00100000
00000000
00000000
00000000
00100000
00000000
00001000
00000000
00000000
00000000
00001000
00000000
,
00010000
00000000
00010000
00000100
00000000
00000100
00000010
00000000
00000010
00000001
00000000
00000001
,
00000100
00000000
00000100
00001000
00000000
00001000
00010000
00000000
00010000
00100000
00000000
00100000
,
10000000
00000000
00000000
00000000
10000000
00000000
01000000
00000000
00000000
01100000
00000000
00000000
00000000
00000000
00000000
00110000
00000000
00000000
00000000
00000000
00000000
00022000
00000000
00000000
,
00000000
00000000
00000000
00033000
00000000
00000000
00001000
00000000
00000000
00000000
00001000
00000000
00010000
00000000
00000000
00000000
00010000
00000000
01000000
00000000
00000000
00000000
01000000
00000000
,
10000000
00000000
10000000
00100000
00000000
00100000
01000000
00000000
01000000
00010000
00000000
00010000
,
00100000
00000000
00100000
01000000
00000000
01000000
00010000
00000000
00010000
00001000
00000000
00001000
,
00000010
00000000
00000010
00000001
00000000
00000001
00000100
00000000
00000100
00000010
00000000
00000010
,
00010000
00000000
00011000
00000000
00000000
00000000
00022000
00000000
00000000
00000000
00000000
00000000
,
00000000
00000000
00000000
00033000
00010000
00000100
00000010
00001000
,
00010000
00000000
00000000
01000000
00000000
00000000
10000000
00000000
00000000
00100000
00000000
00000000
01100000
00000000
00000000
00000000
01000000
00000000
00010000
00000000
00000000
00000000
00100000
00000000
,
00001000
00000000
00010000
00000100
00000000
00000010
00000001
00000000
00000100
00001000
00000000
00020000
,
00000000
00000000
00000000
00130000
00000000
00000000
10100000
00000000
10000000
01000000
00000000
00200000
,
00000000
00000000
00000000
00301000
00000000
00000000
00011000
00000000
00010000
00000100
00000000
00000020
,
00000000
00000000
00000000
00000031
00000000
00000000
00000101
00000000
00000100
00000010
00000000
00010000
,
00001000
00000000
00100000
01000000
00000000
10000000
00100000
00000000
00010000
00001000
00000000
00200000
,
00000000
00000000
00000000
01300000
00000000
00000000
11000000
00000000
10000000
00100000
00000000
00020000
,
00000000
00000000
00000000
00031000
00000000
00000000
00001100
00000000
00000100
00000001
00000000
00000020
,
00000000
00000000
00000000
00000130
00000000
00000000
00010100
00000000
00010000
00001000
00000000
00001000
,
00000010
00000000
00000010
00000001
00000000
00000001
00000100
00000000
00000100
00001000
00000000
00022000
,
00000000
00033000
00000000
00011000
00000000
00000000
00110000
00000000
00100000
10000000
00000000
22000000
,
00000000
33000000
00000000
11000000
00000000
00000000
01100000
00000000
00100000
00001000
00000000
00010000
,
00000100
00000000
00001000
00000100
00000000
00000010
00000001
00000000
00000100
00001000
00000000
00010000
,
01000000
00000000
10000000
00100000
00000000
01000000
00010000
00000000
00100000
01000000
00000000
22000000
,
00000000
33000000
00000000
11000000
00000000
00000000
00110000
00000000
00010000
00001000
00000000
00002200
,
00000000
00003300
00000000
00001100
00000000
00000000
00000011
00000000
00000001
00000100
00000000
00001000
,
00010000
00000000
00100000
10000000
00000000
01000000
00100000
00000000
00010000
00001000
00000000
00000100
,
00000010
00000000
00000001
00001000
00000000
00001200
00000000
00000000
00000000
00020000
00000000
00000000
,
00000000
00030300
02002000
00000000
,
00000000
00000000
00000000
00000000
,
00000000
00000000
03003000
00000000
;

//---------------dance-single - ----------------
#NOTES:
     dance-single:
     :
     Beginner:
     5:
     0.182622,0.288512,0.044081,0.052897,0.000000,145.000000,140.000000,5.000000,6.000000,0.000000,0.000000,0.182622,0.288512,0.044081,0.052897,0.000000,145.000000,140.000000,5.000000,6.000000,0.000000,0.000000:
0000
0000
0000
0000
,
0000
0000
0000
0000
,
0000
0000
0000
0000
,
0000
0000
0000
0000
,
0000
0000
0000
0000
,
0000
0000
0000
0000
,
1000
0000
0001
0000
,
1000
0000
0000
0000
,
0001
0000
1000
0000
,
0001
0000
0000
0000
,
1001
0000
0000
0000
,
1000
0000
0000
0000
,
0100
0000
0000
0000
,
0010
0000
0000
0000
,
0001
0000
0000
0000
,
0001
0000
0000
0000
,
0010
0000
0000
0000
,
0100
0000
0000
0000
,
1000
0000
0000
0000
,
0010
0000
0010
0000
,
0010
0000
0010
0000
,
0100
0000
0100
0000
,
0100
0000
0100
0000
,
0001
0000
0001
0000
,
0001
0000
0001
0000
,
1000
0000
1000
0000
,
1000
0000
1000
0000
,
0100
0000
0010
0000
,
0100
0000
0010
0000
,
0001
0000
1000
0000
,
0001
0000
1000
0000
,
0000
2002
0000
0000
,
0000
0000
0000
3003
,
0000
0001
0000
0001
,
0000
0100
0000
0000
,
0000
1000
0000
1000
,
0000
0010
0000
0000
,
0000
0001
0000
0001
,
0000
0100
0000
0000
,
0000
1000
0000
1000
,
0000
0010
0000
0000
,
0000
0001
0000
0001
,
0000
1000
0000
1000
,
0000
0010
0000
0010
,
0000
0100
0000
0100
,
0000
0001
0000
1000
,
0000
0010
0000
0100
,
0000
0001
0000
1000
,
0000
0010
0000
0100
,
0000
0010
0010
0010
,
0010
0000
1001
0000
,
0000
1000
0000
0000
,
0000
0010
0000
0000
,
0000
0100
0000
0000
,
0000
0001
0000
0000
,
0000
0001
0000
0000
,
0000
0100
0000
0000
,
0000
0010
0000
0000
,
0000
1000
0000
0000
,
0000
0001
0000
0001
,
0000
0001
0000
0001
,
0000
0100
0000
0100
,
0000
0100
0000
0100
,
0000
0010
0000
0010
,
0000
0010
0000
0010
,
0000
1000
0000
1000
,
0000
1000
0000
1000
,
0000
0001
0000
0100
,
0000
0001
0000
0100
,
0000
0010
0000
1000
,
0000
0010
0000
1000
,
0000
0000
2002
0000
,
0000
0000
0000
0000
,
3003
0000
1000
0000
,
1000
0000
0010
0000
,
0000
0000
0001
0000
,
0001
0000
0010
0000
,
0000
0000
1000
0000
,
1000
0000
0100
0000
,
0000
0000
0001
0000
,
0001
0000
0100
0000
,
0000
0000
1000
0000
,
0010
0000
0100
0000
,
0001
0000
1000
0000
,
0010
0000
0100
0000
,
0001
0000
1000
0000
,
0010
0000
0001
0000
,
0100
0000
1000
0000
,
0010
0000
0001
0000
,
0100
0000
1000
1000
,
1000
1000
0000
0001
,
0000
0000
2002
0000
,
0000
0000
0000
0000
,
0000
0000
3003
0000
;

//---------------dance-single - ----------------
#NOTES:
     dance-single:
     :
     Easy:
     8:
     0.260709,0.412159,0.123427,0.088162,0.000000,207.000000,193.000000,14.000000,10.000000,0.000000,0.000000,0.260709,0.412159,0.123427,0.088162,0.000000,207.000000,193.000000,14.000000,10.000000,0.000000,0.000000:
0000
0000
0000
0000
,
0000
0000
0000
0000
,
0000
0000
0000
0000
,
0000
0000
0000
0000
,
0000
0000
0000
0000
,
0000
0000
0000
0000
,
1000
0100
1000
0000
,
0001
0100
0001
0000
,
1000
0010
1000
0000
,
0001
0010
0001
0000
,
2002
0000
3003
0000
,
1000
0000
0100
0000
,
0010
0000
0001
0000
,
0001
0000
0010
0000
,
0100
0000
1000
0000
,
0001
0000
0010
0000
,
0100
0000
1000
0000
,
1000
0000
0100
0000
,
0010
0000
0001
0000
,
1000
0010
0100
0100
,
0100
0000
0001
0000
,
0010
0000
1000
0000
,
0100
0010
0100
0110
,
0001
0100
0010
0010
,
0010
0000
1000
0000
,
0100
0000
0001
0000
,
0010
0100
0010
0110
,
1000
0000
1000
0000
,
0010
0000
0010
0000
,
0001
0000
0001
0000
,
0100
0000
0100
0000
,
1000
2002
0000
0000
,
0000
0000
0000
0000
,
3003
0001
0000
0100
,
0000
0001
0000
0100
,
0000
1000
0000
0010
,
0000
1000
0000
0010
,
0000
0001
0000
0100
,
0000
0001
0000
0100
,
0000
1000
0000
0010
,
0000
1000
0000
0010
,
0000
0001
0000
1000
,
0000
0010
0100
0110
,
0000
1000
0000
0001
,
0000
0100
0010
0100
,
0010
1000
0000
0001
,
0000
0100
0010
0110
,
0000
0001
0000
1000
,
0000
0010
0100
0010
,
0100
0001
1000
0100
,
0010
0000
2002
0000
,
3003
1000
0000
0000
,
0000
0010
0000
0000
,
0000
0100
0000
0000
,
0000
0001
0000
0000
,
0000
0001
0000
0000
,
0000
0100
0000
0000
,
0000
0010
0000
0000
,
0000
1000
0000
0000
,
0000
0001
0010
0100
,
0100
0100
0000
1000
,
0000
0010
0000
0001
,
0000
0100
0010
0100
,
0110
1000
0100
0010
,
0010
0010
0000
0001
,
0000
0100
0000
1000
,
0000
0010
0100
0010
,
0110
0001
0000
0001
,
0000
0010
0000
0010
,
0000
1000
0000
1000
,
0000
0100
0000
0100
,
0000
0001
2002
0000
,
0000
0000
0000
0000
,
0000
3003
1000
0000
,
0100
0000
1000
0000
,
0100
0000
0001
0000
,
0010
0000
0001
0000
,
0010
0000
1000
0000
,
0100
0000
1000
0000
,
0100
0000
0001
0000
,
0010
0000
0001
0000
,
0010
0000
1000
0000
,
0001
0000
0100
0010
,
1010
0000
0001
0000
,
1000
0000
0010
0100
,
0010
0100
0001
0000
,
1000
0000
0010
0100
,
0101
0000
1000
0000
,
0001
0000
0100
0010
,
0100
0010
1000
0001
,
0010
0100
1000
1001
,
0000
0000
0220
0000
,
0000
0000
0000
0000
,
0000
0000
0330
0000
;

//---------------dance-double - ----------------
#NOTES:
     dance-double:
     :
     Easy:
     8:
     0.254412,0.412159,0.149876,0.088162,0.000000,202.000000,185.000000,17.000000,10.000000,0.000000,0.000000,0.254412,0.412159,0.149876,0.088162,0.000000,202.000000,185.000000,17.000000,10.000000,0.000000,0.000000:
00000000
00000000
00000000
00000000
,
00000000
00000000
00000000
00000000
,
00000000
00000000
00000000
00000000
,
00000000
00000000
00000000
00000000
,
00000000
00000000
00000000
00000000
,
00000000
00000000
00000000
00000000
,
00001000
01000000
00001000
00000000
,
00010000
00000100
00010000
00000000
,
00001000
00100000
00001000
00000000
,
00010000
00000010
00010000
00000000
,
00022000
00000000
00033000
00000000
,
00001000
00000000
00010000
00000000
,
01000000
00000000
00100000
00000000
,
00001000
00000000
00010000
00000000
,
01000000
00000000
00100000
00000000
,
00001000
00000000
00010000
00000000
,
00000100
00000000
00000010
00000000
,
00001000
00000000
00010000
00000000
,
00000100
00000000
00000010
00000000
,
00000001
00000100
00001000
00010000
,
00011000
00000000
00001000
00000000
,
00100000
00000000
01000000
00000000
,
00010000
00001000
00100000
01000000
,
10000000
00100000
00010000
00001000
,
00011000
00000000
00010000
00000000
,
00000100
00000000
00000010
00000000
,
00001000
00010000
00000100
00000010
,
00000001
00000000
00000000
00000000
,
00001000
00000000
00000000
00000000
,
00010000
00000000
00000000
00000000
,
10000000
00000000
00000000
00000000
,
00010000
20020000
00000000
00000000
,
00000000
00000000
00000000
00000000
,
30030000
10000000
00000000
01000000
,
00000000
00010000
00000000
00001000
,
00000000
00000010
00000000
00000001
,
00000000
00000100
00000000
00001000
,
00000000
00010000
00000000
00001000
,
00000000
00000100
00000000
00000001
,
00000000
00000010
00000000
00001000
,
00000000
00010000
00000000
00100000
,
00000000
10000000
00000000
01000000
,
00000000
00010000
00010000
00011000
,
00000000
00001000
00000000
00000100
,
00000000
00000001
00001000
00000001
,
00001100
00000001
00000000
00000100
,
00000000
00001000
00001000
00011000
,
00000000
00010000
00000000
00100000
,
00000000
10000000
00010000
10000000
,
00110000
00100000
01000000
00010000
,
00001000
00000000
00022000
00000000
,
00033000
00010000
00000000
00000000
,
00000000
00000100
00000000
00000000
,
00000000
00000010
00000000
00000000
,
00000000
00001000
00000000
00000000
,
00000000
00010000
00000000
00000000
,
00000000
01000000
00000000
00000000
,
00000000
00100000
00000000
00000000
,
00000000
00001000
00000000
00000000
,
00000000
00010000
00100000
10000000
,
01000000
01010000
00000000
00010000
,
00000000
00001000
00000000
00000010
,
00000000
00000001
00001000
00000100
,
00000010
00001000
00000100
00000001
,
00000010
00001010
00000000
00001000
,
00000000
00010000
00000000
00100000
,
00000000
10000000
00010000
00100000
,
01000000
10000000
00000000
00000000
,
00000000
00010000
00000000
00000000
,
00000000
00001000
00000000
00000000
,
00000000
00000001
00000000
00000000
,
00000000
00001000
00002002
00000000
,
00000000
00000000
00000000
00000000
,
00000000
00003003
00000001
00000000
,
00000100
00000000
00001000
00000000
,
00010000
00000000
01000000
00000000
,
10000000
00000000
00100000
00000000
,
00010000
00000000
00001000
00000000
,
00010000
00000000
01000000
00000000
,
10000000
00000000
00100000
00000000
,
00010000
00000000
00001000
00000000
,
00000100
00000000
00000001
00000000
,
00000010
00000000
00001000
00010000
,
00010100
00000000
00000100
00000000
,
00000010
00000000
00001000
00010000
,
00100000
11000000
10000000
00000000
,
01000000
00000000
00010000
00001000
,
01001000
00000000
01000000
00000000
,
00100000
00000000
00010000
00001000
,
00000010
00000101
00000001
00000010
,
00000100
00001000
00010000
01000000
,
00000000
00000000
00022000
00000000
,
00000000
00000000
00000000
00000000
,
00000000
00000000
00033000
00000000
;

//---------------dance-single - ----------------
#NOTES:
     dance-single:
     :
     Medium:
     10:
     0.445850,0.577023,0.335017,0.317385,0.000000,354.000000,316.000000,38.000000,36.000000,0.000000,0.000000,0.445850,0.577023,0.335017,0.317385,0.000000,354.000000,316.000000,38.000000,36.000000,0.000000,0.000000:
0000
0000
0000
0000
,
0000
0000
0000
0000
,
0000
0000
0000
0000
,
0000
0000
0000
0000
,
0000
0000
0000
0000
,
0000
0000
0000
0000
,
1000
0010
1000
0001
,
1000
0010
0000
0010
0000
0100
0000
0000
,
0001
0010
0001
1000
,
0001
0010
0000
0010
0000
0100
0000
0000
,
2002
0000
0000
3003
,
1000
0010
1000
0010
0000
0000
0000
0000
,
0100
0001
0100
0001
0000
0000
0000
0000
,
1000
0100
1000
0100
0000
0000
0000
0000
,
0010
0001
0000
0010
0000
0022
0033
0000
,
0001
0100
0001
0100
0000
0000
0000
0000
,
0010
1000
0010
1000
0000
0000
0000
0000
,
0001
0010
0001
0010
0000
0000
0000
0000
,
0100
1000
0000
0100
0000
2200
3300
0000
,
1000
0010
1000
0010
,
0001
0100
0001
0100
,
1000
0010
0001
0100
,
1000
0010
0000
0100
0000
0110
0000
0000
,
0001
0010
0001
0010
,
1000
0100
1000
0100
,
0001
0010
1000
0100
,
0001
0010
0000
0100
0000
0110
0000
0000
,
2000
0000
3010
0000
,
0002
0000
0103
0000
,
2000
3010
0002
0103
,
2000
3010
0002
0103
,
0110
2002
0000
0000
,
0000
0000
0000
0000
,
3003
1000
0100
0010
,
0001
0000
0100
0010
0100
0010
0000
0000
,
1000
0000
0010
0100
0010
0100
0000
0000
,
0001
0000
0100
0010
0100
0010
0000
0000
,
1001
1000
0010
0100
,
0001
0000
1000
0100
1000
0100
0000
0000
,
0010
0000
0001
0100
0001
0100
0000
0000
,
0010
0000
1000
0100
1000
0100
0000
0000
,
0010
0011
1000
0100
,
0010
0000
0001
0100
0000
0220
0000
0000
,
0330
0010
1000
0001
,
0010
0100
1100
0010
,
0011
0001
1000
0100
,
0010
0000
0001
1000
0000
2002
0000
0000
,
3003
0001
0100
0010
,
1000
0100
0001
1000
,
0010
0001
0100
0010
,
1000
0000
2002
0000
,
3003
0101
0000
1000
,
0000
1100
0000
0001
,
0000
0011
0000
1000
,
0000
0000
0001
0100
0000
0010
0000
0110
,
0000
1010
0000
0001
,
0000
0011
0000
1000
,
0000
1100
0000
0001
,
0000
0000
1000
0010
0000
0100
0000
0110
,
0000
1000
0100
1000
,
0100
0001
0010
0001
,
0010
1000
0100
0001
,
0010
0000
1000
0001
1000
0100
0000
0110
,
0000
0001
0100
0001
,
0100
1000
0010
1000
,
0010
0001
0100
1000
,
0010
0000
0001
1000
0001
0100
0000
0110
,
0000
0020
0000
1030
,
0000
0200
0000
0301
,
0000
0020
1030
0200
,
0301
0020
1030
0200
,
0301
1001
0220
0000
,
0000
0000
0000
0000
,
0000
0330
0010
1000
,
0001
0000
0100
0000
0010
1000
0001
0100
,
0000
0000
0110
0000
0010
1000
0001
0100
,
0000
0000
0110
0000
0010
1000
0001
0100
,
0000
1100
0010
0001
,
1000
0000
0100
0000
0010
0001
1000
0100
,
0000
0000
0110
0000
0010
0001
1000
0100
,
0000
0000
0110
0000
0010
0001
1000
0100
,
0000
0101
0010
1000
,
0001
0000
0100
0000
0010
1000
0000
2200
,
0000
3300
0100
0010
,
0001
0000
1000
0000
0010
0100
0001
0100
,
0000
0110
0010
0100
,
0001
0000
1000
0000
0100
0010
0000
0022
,
0000
0033
0001
0100
,
0010
0000
1000
0000
0100
0001
0100
1000
,
0000
0000
0110
0000
0001
0010
0001
0010
,
0100
1000
0100
1000
0000
0000
0220
0000
,
0000
0330
2002
0000
,
0000
0000
0000
0000
,
0000
0000
3003
0000
;

//---------------dance-double - ----------------
#NOTES:
     dance-double:
     :
     Medium:
     10:
     0.423180,0.494591,0.246855,0.255671,0.000000,336.000000,308.000000,28.000000,29.000000,0.000000,0.000000,0.423180,0.494591,0.246855,0.255671,0.000000,336.000000,308.000000,28.000000,29.000000,0.000000,0.000000:
00000000
00000000
00000000
00000000
,
00000000
00000000
00000000
00000000
,
00000000
00000000
00000000
00000000
,
00000000
00000000
00000000
00000000
,
00000000
00000000
00000000
00000000
,
00000000
00000000
00000000
00000000
,
00001000
00010000
01000000
00010000
,
00001000
00010000
00000000
00001000
00000000
00010000
00000000
00000000
,
00010000
00001000
00000100
00001000
,
00010000
00001000
00000000
00010000
00000000
00001000
00000000
00000000
,
00022000
00000000
00000000
00033000
,
00001000
00010000
00000000
01000000
00000000
00000000
00000000
00000000
,
00001000
00010000
00000000
00100000
00000000
00000000
00000000
00000000
,
00001000
00010000
00000000
01000000
00000000
00000000
00000000
00000000
,
00001000
00010000
00000000
00001000
00000000
00022000
00033000
00000000
,
00010000
00001000
00000000
00000010
00000000
00000000
00000000
00000000
,
00010000
00001000
00000000
00000100
00000000
00000000
00000000
00000000
,
00010000
00001000
00000000
00000010
00000000
00000000
00000000
00000000
,
00010000
00001000
00000000
00010000
00000000
00022000
00033000
00000000
,
00001000
00100000
00001000
00100000
,
01000000
00010000
01000000
00010000
,
00001000
00100000
01000000
00010000
,
00001000
00010000
00000000
00001000
00000000
00011000
00000000
00000000
,
00010000
00000100
00010000
00000100
,
00000010
00001000
00000010
00001000
,
00010000
00000100
00000010
00001000
,
00010000
00001000
00000000
00010000
00000000
00011000
00000000
00000000
,
00002000
00000000
01003000
00000000
,
00020000
00000000
00030010
00000000
,
00010000
00000100
00000010
00001000
,
00010000
01000000
00100000
00001000
,
00010000
00022000
00000000
00000000
,
00000000
00000000
00000000
00000000
,
00033000
00001000
00010000
01000000
,
10000000
00000000
00100000
01000000
00100000
01000000
00000000
00000000
,
00010000
00000000
01000000
00100000
01000000
00100000
00000000
00000000
,
10000000
00000000
00100000
01000000
00100000
01000000
00000000
00000000
,
00100000
00010000
00001000
00000010
,
00000001
00000000
00000100
00000010
00000100
00000010
00000000
00000000
,
00001000
00000000
00000010
00000100
00000010
00000100
00000000
00000000
,
00000001
00000000
00000100
00000010
00000100
00000010
00000000
00000000
,
00000100
00001000
00010000
00100000
,
10000000
00000000
01000000
01000000
00000000
02200000
00000000
00000000
,
03300000
00100000
01000000
10000000
,
00100000
00010000
00011000
00001000
,
00011000
00010000
00001000
00000100
,
00000001
00000000
00000010
00000010
00000000
00000220
00000000
00000000
,
00000330
00000100
00000010
00000001
,
00000100
00001000
00010000
00100000
,
10000000
01000000
00100000
00001000
,
00010000
00000000
00022000
00000000
,
00033000
00011000
00000000
01000000
,
00000000
00011000
00000000
00000100
,
00000000
00011000
00000000
01000000
,
00000000
00000000
00001000
00010000
00000000
00001000
00000000
00010000
,
00000000
00011000
00000000
00100000
,
00000000
00011000
00000000
00000010
,
00000000
00011000
00000000
00100000
,
00000000
00000000
00001000
00010000
00000000
00001000
00000000
00010000
,
00000000
00001000
00010000
00100000
,
01000000
00001000
00010000
00100000
,
01000000
00001000
00010000
01000000
,
10000000
00000000
00100000
00010000
00001000
00010000
00000000
00011000
,
00000000
00010000
00001000
00000010
,
00000100
00010000
00001000
00000010
,
00000100
00010000
00001000
00000100
,
00000001
00000000
00000010
00001000
00010000
00001000
00000000
00011000
,
00000000
00200000
00000000
00301000
,
00000000
00000200
00000000
00010300
,
00000000
01000000
00001000
00010000
,
00000010
00010000
00001000
00100000
,
00001000
00010000
00022000
00000000
,
00000000
00000000
00000000
00000000
,
00000000
00033000
00001000
00010000
,
01000000
00000000
10000000
00000000
00100000
00010000
00001000
00010000
,
00000000
00000000
00100000
00000000
00100000
00010000
00001000
00010000
,
00000000
00000000
00100000
00000000
00100000
00010000
00001000
00010000
,
00000000
00011000
00010000
00001000
,
00000100
00000000
00000001
00000000
00000010
00001000
00010000
00001000
,
00000000
00000000
00000020
00000030
00000010
00001000
00010000
00001000
,
00000000
00000000
00000010
00000000
00000010
00001000
00010000
00001000
,
00000000
00011000
00010000
00001000
,
00000100
00000000
00000001
00000000
00000010
00000100
00000000
00000220
,
00000000
00000330
00000010
00000001
,
00000100
00000000
00001000
00000000
00010000
00001000
00010000
01000000
,
00000000
01100000
00100000
01000000
,
10000000
00000000
00100000
00000000
01000000
00010000
00000000
20020000
,
00000000
30030000
10000000
01000000
,
00100000
00000000
00001000
00000000
00010000
00001000
00010000
00000010
,
00000000
00000110
00000100
00000001
,
00000010
00001000
00010000
00100000
00000000
00000000
02200000
00000000
,
00000000
03300000
20020000
00000000
,
00000000
00000000
00000000
00000000
,
00000000
00000000
30030000
00000000
;
