#VERSION:0.83;
#TITLE:Feel so good;
#SUBTITLE:;
#ARTIST:LUCY;
#TITLETRANSLIT:;
#SUBTITLETRANSLIT:;
#ARTISTTRANSLIT:;
#GENRE:K-POP;
#ORIGIN:;
#CREDIT:MUINELIM;
#BANNER:Feel so good.png;
#BACKGROUND:Feel so good-bg.png;
#PREVIEWVID:;
#JACKET:Feel so good-jacket.png;
#CDIMAGE:;
#DISCIMAGE:;
#LYRICSPATH:;
#CDTITLE:;
#MUSIC:Feel so good.ogg;
#OFFSET:0.150000;
#SAMPLESTART:46.177414;
#SAMPLELENGTH:11.361839;
#SELECTABLE:YES;
#DISPLAYBPM:125.000000;
#BPMS:0.000=124.980;
#STOPS:32.000=0.480,
201.500=0.960;
#DELAYS:;
#WARPS:;
#TIMESIGNATURES:0.000=4=4;
#TICKCOUNTS:0.000=4;
#COMBOS:0.000=1;
#SPEEDS:0.000=1.000=0.000=0;
#SCROLLS:0.000=1.000;
#FAKES:;
#LABELS:0.000=Song Start;
#BGCHANGES:0.000=Feel so good-bg.png=1.000=0=0=1====#000000=#000000,
2.000=Feel so good.mp4=1.000=1=0=1===CrossFade==,
99999=-nosongbg-=1.000=0=0=0 // don't automatically add -songbackground-
;
#KEYSOUNDS:;
#ATTACKS:
;

//---------------dance-single - ----------------
#NOTEDATA:;
#CHARTNAME:;
#STEPSTYPE:dance-single;
#DESCRIPTION:;
#CHARTSTYLE:;
#DIFFICULTY:Beginner;
#METER:3;
#RADARVALUES:0.121245,0.152651,0.023575,0.070726,0.000000,108.000000,105.000000,3.000000,9.000000,0.000000,0.000000,0.000000,0.000000,0.000000,0.121245,0.152651,0.023575,0.070726,0.000000,108.000000,105.000000,3.000000,9.000000,0.000000,0.000000,0.000000,0.000000,0.000000;
#CREDIT:MILEN;
#DISPLAYBPM:125.000000;
#NOTES:
0000
0000
0000
0000
,
0000
0000
0000
0000
,
0000
0000
0000
0000
,
0000
0000
0000
0000
,
0000
0000
0100
0000
,
0100
0000
0100
0000
,
0100
0000
0100
0000
,
0100
0000
0200
0000
,
0300
0100
0000
0001
,
0000
1000
0000
0010
,
0000
0010
0000
1000
,
0000
0001
0000
0100
,
0000
0100
0000
0001
,
0000
1000
0000
0001
,
0000
0100
0000
1000
,
0000
0001
0000
1000
,
0000
0100
0000
0000
,
0000
0100
0000
0100
,
0000
0001
0000
0000
,
0000
0010
0000
0010
,
0000
1000
0000
0001
,
0000
1000
0000
0001
,
0000
1000
0000
0001
,
0000
2002
0000
3003
,
0000
0100
0000
0100
,
0000
0100
0000
0000
,
0000
0010
0000
1000
,
0000
0001
0000
0000
,
0000
0010
0000
0001
,
0000
1000
0000
0000
,
0000
0010
0000
1000
,
0000
0001
0000
0100
,
0000
0010
0000
0010
,
0000
1000
0000
1000
,
0000
0001
0000
0001
,
0000
0100
0000
0100
,
0000
0010
0000
1000
,
0000
0001
0000
0100
,
0000
0010
0000
1000
,
0000
0001
0000
0100
,
0000
0010
0000
0000
,
0000
0020
0000
0030
,
0000
0010
0000
0000
,
0000
0020
0000
0030
,
0000
0010
0000
0010
,
0000
0010
0000
0010
,
0000
0010
0000
0010
,
0000
0010
0000
0010
,
0000
0020
0000
0030
,
0000
0110
0000
0000
,
0000
0000
0000
1000
,
0000
0100
0000
0010
,
0000
0001
0000
1000
,
0000
0100
0000
0010
,
0000
0001
0000
1000
,
0000
0001
0000
1000
,
0000
0001
0000
2002
,
0000
0000
0000
0000
,
0000
3003
0000
0001
,
0000
0001
0000
1000
,
0000
1000
0000
0010
,
0000
0100
0000
0001
,
0000
1000
0000
0010
,
0000
0100
0000
0001
,
0000
1000
2000
3000
;

//---------------dance-single - ----------------
#NOTEDATA:;
#CHARTNAME:;
#STEPSTYPE:dance-single;
#DESCRIPTION:;
#CHARTSTYLE:;
#DIFFICULTY:Easy;
#METER:5;
#RADARVALUES:0.212179,0.254418,0.102160,0.125736,0.000000,189.000000,176.000000,13.000000,16.000000,0.000000,0.000000,0.000000,0.000000,0.000000,0.212179,0.254418,0.102160,0.125736,0.000000,189.000000,176.000000,13.000000,16.000000,0.000000,0.000000,0.000000,0.000000,0.000000;
#CREDIT:MILEN;
#DISPLAYBPM:125.000000;
#NOTES:
// measure 0
0000
0000
0000
0000
,  // measure 1
0000
0000
0000
0000
,  // measure 2
0000
0000
0000
0000
,  // measure 3
0000
0000
0000
0000
,  // measure 4
0000
0000
0010
0000
,  // measure 5
0010
0000
0010
0000
,  // measure 6
0010
0000
0010
0010
,  // measure 7
0010
0000
0020
0000
,  // measure 8
0030
0010
0000
1000
,  // measure 9
0000
0100
0000
0010
,  // measure 10
0000
0001
0000
1000
,  // measure 11
0000
0010
0100
0010
,  // measure 12
0000
1000
0100
0010
,  // measure 13
0000
0010
0001
0100
,  // measure 14
0000
0010
1000
0100
,  // measure 15
0000
0100
0010
0001
,  // measure 16
0000
1000
0001
2000
,  // measure 17
3000
1001
0000
1001
,  // measure 18
0000
0001
1000
0002
,  // measure 19
0003
1001
0000
1001
,  // measure 20
0000
1000
0100
1000
,  // measure 21
0100
0010
0001
0010
,  // measure 22
0001
1000
0100
0010
,  // measure 23
0001
0100
0100
0100
,  // measure 24
0100
0110
0000
0000
,  // measure 25
0000
0220
0330
0000
,  // measure 26
0010
1000
0100
0010
,  // measure 27
0100
1000
0010
0100
,  // measure 28
0000
0001
0010
0100
,  // measure 29
0010
0001
0000
0100
,  // measure 30
0000
1000
0010
2000
,  // measure 31
3000
1000
0100
0010
,  // measure 32
0001
1001
0000
0100
,  // measure 33
0000
0010
0000
1000
,  // measure 34
0000
0001
0000
0100
,  // measure 35
0000
0010
0000
1000
,  // measure 36
0000
0001
0100
0010
,  // measure 37
1000
0001
0100
0010
,  // measure 38
0010
1000
0100
1000
,  // measure 39
0001
0010
0001
1000
,  // measure 40
0010
0200
0300
0010
,  // measure 41
0100
0020
0000
0030
,  // measure 42
0000
2000
3000
0001
,  // measure 43
1000
0002
0000
0003
,  // measure 44
0000
1001
0000
0001
,  // measure 45
0100
0020
0000
0030
,  // measure 46
0000
0110
0000
0010
,  // measure 47
1000
0200
0300
0010
,  // measure 48
0001
2002
0000
0000
,  // measure 49
3003
1001
0000
1001
,  // measure 50
0000
1001
0000
0010
,  // measure 51
1000
0100
1000
0010
,  // measure 52
0100
0001
0000
0001
,  // measure 53
0010
0100
0010
0001
,  // measure 54
0000
0100
0000
1000
,  // measure 55
0010
2000
3000
0001
,  // measure 56
0010
0100
1000
0010
,  // measure 57
0100
0001
0100
0010
,  // measure 58
0100
0001
0001
1000
,  // measure 59
0100
0010
0100
1000
,  // measure 60
0100
0010
0100
1000
,  // measure 61
0010
0001
0100
0001
,  // measure 62
0010
1000
0100
0001
,  // measure 63
0010
0001
0100
1000
,  // measure 64
0010
0100
0020
0030
;

//---------------dance-single - ----------------
#NOTEDATA:;
#CHARTNAME:;
#STEPSTYPE:dance-single;
#DESCRIPTION:;
#CHARTSTYLE:;
#DIFFICULTY:Medium;
#METER:7;
#RADARVALUES:0.309849,0.357561,0.117877,0.117877,0.000000,276.000000,261.000000,15.000000,15.000000,0.000000,0.000000,0.000000,0.000000,0.000000,0.309849,0.357561,0.117877,0.117877,0.000000,276.000000,261.000000,15.000000,15.000000,0.000000,0.000000,0.000000,0.000000,0.000000;
#CREDIT:MILEN;
#DISPLAYBPM:125.000000;
#NOTES:
0000
0000
0000
0000
,
0000
0000
0000
0000
,
0000
0000
0000
0000
,
0000
0000
0000
0000
,
0000
0000
1000
0100
,
0000
0100
0000
0100
,
0000
0100
0100
0001
,
1000
0100
0010
0001
,
1001
0100
0100
0001
,
0001
0000
0100
1000
0100
0000
0001
0000
,
1001
0010
0010
1000
,
1000
0000
0010
0001
0010
0000
1000
0000
,
1001
0000
0010
0100
0001
0000
0100
0000
,
0010
0000
0100
0010
1000
0000
0010
0000
,
0100
0000
0010
0100
0001
0000
0100
0010
,
1000
0000
0010
0100
0010
0000
0220
0000
,
0330
0100
0001
2000
,
3000
0100
0000
0100
,
0000
0100
1000
0002
,
0003
0010
0000
0010
,
0000
0010
0001
0100
,
0010
1000
0001
0010
,
0100
0000
1000
0000
0010
0100
0010
0100
,
0010
0100
0020
0000
0000
0000
0000
0000
,
0030
0110
0000
0110
,
0000
0000
0220
0000
0330
0000
0000
0010
,
1000
0100
0010
0000
0100
0000
1000
0000
,
0010
0000
0100
0001
0100
0000
0001
0000
,
1000
0100
0010
0100
,
1000
0010
0100
0000
0010
1000
0100
0000
,
1000
0010
0100
0001
0100
0010
1000
0000
,
0001
0100
0100
0100
,
1001
0000
0010
1000
0100
0000
1000
0000
,
0001
0000
0010
0001
0100
0000
0001
0000
,
1000
0000
0010
1000
0100
0000
0010
0000
,
0100
0000
0010
0001
0100
0000
0010
0000
,
0100
0000
0010
1000
0100
0000
1000
0100
,
1000
0000
0001
0100
0001
0000
0010
0001
,
0100
0000
0010
0100
0010
0000
1000
0001
,
0010
0000
0001
1000
0001
0000
1000
0100
,
0010
0012
0000
0000
,
0000
0200
0000
0303
,
0000
2010
0000
0000
,
0000
0200
0000
3300
,
0000
0001
0100
0001
,
0100
0002
1003
0001
,
0101
1000
0100
1000
,
0100
2000
3100
1000
,
1100
0000
0020
0000
0000
0000
0030
0100
,
0100
0010
1000
0001
,
0100
0110
0000
1001
,
0010
0000
0001
0000
0100
0000
0010
1000
,
0010
1000
0001
0010
,
0100
0000
0010
0000
0001
0100
0010
0000
,
0100
0001
0010
0000
0001
0100
0010
1000
,
0010
0100
0001
0000
1000
0000
0010
0000
,
0010
0000
0010
0000
1001
0000
1000
0100
,
0010
0000
0100
0010
0001
0000
0100
0000
,
0010
0000
1000
0001
1000
0000
0001
0010
,
0100
0000
0010
0100
1000
0000
0010
0000
,
0100
0000
0001
1000
0001
0000
0100
1000
,
0100
0000
1000
0010
0100
0000
0010
0100
,
0010
0000
0100
0001
0010
0000
0001
0010
,
0001
0000
1000
0010
0100
0000
0001
0010
,
1000
0000
0010
0001
0100
0020
0000
0000
,
0030
0000
0000
0000
;

//---------------dance-single - ----------------
#NOTEDATA:;
#CHARTNAME:;
#STEPSTYPE:dance-single;
#DESCRIPTION:;
#CHARTSTYLE:;
#DIFFICULTY:Hard;
#METER:11;
#RADARVALUES:0.394047,0.459721,0.243613,0.180745,0.023575,351.000000,320.000000,31.000000,23.000000,0.000000,0.000000,0.000000,0.000000,0.000000,0.394047,0.459721,0.243613,0.180745,0.023575,351.000000,320.000000,31.000000,23.000000,0.000000,0.000000,0.000000,0.000000,0.000000;
#CREDIT:MILEN;
#DISPLAYBPM:125.000000;
#NOTES:
0000
0000
0000
0000
,
0000
0000
0000
0000
,
0000
0000
0000
0000
,
0000
0000
0000
0000
,
0000
0000
0001
0100
,
0000
0100
0000
0100
,
0000
0100
0100
1000
,
0001
0010
0100
2002
,
3003
0000
0010
0000
0010
1000
0100
0010
,
0100
0000
1000
0000
0010
0000
0000
0100
0000
0000
0010
0000
0110
0000
0000
0000
,
0110
0000
0000
0000
1000
0000
0000
0000
0001
0000
0000
1000
0000
0000
1000
0000
,
0100
0010
0001
0100
0010
0100
0000
0010
,
1000
0100
1100
0000
0001
0000
0011
0000
,
1000
1010
0001
0101
,
1000
0100
0010
0000
0010
0001
0100
0000
,
0010
0100
0010
1000
0001
0100
0020
0000
,
0130
0000
0010
1000
0100
0010
0002
0000
,
0003
0000
0010
0001
0100
0000
0010
1000
,
0100
0000
0001
0010
0100
2000
0000
0000
,
3000
0000
0010
1000
0100
0000
0010
0001
,
0100
0110
0010
1010
,
1000
1001
0001
0101
,
0100
0000
0110
0010
1000
0100
0010
0100
,
1000
0010
0100
0001
1000
0100
0010
0001
,
1000
1100
0000
0101
,
0000
0000
0021
0000
0000
0000
0000
0130
,
0100
0010
1000
0100
0010
0000
0010
0001
,
0100
0000
0010
1000
0001
0100
0010
1000
,
0001
0011
1000
1010
,
0001
0102
2003
3200
,
0320
0000
0031
0010
0100
0010
0001
0000
,
0011
0000
0010
0100
1000
0010
0100
0010
,
0110
0000
1000
0100
0010
0000
0001
0100
,
1000
0000
1000
0100
0010
0000
0001
0100
,
1000
0000
0001
0010
0100
0000
1000
0010
,
0001
0000
0001
0010
0100
0000
1000
0010
,
0001
0000
0001
0100
0010
0100
0001
0010
,
0100
0010
0001
1000
0010
0100
0010
1000
,
0100
0010
0100
1000
0010
0100
0001
0100
,
1000
0100
0001
0010
0100
1000
0001
0010
,
0100
1000
0020
0000
0000
0000
0000
0000
,
0000
0200
0000
0000
,
0330
2000
0000
0000
,
0000
0002
0000
0000
,
3003
0001
0100
1000
,
0010
0001
0100
1000
,
0010
0000
0001
0100
0001
0000
1000
0100
,
1000
0000
0001
0100
0001
1000
0100
1000
,
0001
2002
0000
0000
,
3003
0011
0000
1010
,
0000
0000
1100
1100
0000
0200
0301
0010
,
0100
0000
0100
1000
0010
0000
0100
0010
,
1000
0100
0010
0001
0100
0000
0110
0000
,
1000
1100
0001
0021
,
0230
0000
2300
0000
3020
0000
0031
0010
,
1000
0100
0010
0000
0011
0000
0001
0100
,
1000
0100
0010
0100
0110
0000
0010
1000
,
0100
0000
0100
0001
0010
0000
0010
1000
,
0100
0010
0001
0100
0100
0000
0010
0001
,
0100
0000
0100
1000
0010
0000
0010
0001
,
1000
0010
0100
0001
0001
0000
0010
0100
,
1000
0010
0100
0001
1000
0100
0010
0001
,
0100
0010
1000
0100
0010
0100
1000
0010
,
0100
0001
0010
1000
0010
0001
0100
0010
,
1000
0000
0001
0100
0000
0100
0000
0100
0000
0220
0000
0000
0000
0000
0000
0000
,
0330
0000
0000
0000
;

//---------------dance-single - ----------------
#NOTEDATA:;
#CHARTNAME:;
#STEPSTYPE:dance-single;
#DESCRIPTION:;
#CHARTSTYLE:;
#DIFFICULTY:Challenge;
#METER:13;
#RADARVALUES:0.498452,0.561882,0.275047,0.259330,0.298622,444.000000,409.000000,35.000000,33.000000,188.000000,0.000000,0.000000,0.000000,0.000000,0.498452,0.561882,0.275047,0.259330,0.298622,444.000000,409.000000,35.000000,33.000000,188.000000,0.000000,0.000000,0.000000,0.000000;
#CREDIT:MILEN;
#DISPLAYBPM:125.000000;
#NOTES:
0000
0000
0000
0000
,
0000
0000
0000
0000
,
0000
0000
0000
0000
,
0000
0000
0000
0000
,
0000
0000
0012
0100
,
0000
0000
0103
MMMM
2100
0000
0010
0000
,
0000
0000
3010
MMMM
0012
0000
1000
0000
,
0000
0000
0000
0000
1003
0000
MMMM
0000
1000
0000
0010
0100
0020
0000
0000
0000
,
0130
0000
0000
0000
0101
0000
0000
0000
0001
0000
1000
0100
0000
1000
0010
1000
,
0010
0000
1000
0000
0100
0000
0010
0100
0000
0010
0100
0000
0020
0000
0000
0000
,
0031
0000
MMMM
0000
0101
0000
0000
0000
1000
0000
0000
1000
0000
0000
0100
1000
,
0100
0000
1000
0000
0001
0000
0100
0000
0010
0000
2000
0000
0000
0000
3001
0010
,
0001
0100
0110
1000
0100
0010
0100
1000
,
0010
MMMM
0100
0001
0010
0100
0010
0001
,
0100
0000
MMMM
0000
0010
0000
1000
0100
0000
0100
1000
0000
0010
0000
0100
0001
,
0000
0001
0100
0000
0010
0000
1000
0001
0000
1000
0001
0000
0200
0000
0000
0000
,
0310
0000
0000
MMMM
0000
0000
0010
0000
1000
0000
0100
0000
0010
0000
0000
0000
0010
0000
0001
0000
0000
0000
0001
0000
,
0100
0000
0000
0000
0100
0000
0020
0000
0000
2030
0000
0000
3001
0000
0000
0000
0000
0000
0020
0000
0000
0032
0000
0000
,
1003
0000
0000
1000
0100
0010
0001
0000
0000
0001
0010
0100
,
1000
0010
0200
0302
0013
0000
0200
2300
,
3010
0000
0100
0000
0001
0000
0101
0000
0000
MMMM
0000
0000
1000
0000
0000
MMMM
0000
0000
1100
0000
0000
MMMM
0000
0000
,
0001
MMMM
0011
MMMM
1000
MMMM
1010
MMMM
,
0001
MMMM
0010
0100
1000
0001
0010
0100
,
1000
0000
0010
0000
0100
0001
0100
0000
0001
1000
0001
0000
1000
0100
1000
0000
,
0020
0100
0001
0100
,
1000
0000
0200
0000
0030
0000
0010
0010
,
0310
1000
0100
0000
0010
0000
0001
0010
0000
0001
1000
0000
0100
0000
1000
0100
,
0000
1000
0001
0000
0010
0000
0001
0100
0000
0001
1000
0000
0100
0000
1000
0100
,
0000
1000
0001
0000
0101
0000
MMMM
0000
1100
0000
MMMM
0000
1010
0000
MMMM
0000
,
0011
0000
MMMM
0000
0001
0000
0010
0100
0010
0000
0001
0000
0100
0000
0010
0000
,
1000
0000
0100
0000
0010
0000
0100
1000
0000
0010
1000
0000
0200
0000
0000
0000
,
0310
0000
0011
MMMM
1010
MMMM
1100
MMMM
,
0101
MMMM
1000
0100
0010
0100
1000
0010
,
0100
MMMM
0001
0010
0100
0010
0001
0100
,
0010
MMMM
1000
0001
0010
0100
1000
0010
,
0100
MMMM
0001
1000
0100
0010
0001
0100
,
0010
0000
MMMM
0000
1000
0000
0010
1000
0010
0000
1000
0000
0100
1000
0100
0000
,
1000
0000
0001
0000
0010
0000
0001
0100
0001
0000
1000
0100
0000
0100
0000
1000
,
0000
0001
0000
0000
0100
0000
0010
0100
0010
0000
1000
0000
0100
0010
0100
0000
,
0010
0000
0001
0000
0100
0000
0010
1000
0010
0000
0100
0001
0000
0001
0000
0010
,
0000
0100
0000
0000
2100
0000
0000
0000
0000
0000
0000
0000
3001
0000
0010
0000
,
0100
1000
0020
0000
0000
0000
0230
0000
,
0310
MMMM
0102
0000
0000
0000
1003
0010
,
0100
0001
0020
0000
0000
0000
0000
0000
,
0130
0100
2000
0000
3010
MMMM
0002
0000
,
0013
MMMM
2000
0000
3010
MMMM
0002
0000
,
0013
MMMM
0010
1000
0100
0010
0001
0100
,
0010
0000
1000
0000
0100
0000
0010
0000
0001
0000
0100
0000
0010
1000
0010
0000
,
0100
0001
0100
0000
2002
0000
0000
0000
0000
0000
0000
0000
0000
0000
0000
0000
,
3003
MMMM
0120
0000
0100
0000
0100
0000
,
0100
0000
0000
0000
0100
0000
0130
0000
MMMM
0000
0010
1000
0010
0000
1000
0000
,
0100
0000
0010
0000
0001
0000
0100
0000
0010
0000
1000
0000
1100
0000
0000
0101
,
0000
0021
0000
0100
0130
0000
1100
MMMM
,
1010
0000
MMMM
0000
0011
0000
MMMM
0000
0101
0000
MMMM
0000
1000
0000
0100
0010
,
0100
0000
1000
0000
0010
0000
0100
0000
0001
0000
0010
0000
0100
0000
0010
0001
,
0000
0100
0001
0000
0020
0000
0000
0000
0130
0000
0000
0000
1100
0000
MMMM
0000
,
0101
MMMM
0011
MMMM
1010
MMMM
1000
0100
,
0001
0010
0100
1000
1000
MMMM
0001
0010
,
1000
0100
0010
0001
0001
MMMM
1000
0010
,
0001
0100
0001
0010
1000
MMMM
0001
0010
,
1000
0000
0100
0000
1000
0000
0010
0000
0001
0000
0100
0000
0010
0000
1000
0100
,
1000
0000
0010
0000
0100
0001
0010
0000
0011
0000
MMMM
0000
0100
0000
0010
1000
,
0010
0000
1000
0100
0000
0010
0000
0100
0000
1000
0000
0000
0010
0000
0100
0001
,
0010
0000
0100
0000
1000
0010
1000
0000
1001
0000
MMMM
0000
0010
0000
0100
1000
,
0010
0000
0100
0010
0000
1000
0000
0100
0010
0001
0200
0000
0000
0000
0000
0000
,
0300
0000
0000
0000
;

//---------------dance-double - ----------------
#NOTEDATA:;
#CHARTNAME:;
#STEPSTYPE:dance-double;
#DESCRIPTION:;
#CHARTSTYLE:;
#DIFFICULTY:Easy;
#METER:5;
#RADARVALUES:0.217792,0.253436,0.141453,0.149311,0.000000,194.000000,176.000000,18.000000,19.000000,0.000000,0.000000,0.000000,0.000000,0.000000,0.217792,0.253436,0.141453,0.149311,0.000000,194.000000,176.000000,18.000000,19.000000,0.000000,0.000000,0.000000,0.000000,0.000000;
#CREDIT:MILEN;
#DISPLAYBPM:125.000000;
#NOTES:
00000000
00000000
00000000
00000000
,
00000000
00000000
00000000
00000000
,
00000000
00000000
00000000
00000000
,
00000000
00000000
00000000
00000000
,
00000000
00000000
00001000
00000000
,
00010000
00000000
00001000
00000000
,
00010000
00000000
00001000
00010000
,
00001000
00010000
00022000
00000000
,
00033000
00001000
00000000
01000000
,
00000000
00010000
00000000
00100000
,
00000000
00001000
00000000
00010000
,
00000000
00000010
00000000
00001000
,
00000000
00000100
00010000
00001000
,
00000000
00010000
00100000
01000000
,
00000000
00100000
01000000
00010000
,
00000000
00100000
00001000
00010000
,
00000000
00000100
00001000
00000002
,
00000003
00000011
00000000
00001010
,
00000000
00001000
00010000
00200000
,
00300000
10100000
00000000
11000000
,
00000000
01000000
00010000
01000000
,
00010000
00001000
00100000
00001000
,
00100000
00010000
01000000
00001000
,
00010000
00000100
00010000
00001000
,
00100000
00110000
00000000
00000000
,
00000000
22000000
33000000
00000000
,
10000000
01000000
00010000
01000000
,
10000000
01000000
00010000
00001000
,
00000000
00100000
01000000
00010000
,
00001000
00000010
00000000
00000001
,
00000000
00000100
00001000
00022000
,
00033000
00010000
00001000
00000100
,
00000001
00000011
00000000
00000010
,
00000000
00001000
00000000
00010000
,
00000000
00100000
00000000
10000000
,
00000000
01000000
00000000
00100000
,
00000000
00010000
01000000
00001000
,
00010000
00000100
00001000
00000010
,
00010000
00001000
00100000
00010000
,
01000000
00001000
00010000
00000100
,
00000010
00000002
00000003
00000010
,
00000100
00002000
00000000
00003000
,
00000000
00000020
00000030
00010000
,
00001000
00200000
00000000
00300000
,
00000000
01100000
00000000
10000000
,
00100000
00020000
00000000
00030000
,
00000000
00011000
00000000
00001000
,
00000100
00000001
00000010
00001000
,
00010000
00022000
00000000
00000000
,
00033000
00011000
00000000
00011000
,
00000000
00011000
00000000
00000010
,
00001000
00000010
00000001
00000010
,
00001000
00010000
00000000
00000100
,
00000010
00001000
00010000
01000000
,
00000000
10000000
00000000
00100000
,
00010000
00022000
00033000
00001000
,
00010000
00100000
10000000
11000000
,
01000000
00100000
00010000
01000000
,
00001000
00010000
00000010
00001000
,
00000100
00000010
00000001
00000100
,
00001000
00010000
00000100
00001000
,
00000010
00010000
00001000
01000000
,
00010000
00100000
01000000
10000000
,
00100000
00010000
00001000
00000010
,
00000001
00002002
00003003
00000000
;

//---------------dance-double - ----------------
#NOTEDATA:;
#CHARTNAME:;
#STEPSTYPE:dance-double;
#DESCRIPTION:;
#CHARTSTYLE:;
#DIFFICULTY:Medium;
#METER:8;
#RADARVALUES:0.304236,0.357561,0.102160,0.117877,0.000000,271.000000,258.000000,13.000000,15.000000,0.000000,0.000000,0.000000,0.000000,0.000000,0.304236,0.357561,0.102160,0.117877,0.000000,271.000000,258.000000,13.000000,15.000000,0.000000,0.000000,0.000000,0.000000,0.000000;
#CREDIT:MILEN;
#DISPLAYBPM:125.000000;
#NOTES:
00000000
00000000
00000000
00000000
,
00000000
00000000
00000000
00000000
,
00000000
00000000
00000000
00000000
,
00000000
00000000
00000000
00000000
,
00000000
00000000
00001000
01000000
,
00000000
01000000
00000000
01000000
,
00000000
01000000
01000000
00001000
,
00010000
00000100
00010000
00001000
,
00011000
00100000
00010000
01000000
,
10000000
01000000
00100000
00010000
,
00011000
00000100
00001000
00000010
,
00000001
00000010
00000100
00001000
,
00011000
00000000
00100000
10000000
01000000
00000000
00100000
00000000
,
01000000
00000000
00100000
00010000
01000000
00000000
00001000
00000000
,
00010000
00000000
00000100
00001000
00000010
00000000
00000100
00000001
,
00000010
00000000
00000100
00000010
00000100
00000000
00000220
00000000
,
00000330
00000001
00000100
00002000
,
00003000
00010000
00000000
00010000
,
00000000
00010000
01000000
20000000
,
30000000
00100000
00000000
00100000
,
00000000
00100000
00010000
00001000
,
00000100
00000001
00000010
00000100
,
00001000
00000000
00010000
00000000
00100000
01000000
00100000
01000000
,
00100000
01000000
00200000
00000000
00000000
00000000
00000000
00000000
,
00300000
01100000
00000000
01100000
,
00000000
00000000
20020000
00000000
30030000
00000000
00000000
10000000
,
01000000
00100000
01000000
00000000
00010000
00000000
00001000
00000000
,
00000010
00000000
00000100
00001000
00000100
00000000
00000010
00000000
,
00000001
00000100
00001000
00010000
,
00100000
01000000
00100000
00000000
00100000
01000000
00100000
00000000
,
10000000
01000000
00100000
01000000
10000000
01000000
00010000
00000000
,
00001000
00000100
00000001
00000010
,
00000110
00000000
00000001
00000100
00001000
00000000
00000100
00000000
,
00000001
00000000
00001000
00000100
00000001
00000000
00000100
00000000
,
00001000
00000000
00010000
01000000
10000000
00000000
01000000
00000000
,
00010000
00000000
10000000
01000000
00010000
00000000
01000000
00000000
,
10000000
00000000
00100000
01000000
00010000
00000000
00100000
00001000
,
00010000
00000000
00001000
00010000
00000100
00000000
00001000
00000010
,
00000100
00000000
00000010
00000100
00000001
00000000
00000010
00000001
,
00000100
00000000
00001000
00010000
00000100
00000000
00010000
00001000
,
00100000
02100000
00000000
00000000
,
00000000
03020000
00000000
00000000
,
00000000
00032000
00000000
00000000
,
00000000
00000020
00000000
00003030
,
00000000
00000010
00000001
00000100
,
00001000
00020000
00031000
00010000
,
01010000
01000000
10000000
00100000
,
00010000
00002000
00013000
00001000
,
00001100
00000000
00000002
00000000
00000000
00000000
00000003
00000010
,
00000010
00001000
00010000
00100000
,
00010000
00000000
00011000
00000000
00000000
00000000
00000010
00000100
,
00000010
00001000
00010000
01000000
,
00100000
00010000
00100000
00000000
01000000
00000000
10000000
00000000
,
00100000
00000000
00010000
00000000
00001000
00000000
00000100
00000010
,
00000100
00000000
00000100
00000010
00000100
00000000
00000001
00000010
,
00000100
00000010
00000001
00000010
00001000
00000000
00010000
00000000
,
00100000
10000000
01000000
01100000
,
10000000
00100000
00010000
00000000
00100000
00000000
10000000
00000000
,
00010000
00100000
10000000
00000000
00100000
00000000
00010000
00000000
,
00001000
00000010
00000001
00000000
00000010
00000000
00001000
00000000
,
00000001
00000010
00001000
00000000
00000010
00000000
00000001
00000100
,
00000010
00000000
00000001
00000010
00000100
00000000
00000010
00000100
,
00001000
00000000
00000100
00001000
00010000
00000000
00001000
00010000
,
00100000
00000000
00010000
00100000
01000000
00000000
00100000
01000000
,
10000000
00000000
00100000
00010000
00001000
00000200
00000000
00000000
,
00000300
00000000
00000000
00000000
;

//---------------dance-double - ----------------
#NOTEDATA:;
#CHARTNAME:;
#STEPSTYPE:dance-double;
#DESCRIPTION:;
#CHARTSTYLE:;
#DIFFICULTY:Hard;
#METER:10;
#RADARVALUES:0.378330,0.459721,0.212179,0.102160,0.007858,337.000000,310.000000,27.000000,13.000000,0.000000,0.000000,0.000000,0.000000,0.000000,0.378330,0.459721,0.212179,0.102160,0.007858,337.000000,310.000000,27.000000,13.000000,0.000000,0.000000,0.000000,0.000000,0.000000;
#CREDIT:MILEN;
#DISPLAYBPM:125.000000;
#NOTES:
00000000
00000000
00000000
00000000
,
00000000
00000000
00000000
00000000
,
00000000
00000000
00000000
00000000
,
00000000
00000000
00000000
00000000
,
00000000
00000000
00010000
01000000
,
00000000
00001000
00000000
00010000
,
00000000
00000100
00000010
00000001
,
00000100
00001000
00010000
00022000
,
00033000
00000000
00001000
00000000
00010000
01000000
10000000
00100000
,
10000000
00000000
01000000
00000000
00010000
00000000
00000000
00001000
00000000
00000000
00010000
00000000
00011000
00000000
00000000
00000000
,
00011000
00000000
00000000
00000000
00001000
00000000
00000000
00000000
00000100
00000000
00000000
00000100
00000000
00000000
00000100
00000000
,
00000001
00000010
00000100
00001000
00000010
00010000
00000000
00001000
,
00010000
00100000
01100000
00000000
10000000
00000000
01100000
00000000
,
00010000
00000000
01100000
00000000
10000000
00000000
01000000
00010000
,
00001000
00100000
01000000
00000000
00100000
00010000
01000000
00000000
,
00100000
00010000
00001000
00000010
00000001
00000100
00000020
00000000
,
00001030
00000000
00001000
00000001
00000100
00001000
00020000
00000000
,
00030000
00000000
00001000
00010000
00100000
00000000
00010000
00100000
,
10000000
00000000
01000000
00100000
00010000
00200000
00000000
00000000
,
00300000
00000000
00100000
00001000
00010000
00000000
00000010
00010000
,
00001000
00011000
00010000
00010010
,
00001000
00011000
00001000
01001000
,
00010000
00000000
00010100
00000100
00000010
00000001
00001000
00000100
,
00000010
00000001
00000100
00001000
00010000
00001000
00100000
00010000
,
10000000
11000000
00000000
01010000
,
00000000
00000000
00012000
00000000
00000000
00000000
00000000
00003010
,
00000010
00000001
00000100
00000000
00001000
00000000
00010000
00000000
,
00100000
00000000
10000000
01000000
00100000
00010000
10000000
01000000
,
00100000
00110000
10000000
10100000
,
00010000
01010000
10000000
00100000
,
00010000
00000000
00001000
00010000
00001000
00000010
00000001
00000000
,
00000011
00000000
00000010
00000100
00001000
00000010
00010000
00001000
,
00000100
00000000
00000100
00000001
00000010
00000000
00000010
00001000
,
00010000
00000000
00001000
00010000
01000000
00000000
01000000
10000000
,
00100000
00000000
00010000
00100000
01000000
00000000
00100000
00010000
,
00001000
00000000
00010000
00001000
00000100
00000000
00000010
00001000
,
00000100
00000000
00000001
00000100
00000010
00000001
00000100
00000010
,
00001000
00000000
00000100
00010000
00001000
00100000
00010000
01000000
,
00100000
00000000
10000000
00010000
00100000
01000000
10000000
00100000
,
01000000
00000000
00010000
00100000
01000000
00010000
00001000
00000100
,
00000001
00000010
00000200
00000000
00000000
00000000
00000000
00000000
,
00000300
00002000
00000000
00000000
,
00003000
00020000
00000000
00000000
,
00000000
20000000
00000000
00000000
,
30030000
10000000
00100000
00010000
,
00001000
00000010
00000001
00000100
,
00001000
00000000
00010000
00000010
00010000
00000000
00001000
00100000
,
00001000
00000000
00010000
00000100
00010000
00001000
01000000
00001000
,
00010000
00022000
00000000
00000000
,
00033000
00011000
00000000
01010000
,
00000000
00000000
11000000
11000000
00000000
10000000
00100000
00000000
,
00010000
00000000
00001000
00000000
00000100
00000000
00000001
00000010
,
00000100
00001000
00000001
00000010
00000100
00000000
00001100
00000000
,
00000001
00000101
00001000
00001010
,
00000001
00000000
00000100
00000000
00001000
00000000
00010000
00001000
,
00010000
01000000
10000000
00000000
11000000
00000000
01000000
00100000
,
00010000
01000000
00001000
00010000
00100000
00000000
00100000
10000000
,
01000000
00000000
01000000
00010000
00001000
00000000
00010000
00001000
,
00000010
00000000
00000010
00000001
00000100
00000000
00001000
00000100
,
00000010
00000000
00000100
00001000
00010000
00000000
00001000
00010000
,
00100000
00000000
01000000
00010000
00100000
00000000
10000000
00100000
,
01000000
10000000
00100000
01000000
00010000
00000000
00100000
00001000
,
00010000
00000100
00001000
00000010
00000100
00000000
00000001
00001000
,
00000100
00000010
00000001
00000100
00000010
00000000
00001000
00000100
,
00000010
00001000
00010000
00100000
10000000
01000000
00200000
00000000
,
00300000
00000000
00000000
00000000
;

//---------------dance-double - ----------------
#NOTEDATA:;
#CHARTNAME:;
#STEPSTYPE:dance-double;
#DESCRIPTION:;
#CHARTSTYLE:;
#DIFFICULTY:Challenge;
#METER:13;
#RADARVALUES:0.516415,0.561882,0.314339,0.243613,0.353632,460.000000,420.000000,40.000000,31.000000,324.000000,0.000000,0.000000,0.000000,0.000000,0.516415,0.561882,0.314339,0.243613,0.353632,460.000000,420.000000,40.000000,31.000000,324.000000,0.000000,0.000000,0.000000,0.000000;
#CREDIT:MILEN;
#DISPLAYBPM:125.000000;
#NOTES:
00000000
00000000
00000000
00000000
,
00000000
00000000
00000000
00000000
,
00000000
00000000
00000000
00000000
,
00000000
00000000
00000000
00000000
,
00000000
00000000
00021000
00100000
,
00000000
00000000
00030010
MMMMMMMM
00012000
00000000
00000100
00000000
,
00000000
00000000
01003000
MMMMMMMM
00021000
00000000
00100000
00000000
,
00000000
00000000
00000000
00000000
00030010
00000000
MMMMMMMM
00000000
00010000
00000000
00001000
01000000
00002000
00000000
00000000
00000000
,
00013000
00000000
00000000
00000000
00110000
00000000
00000000
00000000
00100000
00000000
10000000
01000000
00000000
10000000
00010000
00000000
,
00100000
00000000
01000000
00000000
00010000
00000000
00001000
00000100
00000000
00000001
00000100
00000000
00000020
00000000
00000000
00000000
,
00001030
00000000
00000000
00000000
00001100
00000000
MMMMMMMM
00000000
00000001
00000000
00000000
00000001
00000000
00000000
00000100
00001000
,
00000100
00000000
00000010
00000000
00010000
00000000
00001000
00000000
00100000
00000000
02000000
00000000
00000000
00000000
13000000
00100000
,
10000000
00010000
01010000
10000000
01000000
00100000
00010000
01000000
,
00100000
00010000
00001000
00000100
00000010
00001000
00000100
00000010
,
00000001
00000000
MMMMMMMM
00000000
00000101
00000000
00001000
00000100
00000000
00010000
00001000
00000000
00100000
00000000
00010000
01000000
,
00000000
00001000
00010000
00000000
00000100
00000000
00001000
00000010
00000000
00001000
00000001
00000000
00000200
00000000
00000000
00000000
,
00001300
00000000
00000000
MMMMMMMM
00000000
00000000
00001000
00000000
00010000
00000000
00100000
00000000
10000000
00000000
00000000
00000000
10000000
00000000
01000000
00000000
00000000
00000000
01000000
00000000
,
00100000
00000000
00100000
00001000
00010000
00000100
00000010
00000000
00000100
00000010
00000001
00000100
,
00001000
00010000
00001000
00010000
01000000
10000000
00100000
00000000
00000000
00100000
10000000
01000000
,
00010000
00000000
00010000
00001000
00000000
00001000
00000010
00000000
00000010
00000100
00000001
00000100
,
00001000
00000000
00000010
00000000
00001000
00000000
00001010
00000000
00000000
MMMMMMMM
00000000
00000000
00011000
00000000
00000000
MMMMMMMM
00000000
00000000
00110000
00000000
00000000
MMMMMMMM
00000000
00000000
,
00011000
MMMMMMMM
00001100
MMMMMMMM
00011000
MMMMMMMM
01010000
MMMMMMMM
,
11000000
MMMMMMMM
10000000
01000000
00100000
00010000
01000000
00100000
,
00010000
00000000
00001000
00000000
00000010
00000001
00000010
00000000
00001000
00000000
00010000
00000000
00100000
10000000
00100000
00000000
,
00020000
00001000
00000010
00001000
,
00100000
00000000
00032000
00000000
00000000
00000000
00003100
00000100
,
00000100
00000001
00000010
00000000
00000001
00000000
00000100
00001000
00000000
00010000
00001000
00000000
00100000
00000000
00010000
01000000
,
00000000
00100000
01000000
00000000
10000000
00000000
01000000
00010000
00000000
00100000
01000000
00000000
00010000
00000000
00001000
00010000
,
00001000
00000010
00000011
MMMMMMMM
00001100
MMMMMMMM
01010000
MMMMMMMM
,
10100000
00000000
MMMMMMMM
00000000
10000000
00000000
01000000
00100000
01000000
00000000
00010000
00000000
00001000
00000000
00100000
00000000
,
00010000
00000000
01000000
00000000
00001000
00000000
00010000
00000100
00000000
00001000
00000100
00000000
00000020
00000000
00000000
00000000
,
00000031
MMMMMMMM
00000101
MMMMMMMM
00001100
MMMMMMMM
00011000
MMMMMMMM
,
00220000
00330000
00100000
10000000
01000000
00100000
00010000
01000000
,
00100000
MMMMMMMM
10000000
01000000
00010000
00001000
00000010
00000001
,
00001000
MMMMMMMM
00000010
00000100
00000001
00000010
00000100
00001000
,
00000010
MMMMMMMM
00010000
00001000
00000100
00000001
00000010
00001000
,
00010000
00000000
00100000
00000000
10000000
00000000
01000000
00010000
01000000
00000000
10000000
00000000
00100000
00010000
00100000
00000000
,
10000000
00000000
01000000
00000000
00100000
00000000
00010000
01000000
00010000
00000000
00100000
00001000
00000000
00010000
00000000
00010000
,
00000000
00011000
00000000
00000000
00001000
00000000
00000100
00000001
00000100
00000000
00000010
00000000
00001000
00000100
00001000
00000000
,
00000010
00000000
00000100
00000000
00000001
00000000
00000010
00001000
00000010
00000000
00001000
00010000
00000000
00001000
00000000
00001000
,
00000000
00101000
00000000
00000000
00120000
00000000
00000000
00000000
00000000
00000000
00000000
00000000
10030000
00000000
01000000
00000000
,
00010000
00001000
00000020
00000000
00000000
00000000
00000032
00000000
,
00000103
MMMMMMMM
00000120
00000000
00000000
00000000
00010030
00001000
,
00100000
01000000
20000000
00000000
00000000
00000000
00000000
00000000
,
30100000
00100000
00020000
00000000
00032000
00000000
00003200
00000000
,
00000302
00000023
00000230
00002300
,
00023000
00000000
01030000
00100000
10000000
01000000
00010000
00001000
,
00000010
00000000
00000001
00000000
00000100
00000000
00001000
00000000
00010000
00000000
00100000
10000000
01000000
00000000
10000000
01000000
,
00100000
00001000
00022000
00000000
00000000
00000000
00000000
00000000
,
00033000
MMMMMMMM
00011000
00000000
MMMM0000
00000000
0000MMMM
00000000
,
MMMM0000
00000000
00000000
00000000
00011000
00000000
00011000
00000000
MMMMMMMM
00000000
00010000
00000000
10000000
00000000
00100000
00010000
,
00000000
00001000
00010000
00000000
00000100
00000000
00001000
00000010
00000000
00000100
00000010
00000000
00000001
00000000
00000010
00001000
,
00000000
00000100
00000010
00000000
00001000
00000000
00010000
00001000
00010000
00000000
01000000
00000000
11000000
00000000
MMMMMMMM
00000000
,
00110000
00000000
MMMMMMMM
00000000
00001010
00000000
MMMMMMMM
00000000
00000101
00000000
MMMMMMMM
00000000
00000001
00000000
00000010
00000100
,
00000010
00000000
00001000
00000000
00010000
00000000
00000100
00000000
00001000
00000000
00000010
00000000
00010000
00000000
00001000
00100000
,
00000000
00010000
00100000
00000000
02000000
00000000
00000000
00000000
13000000
00000000
00000000
00000000
10100000
00000000
MMMMMMMM
00000000
,
00110000
MMMMMMMM
00011000
MMMMMMMM
00002200
00003300
00000100
00000001
,
00000010
00000100
00001000
00010000
01000000
MMMMMMMM
00100000
10000000
,
01000000
00100000
00010000
00001000
00000010
MMMMMMMM
00000100
00000001
,
00000010
00010000
00001000
00100000
10000000
MMMMMMMM
01000000
10000000
,
00100000
00000000
00001000
00000000
00010000
00000000
00000010
00000000
00000001
00000000
MMMMMMMM
00000000
00000100
00000000
00000001
00000010
,
00000001
00000000
00000100
00000000
00001000
00010000
00001000
00000000
00100000
00000000
01000000
00000000
10000000
00000000
00100000
00010000
,
00100000
00000000
10000000
01000000
00000000
01000000
00000000
00100000
00000000
00101000
00000000
00000000
00001000
00000000
00010000
00000100
,
00010000
00000000
00000010
00000000
00000100
00000001
00000100
00000000
00001000
00000000
00010000
00000000
00100000
00000000
10000000
01000000
,
10000000
00000000
00100000
00010000
00000000
00001000
00000000
00000100
00000001
00000100
00000002
00000000
00000000
00000000
00000000
00000000
,
00000003
00000000
00000000
00000000
;
