#TITLE:FRONTLINERS;
#SUBTITLE:;
#ARTIST:Jehezukiel;
#TITLETRANSLIT:;
#SUBTITLETRANSLIT:;
#ARTISTTRANSLIT:;
#GENRE:WORLD MUSIC;
#CREDIT:MUINELIM;
#BANNER:FRONTLINERS.png;
#BACKGROUND:FRONTLINERS-bg.png;
#JACKET:FRONTLINERS-jacket.png;
#LYRICSPATH:;
#CDTITLE:;
#MUSIC:FRONTLINERS.ogg;
#OFFSET:1.026000;
#SAMPLESTART:51.147911;
#SAMPLELENGTH:14.846828;
#LASTBEATHINT:0.069767;
#SELECTABLE:YES;
#BPMS:0.000000=161;
#STOPS:
;
#BGCHANGES:0.000=FRONTLINERS-bg.png=1.000=0=0=1====#000000=#000000,
3.000=FRONTLINERS.avi=1.000=1=0=0=StretchNoLoop==CrossFade==,
99999=-nosongbg-=1.000=0=0=0 // don't automatically add -songbackground-
;
#KEYSOUNDS:;
#ATTACKS:;

//---------------dance-single - ----------------
#NOTES:
     dance-single:
     :
     Challenge:
     17:
     0.835513,0.985718,0.518415,0.160636,0.627939,801.000000,730.000000,71.000000,22.000000,196.000000,0.000000,0.835513,0.985718,0.518415,0.160636,0.627939,801.000000,730.000000,71.000000,22.000000,196.000000,0.000000:
0000
0000
0000
0000
,
0000
0000
0000
0000
,
0000
0000
0000
0000
,
0000
0000
0000
0000
,
0000
0000
0000
0000
,
0101
1000
0100
1100
0001
0100
0202
0000
,
0000
0000
0000
0000
0000
0000
0000
0000
0303
0000
0000
0000
0001
0100
0010
0000
,
1010
0001
0010
0011
1000
0010
2020
0030
,
0010
0100
0001
0100
,
3020
0000
0000
0000
0001
0000
0000
0000
0130
0001
1000
0010
0200
0000
0000
0000
,
0301
0010
0100
1000
0001
0100
0010
1000
,
0100
0010
0001
1000
0010
0100
0001
0010
,
0100
1000
0010
0001
0010
1000
0100
0001
,
0100
1000
0010
0100
0001
1000
0100
0010
,
0011
0000
0000
0101
0000
0000
1100
0000
0000
1010
0000
0010
0100
0000
0000
1100
,
0000
0000
0101
0000
0000
0011
0000
0000
1010
0000
0000
1001
0000
0000
0110
0000
,
0110
0000
0010
0000
1000
0000
0001
0000
0100
0010
0100
0010
0100
0010
0100
0010
,
1000
0001
0020
0000
0031
1000
0200
0000
1300
0010
0100
0001
1000
0000
1010
0000
,
0102
0000
0000
0000
2003
0000
3100
0010
0000
0210
0000
0000
0320
0000
0130
0000
,
0010
0001
0100
1000
0100
0001
0010
MMMM
,
0100
1000
0010
0001
0010
1000
0100
MMMM
,
0001
0100
1000
0001
0010
1000
0100
MMMM
,
1000
0010
0001
1000
0100
0001
0010
MMMM
,
0110
0010
0001
0100
1000
0100
0001
MMMM
,
0110
0100
1000
0010
0001
0010
1000
MMMM
,
1001
0001
0100
1000
0010
0001
0100
0010
,
1010
MMMM
1100
MMMM
0101
MMMM
0011
MMMM
,
MMMM
1000
0010
0100
1000
0100
0010
1000
,
MMMM
0001
0100
0010
0001
0010
0100
0001
,
MMMM
1000
0100
0010
1000
0010
0100
1000
,
MMMM
0001
0010
0100
0001
0100
0010
0001
,
0101
0000
0000
1100
0000
0000
1010
0000
0000
0011
0000
0000
1001
0000
0110
0000
,
1010
0000
0000
1100
0000
0000
0101
0000
0000
0011
0000
0000
0110
0000
1001
0000
,
0120
0100
1000
1000
0001
0001
1000
1030
,
1000
0000
0000
0100
0000
0000
0010
0000
0000
0001
0000
0000
0100
0000
0010
0000
0100
0000
0010
0000
0000
1000
0000
0000
0001
0000
0000
1000
0000
0000
0001
0000
0000
0100
0000
0000
0010
0000
0000
1000
0000
0000
0001
0000
0000
0010
0000
0000
,
0100
1000
0010
0000
1000
0000
0100
0000
0010
0000
0100
0000
1000
0010
0100
0000
,
1000
0100
0010
1000
0100
0010
0011
MMMM
,
0001
0100
0010
0000
0001
0000
0010
0000
0100
0000
0001
0000
0010
0100
0001
0000
,
0100
0000
0010
0000
0001
0000
0101
0000
MMMM
0000
0100
0010
1000
0000
0100
0000
,
0010
0000
0100
0000
1000
0000
0010
0000
0100
0010
1000
0000
0100
0000
0010
0000
,
0100
0000
1000
0000
0010
0000
0100
0000
0110
0000
MMMM
0000
0100
0010
0001
0000
,
0010
0000
0100
0000
0001
0000
0010
0000
0100
0010
0001
0000
0100
0000
0010
0000
,
0001
0000
0010
0000
0100
0010
0100
0010
1000
0001
0100
0000
1000
0000
0100
0000
,
0001
0000
0010
0000
1000
0010
0001
0000
0100
0000
1000
0000
0001
0000
0010
0000
,
1000
0000
1100
0000
MMMM
0000
1000
0100
0001
0000
0100
0000
1000
0000
0010
0000
,
0001
0000
0010
0000
1000
0100
0001
0000
0100
0000
1000
0000
0010
0000
0001
0000
,
0010
0100
0010
0100
0001
0010
1000
0000
0010
0000
0001
0000
0100
0000
1000
0000
,
0100
0001
0010
0000
1000
0000
0010
0000
0001
0000
0100
0000
0010
0000
1010
0000
,
MMMM
0000
0010
1000
0100
0000
0001
0000
0100
0000
0010
0000
MMMM
0000
0010
0001
,
0100
0000
1000
0000
0100
0000
0001
0000
0010
0000
0100
0000
1000
0010
1000
0010
,
0100
0001
0010
0000
MMMM
0000
0010
1000
0100
0000
MMMM
0000
0001
0010
1000
0000
,
MMMM
0000
1000
0100
0001
0000
MMMM
0000
0001
0010
0001
0010
0100
1000
0100
1000
,
0010
0100
0010
0000
1000
0100
1000
0000
0001
0100
0001
0000
0010
0100
0010
0000
,
0001
0010
0001
0000
1000
0010
1000
0000
MMMM
0000
0010
0100
0010
0000
0100
0001
,
0100
0000
0001
0010
0001
0000
0100
1000
0100
0000
0001
0010
0001
0000
0010
0100
,
0010
0000
0100
1000
0100
0000
0010
0001
0010
0000
MMMM
0000
0001
0100
0001
0000
,
0010
1000
0010
0000
0100
0010
0100
0000
0010
0001
0010
0000
0100
1000
0100
0000
,
1000
0010
1000
0000
0010
0100
0010
0100
0001
0010
0100
0010
0001
0100
0010
0100
,
0001
0010
0100
0010
0001
0000
0100
0010
1000
0000
0001
0100
0010
0000
0100
0001
,
1000
0000
1001
0000
MMMM
0000
0001
1000
0100
0010
0100
1000
0010
0100
0010
1000
,
0100
0010
0100
1000
0010
0100
0001
0000
0010
0100
1000
0000
0001
0010
0100
0000
,
0010
0001
0010
0001
0100
0010
1000
0001
0010
0100
1000
0010
0100
0001
1000
0100
,
0010
0000
0001
0100
1000
0000
0001
0010
1000
0000
0100
0010
0100
0000
0110
0000
,
MMMM
0000
0010
0001
0100
0000
1000
0000
0001
0000
0010
0000
1000
0000
0100
0000
,
0010
0100
0010
0100
1000
0010
1000
0010
0100
0001
0100
0001
0010
0100
1000
0010
,
0100
0001
1000
0000
0100
0000
0001
0000
1000
0000
0010
0000
0001
0000
MMMM
0000
,
0010
0001
1000
0000
0010
0000
0001
0000
1000
0000
0100
0000
0001
0000
MMMM
0000
,
0100
1000
0001
0000
0100
0000
1000
0000
0001
0000
0010
0000
1000
0000
MMMM
0000
,
0010
1000
0001
0000
0010
0000
1000
0000
0001
0000
0100
0000
1000
0000
MMMM
0000
,
1010
0000
0010
0000
0110
0000
0100
0001
0000
0010
0100
0010
0001
0000
MMMM
0000
,
0011
0000
0001
0000
0101
0000
0100
0010
0000
1000
0100
0010
0100
0000
MMMM
0000
,
1100
0000
1000
0000
1001
0000
0001
0100
0000
0010
1000
0010
0100
0000
MMMM
0000
,
0101
MMMM
0011
MMMM
1010
MMMM
1100
MMMM
,
MMMM
0000
0001
0000
1000
0100
0010
0000
0100
1000
0010
0000
0100
0001
0010
0000
,
MMMM
0000
0100
0000
0010
0001
0100
0000
0010
1000
0001
0000
0010
0100
1000
0000
,
MMMM
0000
0001
0000
0100
0010
0001
0000
0010
0100
0001
0000
0010
0100
1000
0000
,
MMMM
0000
0010
0000
0001
0010
0100
0000
0001
0010
0100
0000
1000
0010
0100
0000
,
MMMM
0000
0001
0000
1000
0100
0010
0100
0010
0100
1000
0010
0100
0000
0101
0000
,
MMMM
0000
0001
0000
0100
0010
0001
0010
0001
0010
0100
0001
1000
0000
1100
0000
,
MMMM
0000
0100
0000
0010
0001
0010
0001
1000
0100
1000
0100
0010
0001
1000
0010
,
0100
0001
0010
0100
0010
0100
1000
0010
0001
0010
1000
0100
0010
0000
MMMM
0000
,
0011
1000
0010
1010
0001
0010
0022
0000
,
0000
0000
0000
0000
0000
0000
0000
0000
0033
0000
0000
0000
0010
0100
1000
0000
,
1100
0001
0100
0101
1000
0010
2020
0000
,
0000
0000
0000
0000
3030
0000
0000
0000
1000
0100
0010
0001
0200
0000
0310
0000
,
0110
1000
0001
0110
0001
1000
2002
0000
,
0000
0000
0000
0000
0000
0000
0000
0000
3003
0000
0000
0000
1000
0100
0001
0000
,
0101
0100
1000
1010
0010
0100
2002
0000
,
0000
0000
0000
0000
,
0000
0000
0000
0000
0000
0000
3003
MMMM
,
MMMM
0000
0000
0000
;

//---------------dance-double - ----------------
#NOTES:
     dance-double:
     :
     Challenge:
     17:
     0.772928,0.952861,0.481907,0.167937,0.514764,741.000000,675.000000,66.000000,23.000000,480.000000,0.000000,0.772928,0.952861,0.481907,0.167937,0.514764,741.000000,675.000000,66.000000,23.000000,480.000000,0.000000:
00000000
00000000
00000000
00000000
,
00000000
00000000
00000000
00000000
,
00000000
00000000
00000000
00000000
,
00000000
00000000
00000000
00000000
,
00000000
00000000
00000000
00000000
,
00011000
0000MMMM
MMMM0000
10010000
MMMM0000
0000MMMM
00022000
00000000
,
00000000
00000000
00000000
00000000
00000000
00000000
00000000
00000000
00033000
00000000
00000000
00000000
00010000
00001000
00010000
00000000
,
00011000
MMMM0000
0000MMMM
00001001
0000MMMM
MMMM0000
00012000
00000000
,
00000010
00023000
00100000
00032000
,
00003020
00000000
00000000
00000000
00000032
00000000
00000000
00000000
00000103
00001000
00000100
00001000
00020000
00000000
00000000
00000000
,
00031000
00100000
01000000
10000000
00010000
00100000
01000000
00010000
,
00001000
00000010
00000100
00001000
00000001
00000010
00000100
00010000
,
00001000
00000100
00000010
00010000
00001000
01000000
00100000
00010000
,
00001000
00100000
01000000
10000000
00100000
00010000
00001000
00000010
,
00000011
00000000
00000000
00000101
00000000
00000000
00001100
00000000
00000000
00011000
00000000
00010000
01000000
00000000
00000000
11000000
,
00000000
00000000
10100000
00000000
00000000
00110000
00000000
00000000
00011000
00000000
00000000
00001100
00000000
00000000
00000101
00000000
,
00000101
00000000
00000001
00000000
00001000
00000000
00000010
00000000
00010000
00001000
00010000
00001000
00010000
00001000
00010000
00001000
,
00100000
01000000
20000000
00000000
31000000
00100000
00020000
00000000
00130000
01000000
10000000
00100000
00010000
00000000
00001000
00000000
,
00021000
00000000
00000000
00000000
00030200
00000000
00000310
00000001
00000000
00000201
00000000
00000000
00002300
00000000
00013000
00000000
,
00010000
00100000
10000000
00100000
00010000
00001000
00010000
MMMMMMMM
,
00001000
00000010
00000001
00000010
00001000
00010000
00001000
MMMMMMMM
,
00010000
01000000
10000000
01000000
00010000
00001000
00010000
MMMMMMMM
,
00001000
00000100
00000001
00000100
00001000
00010000
00001000
MMMMMMMM
,
00011000
00010000
00100000
10000000
01000000
00010000
00001000
MMMMMMMM
,
00011000
00001000
00000010
00000001
00000100
00001000
00010000
MMMMMMMM
,
00011000
00010000
01000000
10000000
00100000
00010000
00001000
00000100
,
00000101
MMMMMMMM
00010010
MMMMMMMM
01001000
MMMMMMMM
10100000
MMMMMMMM
,
MMMMMMMM
10000000
01000000
00010000
00001000
00000010
00000001
00001000
,
MMMMMMMM
00000001
00000100
00001000
00010000
00100000
10000000
00010000
,
MMMMMMMM
10000000
00100000
00010000
00001000
00000100
00000001
00001000
,
MMMMMMMM
00000001
00000010
00001000
00010000
01000000
10000000
00100000
,
01100000
00000000
00000000
01010000
00000000
00000000
00110000
00000000
00000000
00101000
00000000
00000000
00011000
00000000
00011000
00000000
,
00010010
00000000
00000000
00001010
00000000
00000000
00001100
00000000
00000000
00000110
00000000
00000000
00000011
00000000
00000011
00000000
,
00000101
00001000
00010000
00010000
00100000
00100000
10000000
10000000
,
01000000
00100000
00010000
01000000
00001000
00010000
00000100
00000010
00000001
00000100
00000010
00010000
00001000
00100000
01000000
10000000
,
00100000
01000000
00100000
00000000
10000000
00000000
01000000
00000000
00010000
00000000
01000000
00000000
00010000
00001000
00010000
00000000
,
00001000
00000010
00001000
00000010
00000001
00000100
00000110
MMMMMMMM
,
00000010
00000100
00000010
00000000
00001000
00000000
00000100
00000000
00010000
00000000
00001000
00000000
01000000
00100000
01000000
00000000
,
00010000
00000000
10000000
00000000
01000000
00000000
01100000
00000000
MMMMMMMM
00000000
00100000
01000000
10000000
00000000
00100000
00000000
,
00010000
00000000
00100000
00000000
00010000
00000000
00001000
00000000
00000100
00000001
00000010
00000000
00001000
00000000
00000010
00000000
,
00001000
00000000
00010000
00000000
00100000
00000000
10000000
00000000
11000000
00000000
MMMMMMMM
00000000
01000000
00010000
00001000
00000000
,
00000100
00000000
00001000
00000000
00000100
00000000
00000001
00000000
00000010
00001000
00010000
00000000
00100000
00000000
00010000
00000000
,
00100000
00000000
10000000
00000000
01000000
00100000
01000000
00100000
01000000
10000000
00100000
00000000
00010000
00000000
00100000
00000000
,
10000000
00000000
01000000
00000000
00010000
00001000
00010000
00000000
01000000
00000000
10000000
00000000
00100000
00000000
00010000
00000000
,
00001000
00000000
00000010
00000000
MMMMMMMM
00000000
00000010
00000001
00000100
00000000
00001000
00000000
00010000
00000000
00001000
00000000
,
00000100
00000000
00000001
00000000
00000010
00000100
00000010
00000000
00001000
00000000
00010000
00000000
01000000
00000000
10000000
00000000
,
00100000
01000000
00100000
01000000
00010000
00100000
01000000
00000000
10000000
00000000
00100000
00000000
00010000
00000000
00001000
00000000
,
00000100
00000001
00000010
00000000
00001000
00000000
00010000
00000000
00001000
00000000
00000100
00000000
00000001
00000000
00000011
00000000
,
MMMMMMMM
00000000
00000010
00000100
00010000
00000000
00001000
00000000
00100000
00000000
01000000
00000000
MMMMMMMM
00000000
01000000
00100000
,
00001000
00000000
00010000
00000000
00000100
00000000
00000010
00000000
00000001
00000000
00000100
00000000
00001000
00010000
00001000
00010000
,
00100000
10000000
01000000
00000000
MMMMMMMM
00000000
01000000
00010000
00001000
00000000
MMMMMMMM
00000000
00001000
00000010
00000001
00000000
,
MMMMMMMM
00000000
00000001
00000100
00001000
00000000
MMMMMMMM
00000000
00001000
00010000
00001000
00010000
00001000
00010000
00001000
00010000
,
00100000
10000000
01000000
00000000
00100000
00000000
01000000
00000000
10000000
00100000
00010000
00000000
00001000
00000000
00100000
00000000
,
00010000
01000000
00001000
00000000
00010000
00000000
00000100
00000000
MMMMMMMM
00000000
00000100
00000010
00000001
00000000
00000100
00000000
,
00001000
00000000
00010000
00000100
00001000
00000000
00000010
00000000
00010000
00000000
00001000
00100000
01000000
00000000
10000000
00000000
,
00100000
00000000
00010000
00100000
01000000
00000000
00010000
00000000
00100000
00000000
MMMMMMMM
00000000
00100000
01000000
10000000
00000000
,
00100000
00000000
00010000
00000000
00100000
01000000
00010000
00000000
00001000
00000000
00000010
00000000
00000100
00000001
00000010
00000000
,
00000001
00000000
00000100
00000000
00001000
00010000
00001000
00010000
00100000
10000000
01000000
00000000
00100000
01000000
10000000
00000000
,
00100000
10000000
01000000
00000000
00100000
01000000
10000000
00000000
00100000
00000000
00010000
00000000
00001000
00000000
00000100
00000000
,
00000001
00000000
00001001
00000000
MMMMMMMM
00000000
00001000
00000100
00000010
00000000
00000001
00000100
00000010
00000000
00001000
00000100
,
00010000
00000000
00001000
00010000
00100000
00000000
10000000
00000000
01000000
00000000
00100000
00000000
00001000
00000000
00010000
00000000
,
00000100
00000010
00000100
00000010
00000001
00000100
00001000
00000000
00000100
00001000
00010000
00000000
00001000
00010000
00100000
00000000
,
00010000
00100000
10000000
00000000
01000000
00010000
00001000
00000000
00000010
00001000
00010000
00000000
00001000
00000000
00011000
00000000
,
MMMMMMMM
00000000
00010000
01000000
10000000
00000000
00100000
00000000
00010000
00000000
00001000
00000000
00000100
00000000
00000001
00000000
,
00000010
00001000
00000010
00001000
00010000
00001000
00010000
00001000
00010000
00100000
00010000
00100000
00010000
00001000
00010000
00001000
,
00000010
00000001
00000100
00000000
00000001
00000000
00000010
00000000
00000001
00000000
00000100
00000000
00001000
00000000
MMMMMMMM
00000000
,
00100000
10000000
01000000
00000000
10000000
00000000
00100000
00000000
10000000
00000000
01000000
00000000
00010000
00000000
MMMMMMMM
00000000
,
00000100
00000001
00000010
00000000
00000001
00000000
00000100
00000000
00000001
00000000
00000010
00000000
00001000
00000000
MMMMMMMM
00000000
,
01000000
10000000
00100000
00000000
10000000
00000000
01000000
00000000
10000000
00000000
00100000
00000000
00010000
00000000
MMMMMMMM
00000000
,
00011000
00000000
00000100
00000000
00000010
00000000
00000001
00000100
00000000
00001000
00000100
00000010
00000100
00000000
MMMMMMMM
00000000
,
00000110
00000000
00001000
00000000
00010000
00000000
00100000
10000000
00000000
01000000
00100000
01000000
10000000
00000000
MMMMMMMM
00000000
,
10100000
00000000
00010000
00000000
00001000
00000000
00000010
00000001
00000000
00000100
00000010
00000100
00001000
00000000
MMMMMMMM
00000000
,
01001000
MMMMMMMM
00010100
MMMMMMMM
00101000
MMMMMMMM
00010010
MMMMMMMM
,
MMMMMMMM
00000000
00010000
00000000
00001000
00000100
00001000
00000000
00010000
00000000
00001000
00000010
00001000
00000000
00010000
00000000
,
MMMMMMMM
00000000
00001000
00000000
00010000
00100000
00010000
00000000
00001000
00000000
00010000
01000000
00010000
00000000
00001000
00000000
,
MMMMMMMM
00000000
00010000
00000000
00001000
00000100
00000001
00000000
00001000
00000000
00000001
00000010
00001000
00000000
00010000
00000000
,
MMMMMMMM
00000000
00001000
00000000
00010000
00100000
10000000
00000000
00010000
00000000
10000000
01000000
00010000
00000000
00001000
00000000
,
MMMMMMMM
00000000
00010000
00000000
00001000
00000010
00000100
00000010
00000100
00000010
00001000
00000000
00010000
00000000
00010100
00000000
,
MMMMMMMM
00000000
00001000
00000000
00010000
00100000
01000000
00100000
01000000
00100000
00010000
00000000
00001000
00000000
01001000
00000000
,
MMMMMMMM
00000000
00010000
00000000
00001000
00000100
00001000
00000100
00000001
00000100
00000001
00000100
00000001
00000010
00000001
00000010
,
00001000
00000010
00001000
00000010
00001000
00010000
00001000
00010000
00100000
10000000
01000000
00100000
00010000
00000000
MMMMMMMM
00000000
,
00011000
0000MMMM
MMMM0000
10010000
MMMM0000
0000MMMM
00022000
00000000
,
00000000
00000000
00000000
00000000
00000000
00000000
00000000
00000000
00033000
00000000
00000000
00000000
00010000
00001000
00010000
00000000
,
00011000
MMMM0000
0000MMMM
00001001
0000MMMM
MMMM0000
00022000
00000000
,
00000000
00000000
00000000
00000000
00033000
00000000
00000000
00000000
00001000
00010000
00001000
00000010
00000002
00000000
00001003
00000000
,
00001001
0000MMMM
MMMM0000
00011000
0000MMMM
MMMM0000
20020000
00000000
,
00000000
00000000
00000000
00000000
00000000
00000000
00000000
00000000
30030000
00000000
00000000
00000000
00010000
01000000
00100000
00000000
,
01100000
MMMM0000
0000MMMM
00000110
0000MMMM
MMMM0000
00022000
00000000
,
00000000
00000000
00000000
00000000
,
00000000
00000000
00000000
00000000
00000000
00000000
00030000
MMMM3000
,
0000MMMM
00000000
00000000
00000000
;

//---------------dance-single - ----------------
#NOTES:
     dance-single:
     :
     Beginner:
     3:
     0.115783,0.224251,0.007302,0.000000,0.000000,111.000000,110.000000,1.000000,0.000000,0.000000,0.000000,0.115783,0.224251,0.007302,0.000000,0.000000,111.000000,110.000000,1.000000,0.000000,0.000000,0.000000:
// measure 0
0000
0000
0000
0000
,  // measure 1
0000
0000
0000
0000
,  // measure 2
0000
0000
0000
0000
,  // measure 3
0000
0000
0000
0000
,  // measure 4
0000
0000
0000
0000
,  // measure 5
1000
0000
0000
1000
,  // measure 6
0000
0000
0000
0000
,  // measure 7
0001
0000
0000
0001
,  // measure 8
0000
0100
0000
0010
,  // measure 9
0000
1000
0000
0010
,  // measure 10
0010
0000
0100
0000
,  // measure 11
0010
0000
0100
0000
,  // measure 12
0001
0000
1000
0000
,  // measure 13
0001
0000
1000
0000
,  // measure 14
0010
0000
0100
0000
,  // measure 15
0001
0000
1000
0000
,  // measure 16
0010
0000
0010
0000
,  // measure 17
0010
0010
0010
0000
,  // measure 18
0110
0000
0000
0000
,  // measure 19
1000
0000
0000
0000
,  // measure 20
1000
0000
0000
0000
,  // measure 21
0010
0000
0000
0000
,  // measure 22
0010
0000
0000
0000
,  // measure 23
0100
0000
0000
0000
,  // measure 24
0100
0000
0000
0000
,  // measure 25
0001
0000
0000
0000
,  // measure 26
0001
0000
0000
0000
,  // measure 27
1000
0000
0000
0000
,  // measure 28
0100
0000
0000
0000
,  // measure 29
0010
0000
0000
0000
,  // measure 30
0001
0000
0000
0000
,  // measure 31
1000
0000
1000
0000
,  // measure 32
0001
0000
0001
0000
,  // measure 33
1000
0000
0001
0000
,  // measure 34
1000
1000
1000
1000
,  // measure 35
1000
0000
0000
0000
,  // measure 36
0000
0000
0000
0000
,  // measure 37
0010
0000
0000
0000
,  // measure 38
0000
0000
0000
0001
,  // measure 39
0000
0000
0000
0000
,  // measure 40
0000
0000
0000
0100
,  // measure 41
0000
0000
0000
0000
,  // measure 42
0000
0000
1000
0000
,  // measure 43
0000
0000
0000
0000
,  // measure 44
0000
0000
0010
0000
,  // measure 45
0000
0000
0000
0000
,  // measure 46
0000
0001
0000
0000
,  // measure 47
0000
0000
0000
0000
,  // measure 48
0000
0100
0000
0000
,  // measure 49
0000
0000
0000
0000
,  // measure 50
1000
0000
0100
0000
,  // measure 51
0010
0000
0001
0000
,  // measure 52
0100
0000
0000
1000
,  // measure 53
0000
0000
0000
0010
,  // measure 54
0000
0000
0001
0000
,  // measure 55
0000
0000
0000
0100
,  // measure 56
0000
0000
1000
0000
,  // measure 57
0000
0000
0010
0000
,  // measure 58
0000
0001
0000
0000
,  // measure 59
0000
0000
0100
0000
,  // measure 60
0000
1000
0000
0000
,  // measure 61
0000
0010
0000
0000
,  // measure 62
0001
0000
0000
0000
,  // measure 63
0000
0100
0000
0010
,  // measure 64
0000
0100
0100
0100
,  // measure 65
0100
0000
0000
0000
,  // measure 66
0001
0000
0000
0000
,  // measure 67
1000
0000
0000
0000
,  // measure 68
0010
0000
0000
0000
,  // measure 69
0100
0000
0001
0000
,  // measure 70
1000
0000
0010
0000
,  // measure 71
0100
0000
0001
0000
,  // measure 72
1000
0000
0010
0010
,  // measure 73
0010
0000
0000
0000
,  // measure 74
0001
0000
0000
0000
,  // measure 75
0100
0000
0000
0000
,  // measure 76
1000
0000
0000
0000
,  // measure 77
0010
0000
0001
0000
,  // measure 78
0100
0000
1000
0000
,  // measure 79
0010
0000
0001
0000
,  // measure 80
0100
0000
1000
0000
,  // measure 81
0010
0000
0000
0010
,  // measure 82
0000
0000
0000
0000
,  // measure 83
0100
0000
0000
0100
,  // measure 84
0000
0000
0000
0000
,  // measure 85
0001
0000
0000
1000
,  // measure 86
0000
0000
0000
0000
,  // measure 87
1000
0000
0000
0001
;

//---------------dance-single - ----------------
#NOTES:
     dance-single:
     :
     Easy:
     7:
     0.323357,0.427144,0.146032,0.029206,0.000000,310.000000,290.000000,20.000000,4.000000,0.000000,0.000000,0.323357,0.427144,0.146032,0.029206,0.000000,310.000000,290.000000,20.000000,4.000000,0.000000,0.000000:
0000
0000
0000
0000
,
0000
0000
0000
0000
,
0000
0000
0000
0000
,
0000
0000
0000
0000
,
0000
0000
0000
0000
,
1000
0000
0000
1000
0000
0000
1000
0000
,
0000
0000
0000
1000
,
0001
0000
0000
0001
0000
0000
0001
0000
,
0010
0100
1000
0001
,
0010
0100
1000
0010
,
0100
0001
1000
0000
,
0100
1000
0001
0000
,
0010
0001
1000
0000
,
0010
1000
0001
0000
,
0100
0010
1000
0001
,
0100
0010
1000
0001
,
0100
0100
0100
0100
,
1000
0010
0001
1000
,
1001
0000
0000
0010
,
0100
0001
0100
0000
,
0010
1000
0010
0000
,
0100
0001
0100
0000
,
0010
1000
0010
0000
,
1000
0100
1000
0000
,
0001
0010
0001
0000
,
1000
0100
1000
0000
,
0001
0010
0001
0000
,
0100
0100
0010
1000
,
0001
0001
0010
0100
,
1000
1000
0001
0100
,
0010
0010
1000
0100
,
0010
0001
0100
0010
,
1000
0001
0010
0100
,
1000
0010
0100
0001
,
1001
1001
0110
1001
,
1000
0100
1000
0100
,
0001
0100
0001
0100
,
1000
0010
1000
0010
,
0001
0010
0001
0010
,
1000
0100
0001
0100
,
1000
0010
0001
0010
,
1000
0100
0001
0100
,
1000
0001
0001
0010
,
0001
0010
1000
0010
,
1000
0010
0001
0100
,
0001
0100
1000
0100
,
1000
0100
0001
0010
,
1000
0010
0001
0100
,
1000
0100
0001
0010
,
0100
1000
0010
0100
,
0220
0000
0000
0000
,
0000
0000
0000
0330
,
0010
1000
0001
0100
,
1000
0100
0001
1000
,
0010
0100
0001
0010
,
0001
0100
0010
1000
,
0100
0001
0100
1000
,
0010
0100
0001
1000
,
0100
0110
0010
0001
,
0100
0010
1000
0001
,
0010
0110
0100
1000
,
0010
0100
0001
1000
,
1001
0001
0100
0010
,
1000
0001
0100
1000
,
0010
0001
1000
0001
,
1001
0010
0100
0000
,
1001
0100
0010
0000
,
1001
0010
0100
0010
,
1001
0100
0010
0100
,
0101
0010
1000
0000
,
1100
0010
0001
0000
,
1010
0100
0001
0010
,
0011
0100
1000
0010
,
0010
0100
0001
0100
,
0010
1000
0010
0100
,
0001
0010
0001
0100
,
1000
0010
1000
0100
,
0001
0010
1000
0100
,
1000
0010
0001
0100
,
0001
0010
0100
1000
,
0010
0100
0001
1000
,
0100
0000
0000
0100
0000
0000
0100
0000
,
0000
0000
0000
0100
,
0010
0000
0000
0010
0000
0000
0010
0000
,
0000
0000
0001
1000
,
0010
0000
0000
0001
0000
0000
0100
0000
,
0000
0000
0000
1000
,
1001
0000
0000
0110
0000
0000
2002
0000
,
0000
0000
0000
0000
,
0000
0000
0000
0000
,
3003
0000
0000
0000
;

//---------------dance-single - ----------------
#NOTES:
     dance-single:
     :
     Medium:
     9:
     0.403675,0.525716,0.204445,0.204445,0.000000,387.000000,359.000000,28.000000,28.000000,0.000000,0.000000,0.403675,0.525716,0.204445,0.204445,0.000000,387.000000,359.000000,28.000000,28.000000,0.000000,0.000000:
0000
0000
0000
0000
,
0000
0000
0000
0000
,
0000
0000
0000
0000
,
0000
0000
0000
0000
,
0000
0000
0000
0000
,
1000
0000
0000
0001
0000
0000
2002
0000
,
0000
0000
3003
1000
,
0001
0000
0000
1000
0000
0000
2002
0000
,
3000
0100
0000
0100
,
0000
0000
0100
0000
0103
0100
0020
0000
,
1030
1000
0100
0100
,
0010
0010
0001
0001
,
0100
0100
0010
0010
,
1000
1000
0001
0001
,
0011
0100
0110
1000
,
1100
0001
0101
0010
,
0110
1000
1010
0001
,
1001
0110
1001
0110
,
1001
0000
0000
0000
0010
0010
0100
0010
,
0100
0001
0010
0001
,
0100
0001
0010
0001
,
0100
1000
0010
1000
,
0100
1000
0010
1000
,
0100
0001
0010
0001
,
0100
1000
0010
1000
,
0100
0001
0010
1000
,
0100
0000
0010
0000
1001
0000
1000
0001
,
1000
0000
0100
0000
0010
0000
0001
1000
,
0001
0000
0010
0000
0100
0000
1000
0010
,
1000
0000
0100
0000
0010
0000
0001
0100
,
0001
0010
0100
1000
,
0010
0010
0001
0001
,
0100
0100
1000
1000
,
0010
0100
0001
0000
0100
0010
1000
0000
,
0010
0100
0010
0100
0010
0100
0002
0000
,
1003
0100
0010
0011
,
1000
0000
0100
0000
0010
0000
0001
0001
,
0100
0010
1000
1010
,
0001
0000
0100
0000
0010
1000
0010
0000
,
1000
0100
0110
0001
,
1000
0000
0100
0000
0010
0010
0100
0000
,
0010
0001
1001
1000
,
0010
0000
0100
0001
0100
0000
0010
0000
,
1000
1100
0010
0001
,
1000
0000
0010
0100
0010
0000
0100
0000
,
0001
0011
0100
1000
,
0010
0100
0001
0000
1000
0000
0100
0000
,
0110
0001
1000
0010
,
0100
0001
0010
0000
0100
1000
0010
0000
,
0100
0001
0100
0001
0100
0001
0100
0001
,
2000
0000
0000
3020
,
0000
0000
0100
0130
,
1001
0000
0001
0000
1000
0010
0100
0000
,
0001
0000
1000
0000
0100
0010
0001
0000
,
1000
0000
0010
0100
0001
0000
0010
0000
,
0100
0000
1000
0000
0010
0100
0001
0000
,
1000
0000
0100
0010
0001
0000
1000
0000
,
0010
0000
0100
0001
0100
0010
1000
0000
,
0001
0000
0010
0100
1000
0000
0001
0000
,
0100
0000
0010
1000
0100
0000
1000
0000
,
0001
0010
0100
0000
0010
0000
0001
0000
,
0100
0010
1000
0000
0001
0000
1000
0100
,
0001
0100
1000
0001
,
0100
0010
0100
0010
0100
0010
0100
0010
,
2000
3002
0023
0230
,
1300
1000
0001
0100
,
1000
0001
0010
1000
,
0001
0001
1000
0010
,
0001
1000
0100
0001
,
1000
0010
1000
0000
0001
0000
0100
0000
,
0001
0010
0001
0000
1000
0000
0010
0000
,
0100
0010
0100
0000
0001
1000
0001
0000
,
0100
0010
1000
0001
0100
0010
1000
0000
,
0002
0103
0100
0010
,
2000
3100
0100
0010
,
0002
0013
0010
0100
,
2000
0000
3010
0000
0010
0000
0100
0001
,
2000
0000
3100
0000
0010
0000
0001
1000
,
0020
0000
0130
0000
0001
0000
1000
0010
,
0200
0000
0301
0000
0010
0000
0100
1000
,
0002
0103
0010
1000
,
0001
0000
0000
1000
0000
0000
2002
0000
,
0000
0000
3003
0001
,
1000
0000
0000
0001
0000
0000
2002
0000
,
0000
0000
3003
0000
1000
0001
0100
0000
,
0010
0000
0000
0100
0000
0000
0220
0000
,
0000
0000
0330
0100
,
0110
0000
0000
1001
0000
0000
0220
0000
,
0000
0000
0000
0000
,
0000
0000
0000
0000
,
0330
0000
0000
0000
;

//---------------dance-single - ----------------
#NOTES:
     dance-single:
     :
     Hard:
     14:
     0.635241,0.788574,0.394287,0.153334,0.200794,609.000000,555.000000,54.000000,21.000000,0.000000,0.000000,0.635241,0.788574,0.394287,0.153334,0.200794,609.000000,555.000000,54.000000,21.000000,0.000000,0.000000:
0000
0000
0000
0000
,
0000
0000
0000
0000
,
0000
0000
0000
0000
,
0000
0000
0000
0000
,
0000
0000
0000
0000
,
1001
0000
0000
0110
0000
0000
2002
0000
,
0000
0000
0000
0000
3003
0000
0001
0100
,
0110
0000
0000
1001
0000
0000
0120
0000
,
0001
0100
1000
0100
,
0001
0000
0100
0000
1030
0010
0102
0000
,
1003
0100
0010
0001
,
1000
0010
0100
0001
,
0010
0100
1000
0001
,
0100
0010
1000
0001
,
0100
0000
0000
0010
0000
0000
1000
0000
0000
0001
0000
0010
0100
0000
0000
1000
,
0000
0000
0010
0000
0000
0100
0000
0000
0001
0000
0000
1000
0000
0000
0100
0000
,
0010
0000
0001
0000
0100
0000
0010
0000
1000
0100
1000
0000
0001
0100
0001
0000
,
1000
0010
0000
0000
0001
0010
0000
0000
0100
0010
0100
0000
0010
0000
1000
0000
,
2002
0000
3003
0000
0010
0000
0000
0100
0000
0100
0000
0000
0001
0000
1000
0000
,
1001
0000
0001
0100
0010
1000
0001
0000
,
0010
0000
0100
1000
0010
0100
0001
0000
,
1000
0000
0100
0010
0001
1000
0010
0000
,
0100
0000
0001
0010
0100
1000
0010
0000
,
0110
0000
0100
0001
1000
0100
0010
0000
,
0011
0000
0001
0100
0010
1000
0001
0000
,
0101
0000
0100
0010
1000
0001
0010
0000
,
0110
0000
0000
0000
1001
0000
0000
0100
0000
0010
0000
0000
1000
0000
0001
0000
,
1001
1000
0010
0100
0001
0010
0100
0000
,
1100
1000
0010
0100
0001
1000
0100
0000
,
0110
0010
0001
1000
0010
0100
0001
0000
,
0011
0010
0100
1000
0010
0100
0001
0001
,
1000
0000
0000
0010
0000
0000
0100
0000
0000
0001
0000
0000
1000
0000
1000
0000
,
0100
0000
0000
0010
0000
0000
0001
0000
0000
1000
0000
0000
0010
0000
0010
0000
,
0100
0001
0100
1000
0100
0001
0010
0100
,
1000
0010
1000
0000
0001
0010
0001
0000
1000
0100
1000
0000
0001
0100
0001
0000
,
1000
0010
0001
0010
0100
0001
0011
0000
,
0010
0000
0100
0000
1000
0000
0010
0010
,
0100
0001
1000
0100
0010
0001
0101
0000
,
0100
0000
0000
0000
0010
0000
0000
0000
1000
0000
0001
0100
0001
0000
0010
0000
,
0100
1000
0010
0100
0110
0000
0010
0000
,
1000
0000
0001
0000
0010
0100
1100
1000
,
0001
0010
0100
1000
1010
0000
0010
0000
,
0100
0000
0000
0000
0001
0010
0001
0010
0001
0000
1000
0000
0010
0000
0100
0000
,
1000
0100
0101
0000
0001
0000
1000
0000
,
0010
0000
0000
0000
0001
0000
0010
0100
0010
0000
1000
0000
0001
0000
0010
0000
,
0100
1000
1010
0000
0010
0000
0100
0000
,
0001
1000
0001
1000
0001
0000
0100
0000
1000
0000
0100
0000
0010
0000
1000
0000
,
1100
0100
0010
0001
,
1000
0000
0010
0100
0010
0000
0100
0000
0001
0000
0010
0000
0100
0000
1000
0010
,
1000
0001
0100
1000
0100
0010
1000
0001
,
0201
0320
2030
3002
,
0023
0000
0230
0000
2300
0000
3010
0100
,
0101
0001
1000
0100
0001
0100
0110
0010
,
0001
0000
0100
0000
1000
0000
0100
0000
0010
0000
1000
0100
1000
0000
0001
0000
,
0100
1000
0100
0010
1010
1000
0100
0001
,
0100
0010
0001
0100
0010
0010
1010
1000
,
0001
0010
0100
1000
1001
0001
0100
0010
,
0001
0000
0010
0000
1000
0100
1000
0100
1000
0000
0010
0000
0100
0000
0001
0000
,
1000
0000
0100
0010
0100
0000
0001
0000
0100
0000
1000
0000
0010
0000
0001
0000
,
0010
0000
0100
0000
0001
0000
0010
0100
0010
0000
1000
0000
0010
0000
0001
0000
,
0100
0000
0010
1000
0010
0000
0100
0000
0001
0000
1000
0000
0100
0000
0010
0000
,
0001
0100
0001
0100
0001
0000
1000
0000
0010
0000
0100
0000
1000
0000
0100
0001
,
0100
0010
0001
0010
1000
0100
0010
0001
,
1001
0000
1000
0010
1000
0000
0001
0000
0010
0000
0100
0000
1000
0000
0010
0000
,
0100
0001
0100
0000
0010
1000
0010
0000
1000
0100
1000
0000
0001
0010
0001
0000
,
0010
0100
1000
0000
0010
0100
1000
0000
,
0100
0001
0010
0000
0100
0010
0001
0000
,
0100
0010
0001
0000
0010
1000
0100
0000
,
0001
0100
1000
0000
1000
0010
0001
0000
,
0001
0100
1000
0010
0100
0001
0010
0010
,
1000
0001
0100
0010
1000
0100
0010
0010
,
0001
0100
0010
1000
0001
0010
0100
1000
,
1010
0000
0000
0000
0101
0000
0000
0010
0000
0010
0000
0000
1000
0000
0100
0000
,
1100
0001
0100
0010
1000
0001
0010
0100
,
0110
0010
0001
0100
0010
1000
0001
0100
,
0101
1000
0010
0100
0001
1000
0100
0010
,
0110
0100
1000
0010
0001
0010
0100
0001
,
0011
0000
0100
1000
0100
0000
1000
0000
0010
0000
0100
0000
0001
0000
1000
0000
,
1010
0000
0100
0001
0100
0000
0010
0000
1000
0000
0001
0000
0010
0000
0100
0000
,
0110
0000
0001
1000
0001
0000
0100
0000
1000
0000
0100
0000
0001
0000
0010
0000
,
0100
1000
0100
0000
0010
0001
0010
0000
0001
0100
0001
0000
1000
0010
1000
0000
,
1001
0000
0000
0110
0000
0000
2002
0000
,
0000
0000
0000
0000
3003
0000
0001
0100
,
0110
0000
0000
1001
0000
0000
0220
0000
,
0000
0000
0000
0000
0330
0000
0000
0000
0010
1000
0010
0000
0100
0000
0001
0000
,
0011
0000
0000
1010
0000
0000
2200
0000
,
0000
0000
0000
0000
3300
0000
1000
0010
,
0011
0000
0000
0101
0000
0000
2002
0000
,
0000
0000
0000
0000
,
0000
0000
0000
0000
,
3003
0000
0000
0000
;

//---------------dance-double - ----------------
#NOTES:
     dance-double:
     :
     Easy:
     6:
     0.298323,0.328573,0.073016,0.029206,0.000000,286.000000,276.000000,10.000000,4.000000,0.000000,0.000000,0.298323,0.328573,0.073016,0.029206,0.000000,286.000000,276.000000,10.000000,4.000000,0.000000,0.000000:
00000000
00000000
00000000
00000000
,
00000000
00000000
00000000
00000000
,
00000000
00000000
00000000
00000000
,
00000000
00000000
00000000
00000000
,
00000000
00000000
00000000
00000000
,
00001000
00000000
00000000
00001000
00000000
00000000
00001000
00000000
,
00000000
00000000
00000000
00001000
,
00010000
00000000
00000000
00010000
00000000
00000000
00010000
00000000
,
00100000
01000000
00010000
00100000
,
00001000
00010000
00000100
00001000
,
00000010
00000000
00000100
00000000
,
00000001
00000000
00001000
00000000
,
00000100
00000000
00010000
00000000
,
00001000
00000000
00100000
00000000
,
01000000
00000000
10000000
00000000
,
00100000
00000000
00010000
00000000
,
00001000
00000000
00000010
00000000
,
00000001
00000100
00001000
00010000
,
00011000
00000000
00000000
00001000
,
00100000
01000000
00100000
00000000
,
00010000
01000000
00010000
00000000
,
00100000
00001000
00100000
00000000
,
00010000
01000000
00001000
00000000
,
00010000
00000100
00001000
00000000
,
00000010
00010000
00000010
00000000
,
00001000
00000100
00001000
00000000
,
00000010
00000100
00000010
00000000
,
00000100
00000001
00000010
00000000
,
00000010
00001000
00010000
00000000
,
00001000
00010000
00100000
00000000
,
00100000
10000000
01000000
00000000
,
01000000
00010000
00001000
00010000
,
00100000
00010000
00001000
00000100
,
00001000
00010000
00001000
00000010
,
00000001
00000100
00001000
00011000
,
00010000
01000000
00010000
01000000
,
10000000
01000000
10000000
01000000
,
00010000
01000000
00010000
00001000
,
00010000
00001000
00010000
00001000
,
00010000
01000000
10000000
01000000
,
00010000
00001000
00010000
00100000
,
10000000
00100000
00010000
00001000
,
00010000
00011000
00001000
00000010
,
00001000
00000010
00000001
00000010
,
00000001
00000010
00001000
00000010
,
00001000
00010000
00001000
00010000
,
00001000
00010000
00001000
00000010
,
00000001
00000010
00001000
00010000
,
00001000
00000100
00000001
00000100
,
00001000
00010000
00001000
00020000
,
00002000
00000000
00000000
00000000
,
00000000
00000000
00000000
00033000
,
00001000
00010000
00100000
01000000
,
00010000
00100000
00001000
00010000
,
00000100
00001000
00000010
00000100
,
00001000
00010000
00000100
00000010
,
00000001
00000100
00001000
00010000
,
00100000
10000000
01000000
00100000
,
00010000
01000000
00001000
00010000
,
00000010
00001000
00000100
00000010
,
00000001
00001000
00000010
00010000
,
00001000
01000000
00010000
10000000
,
00100000
01000000
00010000
00100000
,
00001000
00010000
00000100
00001000
,
00000010
00000100
00000001
00001000
,
00000100
00000010
00000011
00000000
,
00000010
00000100
00001100
00000000
,
00000100
00000010
00000001
00000100
,
00001000
00010000
00100000
10000000
,
01000000
00100000
00110000
00000000
,
00100000
01000000
11000000
00000000
,
01000000
00100000
00001000
00010000
,
00001000
00000010
00000001
00001000
,
00000100
00010000
00001000
00100000
,
00010000
01000000
00100000
10000000
,
01000000
00100000
00010000
01000000
,
00001000
00010000
00000010
00001000
,
00000100
00000010
00000001
00000100
,
00000010
00001000
00000100
00010000
,
00001000
00100000
00010000
01000000
,
00100000
10000000
01000000
00100000
,
00001000
00000000
00000000
00001000
00000000
00000000
00001000
00000000
,
00000000
00000000
00000000
00001000
,
00010000
00000000
00000000
00010000
00000000
00000000
00010000
00000000
,
00000000
00000000
00011000
00011000
,
00010000
00000000
00000000
01000000
00000000
00000000
00010000
00000000
,
00000000
00000000
00000000
00001000
,
00000100
00000000
00000000
00001000
00000000
00000000
00022000
00000000
,
00000000
00000000
00000000
00000000
,
00000000
00000000
00000000
00000000
,
00033000
00000000
00000000
00000000
;

//---------------dance-double - ----------------
#NOTES:
     dance-double:
     :
     Medium:
     10:
     0.394287,0.492859,0.182540,0.240953,0.000000,378.000000,353.000000,25.000000,33.000000,0.000000,0.000000,0.394287,0.492859,0.182540,0.240953,0.000000,378.000000,353.000000,25.000000,33.000000,0.000000,0.000000:
00000000
00000000
00000000
00000000
,
00000000
00000000
00000000
00000000
,
00000000
00000000
00000000
00000000
,
00000000
00000000
00000000
00000000
,
00000000
00000000
00000000
00000000
,
00001000
00000000
00000000
00010000
00000000
00000000
00022000
00000000
,
00000000
00000000
00033000
00001000
,
00010000
00000000
00000000
00001000
00000000
00000000
00022000
00000000
,
00003000
01000000
00000000
00000100
,
00000000
00000000
01000000
00000000
00030100
00000100
00000020
00000000
,
00000031
00000100
00000010
00001000
,
00000100
00010000
00001000
00100000
,
00010000
01000000
00100000
10000000
,
00010000
00100000
01000000
00010000
,
00011000
00000100
00011000
01000000
,
00011000
00000010
00011000
00100000
,
00011000
00000100
00001001
00000010
,
00011000
01000000
10010000
00100000
,
00022000
00000000
00033000
00000000
00001000
00010000
00001000
00010000
,
00001000
00100000
00010000
01000000
,
00100000
10000000
00010000
00100000
,
01000000
00010000
00001000
00000010
,
00000100
00001000
00000010
00000100
,
00000001
00001000
00000100
00000010
,
00000001
00000100
00001000
00010000
,
00100000
10000000
01000000
00100000
,
00010000
00000000
01000000
00000000
00001000
00000000
00010000
00001000
,
00010000
00000000
00000100
00000000
00000010
00000000
00000001
00001000
,
00000001
00000000
00000100
00000000
00000010
00000000
00010000
00001000
,
00010000
00000000
01000000
00000000
00100000
00000000
00010000
10000000
,
00010000
00100000
01000000
10000000
,
00100000
00010000
00001000
00000010
,
00001000
00010000
00100000
00010000
,
00001000
01000000
00001000
00000000
00010000
00000100
00010000
00000000
,
00001000
00100000
00001000
00100000
00001000
00100000
02000000
00000000
,
13000000
00100000
00010000
00002000
,
00103000
00000000
00010000
00000000
01000000
00000000
00001000
00010000
,
00000100
00001000
00000010
00000200
,
00000301
00000000
00001000
00000000
00000010
00000100
00000001
00000000
,
00001000
00000100
00000020
00000031
,
00000100
00000000
00001000
00000000
00010000
00001000
00010000
00000000
,
00100000
10000000
02000000
03100000
,
00010000
00000000
01000000
00100000
10000000
00000000
00010000
00000000
,
00100000
02000000
13000000
00100000
,
00010000
00000000
00001000
00100000
00010000
00000000
01000000
00000000
,
00001000
00020000
00030100
00000010
,
00000001
00001000
00000010
00000000
00010000
00000000
00001000
00000000
,
00200000
01300000
10000000
00100000
,
00010000
00000010
00010000
00000000
00001000
00100000
00001000
00000000
,
00010000
00000100
00010000
00000100
00010000
00000100
00010000
00000100
,
00000020
00000000
00000000
00000032
,
00000000
00000000
00001000
00001003
,
00001001
00000000
00001000
00000000
00000100
00010000
00001000
00000000
,
00100000
00000000
01000000
00000000
10000000
00100000
10000000
00000000
,
00010000
00000000
00100000
01000000
10000000
00000000
00100000
00000000
,
00010000
00000000
00001000
00000000
00100000
00010000
00100000
00000000
,
00001000
00000000
00010000
00001000
00000010
00000000
00000001
00000000
,
00001000
00000000
00000100
00010000
00001000
00000000
00011000
00000000
,
00010000
00000000
00100000
10000000
01000000
00000000
00010000
00000000
,
00001000
00000000
00100000
00010000
01000000
00000000
00001000
00000000
,
00010000
00000100
00000010
00000000
00000001
00000000
00001000
00000000
,
00000010
00000100
00000001
00000000
00000010
00000000
00001000
00010000
,
01000000
10000000
00100000
01000000
,
00001000
00010000
00001000
00010000
00001000
00010000
00001000
00010000
,
00000200
00000000
00000320
00000000
00000032
00000003
00002000
00000000
,
00003010
00000010
00010000
00001000
,
00000100
00010000
00100000
00001000
,
01000000
01000000
00001000
00010000
,
00100000
00001000
00000100
00010000
,
00000010
00000100
00000010
00000000
00010000
00000000
00001000
00000000
,
01000000
00100000
01000000
00000000
00001000
00000000
00010000
00000000
,
00000100
00000010
00000100
00000000
00010000
00000000
00001000
00000000
,
00100000
01000000
00100000
01000000
00100000
01000000
00100000
00000000
,
00110000
00010000
10000000
00100000
,
01100000
01000000
00010000
00100000
,
00110000
00010000
01000000
00001000
,
00011000
00010000
00000100
00000010
,
00000012
00000103
00000100
00001000
,
00021000
00130000
00100000
10000000
,
12000000
03010000
00010000
00001000
,
00001020
00000031
00000001
00000100
,
00001000
00000000
00000000
00010000
00000000
00000000
00022000
00000000
,
00000000
00000000
00033000
00001000
,
00010000
00000000
00000000
00001000
00000000
00000000
00022000
00000000
,
00000000
00000000
00033000
00000000
00001000
00010000
01000000
00000000
,
10000000
00000000
00000000
00100000
00000000
00000000
00022000
00000000
,
00000000
00000000
00033000
00001000
,
00000100
00000000
00000000
00000001
00000000
00000000
00002002
00000000
,
00000000
00000000
00000000
00000000
,
00000000
00000000
00000000
00000000
,
00003003
00000000
00000000
00000000
;

//---------------dance-double - ----------------
#NOTES:
     dance-double:
     :
     Hard:
     13:
     0.583086,0.657145,0.372382,0.182540,0.094921,559.000000,508.000000,51.000000,25.000000,0.000000,0.000000,0.583086,0.657145,0.372382,0.182540,0.094921,559.000000,508.000000,51.000000,25.000000,0.000000,0.000000:
00000000
00000000
00000000
00000000
,
00000000
00000000
00000000
00000000
,
00000000
00000000
00000000
00000000
,
00000000
00000000
00000000
00000000
,
00000000
00000000
00000000
00000000
,
00011000
00000000
00000000
01001000
00000000
00000000
00020200
00000000
,
00000000
00000000
00000000
00000000
00030300
00000000
00010000
00001000
,
00011000
00000000
00000000
00010010
00000000
00000000
00201000
00000000
,
02300000
03020000
00032000
00003020
,
00000230
00000000
00002300
00000000
00003001
00000100
00000120
00000000
,
00001030
00000100
00010000
00001000
,
00100000
00010000
01000000
00100000
,
10000000
00010000
00100000
01000000
,
00010000
00001000
00000010
00000001
,
00000100
00000000
00000000
00000010
00000000
00000000
00001000
00000000
00000000
00000100
00000000
00010000
00001000
00000000
00000000
00100000
,
00000000
00000000
00010000
00000000
00000000
10000000
00000000
00000000
00100000
00000000
00000000
01000000
00000000
00000000
00010000
00000000
,
00100000
00001000
00010000
00000100
00000010
00000001
00000100
00001000
,
00010000
00000100
00000000
00000000
00010000
00001000
00000000
00000000
00010000
01000000
00010000
00000000
01000000
00000000
10000000
00000000
,
20020000
00000000
30030000
00000000
00010000
00000000
00000000
01000000
00000000
00001000
00000000
00000000
00010000
00000000
00000100
00000000
,
00001100
00000000
00001000
00000001
00000100
00001000
00010000
00000000
,
00001000
00000000
00100000
01000000
10000000
00100000
01000000
00000000
,
00010000
00000000
00100000
01000000
00010000
00001000
00000010
00000000
,
00000001
00000000
00001000
00000100
00000010
00000100
00001000
00000000
,
00000001
00000000
00000100
00001000
00010000
00100000
10000000
00000000
,
01000000
00000000
00100000
01000000
10000000
01000000
00100000
00000000
,
00001000
00000000
00010000
00001000
00000010
00000100
00001000
00000000
,
00001010
00000000
00000000
00000000
00000101
00000000
00000000
00000100
00000000
00001000
00000000
00000000
00010000
00000000
00001000
00000000
,
00011000
00010000
00100000
01000000
00010000
00000000
10000000
00000000
,
10100000
00100000
01000000
00010000
00100000
00000000
00001000
00000000
,
00011000
00010000
00000100
00000010
00000001
00000000
00001000
00000000
,
00001010
00000010
00000100
00001000
00010000
00000000
00100000
00100000
,
10000000
00000000
00000000
01000000
00000000
00000000
00010000
00000000
00000000
00001000
00000000
00000000
00100000
00000000
00100000
00000000
,
01000000
00000000
00000000
00010000
00000000
00000000
00001000
00000000
00000000
00000010
00000000
00000000
00000001
00000000
00000001
00000000
,
00000100
00001000
00000100
00000001
00000100
00001000
00010000
00100000
,
10000000
01000000
00010000
00001000
00100000
01000000
00010000
00001000
,
00000010
00000001
00000100
00000010
00001000
00000100
00010100
00000000
,
00010000
00000000
00001000
00000000
00100000
00000000
01000000
01000000
,
10000000
00100000
00010000
00100000
01000000
00010000
00110000
00000000
,
00100000
00000000
00001000
00000000
00010000
00010000
00010000
00001000
,
00000100
00000001
00000010
00000100
00000110
00000000
00000010
00000000
,
00000001
00000000
00000100
00000000
00001000
00010000
00011000
00001000
,
00100000
01000000
10000000
00100000
01100000
00000000
01000000
00000000
,
00010000
00000000
00000000
00000000
00100000
00001000
00100000
00000000
00010000
00000000
01000000
00000000
00100000
00000000
00010000
00000000
,
00001000
00000010
00000011
00000000
00000001
00000000
00001000
00000000
,
00000100
00000000
00010000
00010000
00010000
00001000
00100000
01000000
,
10000000
00100000
10100000
00000000
01000000
00000000
00010000
00000000
,
00001000
00100000
00001000
00000000
00010000
00000000
00001000
00000000
00000010
00000000
00000001
00000000
00001000
00000000
00000100
00000000
,
00000110
00000001
00001000
00000010
,
00010000
00010000
00010000
00001000
00000100
00000010
00001000
00000001
,
00000011
00000010
00000100
00010000
00001000
00100000
01000000
10000000
,
00200000
00320000
00032000
00003020
,
00000032
00000000
00000100
00000000
00001003
00000000
00001001
00001000
,
00000100
00000010
00000001
00001000
00000010
00010000
00001000
00100000
,
01000000
10000000
00100000
01000000
00010000
10000000
11000000
01000000
,
00100000
00001000
00010000
00000100
00001000
00000010
00000100
00000001
,
00001000
00000100
00000010
00000001
00000100
00000100
00000110
00000010
,
00010000
00001000
00100000
01000000
10000000
00100000
00010000
00100000
,
01000000
00000000
00010000
00000000
00100000
01000000
00100000
00000000
01000000
00000000
10000000
00000000
00100000
00000000
00010000
00000000
,
00001000
00100000
00101000
00001000
00010000
00000100
00001000
00000100
,
00000010
00000001
00001000
00000010
00000110
00000100
00000001
00000010
,
00000100
00010000
00011000
00001000
00100000
01000000
10000000
00100000
,
01000000
00010000
01000000
00000000
00001000
00000000
00010000
00000000
00000100
00000000
00000010
00000000
00000001
00000000
00001000
00000000
,
00001100
00000100
00010000
00001000
00100000
01000000
10000000
00100000
,
01000000
00010000
10010000
10000000
00100000
00010000
00001000
00000100
,
00000001
00000010
00001000
00010000
00100000
10000000
01000000
00010000
,
00011000
00100000
01000000
10000000
,
00100000
00001000
00000010
00000100
,
00000001
00000010
00010000
00100000
,
01000000
10000000
00100000
00010000
,
00001000
00100000
01000000
10000000
00100000
00010000
00001000
00000000
,
00010000
00000100
00000010
00000001
00000100
00001000
00010000
00000000
,
00100000
10000000
01000000
00010000
00001000
00000010
00000001
00000100
,
00001100
00000000
00000000
00000000
00011000
00000000
00000000
00100000
00000000
10000000
00000000
00000000
01000000
00000000
00100000
00000000
,
01100000
01000000
00010000
00001000
00000010
00000001
00001000
00000000
,
00000110
00000010
00001000
00010000
00100000
10000000
00010000
00000000
,
01100000
00100000
00010000
00001000
00000010
00000001
00001000
00000000
,
00000110
00000100
00001000
00010000
00100000
10000000
00010000
00000000
,
00100000
00000000
01000000
00010000
01000000
00000000
00100000
00000000
10000000
00000000
01000000
00000000
00010000
00000000
00001000
00000000
,
00000010
00000000
00000001
00000100
00000001
00000000
00001000
00000000
00000100
00000000
00000010
00000000
00000001
00000000
00000100
00000000
,
00001000
00000000
00010000
00000100
00010000
00000000
01000000
00000000
10000000
00000000
00100000
00000000
01000000
00000000
10000000
00000000
,
01000000
00010000
00100000
01000000
00010000
00001000
00000010
00000001
,
00001001
00000000
00000000
00011000
00000000
00000000
20020000
00000000
,
00000000
00000000
00000000
00000000
30030000
00000000
01000000
00100000
,
10010000
00000000
00000000
00011000
00000000
00000000
00002002
00000000
,
00000000
00000000
00003003
00000000
00000001
00000100
00000010
00001000
,
00001100
00000000
00000000
00011000
00000000
00000000
02020000
00000000
,
00000000
00000000
00000000
00000000
03030000
00000000
01000000
10000000
,
10100000
00000000
00000000
00110000
00000000
00000000
00022000
00000000
,
00000000
00000000
00000000
00000000
,
00000000
00000000
00000000
00000000
,
00033000
00000000
00000000
00000000
;
