#VERSION:0.83;
#TITLE:Event Horizon;
#SUBTITLE:;
#ARTIST:Younha;
#TITLETRANSLIT:;
#SUBTITLETRANSLIT:;
#ARTISTTRANSLIT:;
#GENRE:K-POP;
#ORIGIN:;
#CREDIT:MUINELIM;
#BANNER:Event Horizon.png;
#BACKGROUND:Event Horizon-bg.png;
#PREVIEWVID:;
#JACKET:Event Horizon-jacket.png;
#CDIMAGE:;
#DISCIMAGE:;
#LYRICSPATH:;
#CDTITLE:;
#MUSIC:Event Horizon.ogg;
#OFFSET:0.151000;
#SAMPLESTART:56.175529;
#SAMPLELENGTH:14.693878;
#SELECTABLE:YES;
#BPMS:0.000=98.000;
#STOPS:;
#DELAYS:;
#WARPS:;
#TIMESIGNATURES:0.000=4=4;
#TICKCOUNTS:0.000=4;
#COMBOS:0.000=1;
#SPEEDS:0.000=1.000=0.000=0;
#SCROLLS:0.000=1.000;
#FAKES:;
#LABELS:0.000=Song Start;
#BGCHANGES:0.000=Event Horizon.avi=1.000=0=0=0=StretchNoLoop====,
99999=-nosongbg-=1.000=0=0=0 // don't automatically add -songbackground-
;
#KEYSOUNDS:;
#ATTACKS:
;

//---------------dance-single - ----------------
#NOTEDATA:;
#CHARTNAME:;
#STEPSTYPE:dance-single;
#DESCRIPTION:;
#CHARTSTYLE:;
#DIFFICULTY:Beginner;
#METER:1;
#RADARVALUES:0.076902,0.118107,0.016069,0.016069,0.000000,67.000000,65.000000,2.000000,2.000000,0.000000,0.000000,0.000000,0.000000,0.000000,0.076902,0.118107,0.016069,0.016069,0.000000,67.000000,65.000000,2.000000,2.000000,0.000000,0.000000,0.000000,0.000000,0.000000;
#CREDIT:MILEN;
#NOTES:
0000
0000
0000
0000
,
1000
0000
0000
0000
,
1000
0000
0000
0000
,
0001
0000
0000
0000
,
0001
0000
0000
0000
,
1000
0000
0000
0000
,
0001
0000
0000
0000
,
1000
0000
0000
0000
,
0001
0000
0000
0000
,
1000
0000
1000
0000
,
1000
0000
1000
0000
,
0001
0000
0001
0000
,
0001
0000
0001
0000
,
1000
0000
1000
0000
,
0001
0000
0001
0000
,
1000
0000
0000
0000
,
0001
0000
0000
0000
,
1000
0000
0000
0000
,
0100
0000
0000
0000
,
0010
0000
0000
0000
,
0001
0000
0000
0000
,
0100
0000
0000
0000
,
0010
0000
0000
0000
,
1000
0000
1000
0000
,
1000
0000
0000
0000
,
0001
0000
0001
0000
,
0001
0000
0000
0000
,
0100
0000
0000
0000
,
0010
0000
0000
0000
,
0100
0000
0010
0000
,
0100
0000
0100
0000
,
0001
0000
0001
0000
,
0001
0000
0000
0000
,
1000
0000
1000
0000
,
1000
0000
0000
0000
,
0010
0000
0000
0000
,
0100
0000
0000
0000
,
0010
0000
0100
0000
,
0010
0000
0010
0000
,
1000
0000
0000
0000
,
0001
0000
0000
0000
,
1000
0000
0000
0000
,
0001
0000
0001
0000
,
1000
0000
1000
0000
,
0010
0000
0000
0000
,
0100
0000
0000
0000
,
0001
0000
1000
0000
,
1001
0000
0000
0000
,
2002
0000
0000
0000
,
3003
0000
0000
0000
;

//---------------dance-single - ----------------
#NOTEDATA:;
#CHARTNAME:;
#STEPSTYPE:dance-single;
#DESCRIPTION:;
#CHARTSTYLE:;
#DIFFICULTY:Easy;
#METER:3;
#RADARVALUES:0.123961,0.160690,0.048207,0.096414,0.000000,108.000000,102.000000,6.000000,12.000000,0.000000,0.000000,0.000000,0.000000,0.000000,0.123961,0.160690,0.048207,0.096414,0.000000,108.000000,102.000000,6.000000,12.000000,0.000000,0.000000,0.000000,0.000000,0.000000;
#CREDIT:MILEN;
#NOTES:
0000
0000
0000
0000
,
1000
0000
1000
0000
,
1000
0000
1000
0000
,
0001
0000
0001
0000
,
0001
0000
0001
0000
,
1000
0000
1000
0000
,
0001
0000
0001
0000
,
1000
0000
0001
0000
,
2002
0000
0000
3003
,
1000
0000
0100
0000
,
0010
0000
0001
0000
,
1000
0000
0100
0000
,
0010
0000
0010
0000
,
0001
0000
0100
0000
,
0010
0000
1000
0000
,
0001
0000
0100
0000
,
0010
0010
0010
0010
,
2000
0000
3000
0000
,
0002
0000
0003
0000
,
0200
0000
0300
0000
,
0020
0000
0030
0000
,
1000
0000
0100
0000
,
0010
0000
0001
0000
,
0200
0300
0010
0010
,
0010
0000
1000
1000
,
1000
0000
0001
0001
,
0001
0000
0100
0000
,
1000
0000
0010
0000
,
0001
0000
0100
0000
,
1000
0000
0010
0000
,
0001
1000
1001
0000
,
0020
0030
0100
0001
,
0100
0000
0010
1000
,
0010
0000
1000
0001
,
1000
0000
0010
0000
,
0001
0000
0100
0000
,
1000
0000
0010
0000
,
0001
0000
0100
0000
,
1000
0001
1001
0000
,
0220
0000
0000
0330
,
0010
0010
0010
0000
,
1000
1000
1000
0000
,
0001
0001
0001
0000
,
0100
0100
0000
0110
,
1000
0000
0001
0000
,
0100
0000
1000
0000
,
0010
0000
0001
0000
,
1000
0000
0000
0000
,
2002
0000
0000
0000
,
0000
0000
0000
0000
,
3003
0000
0000
0000
;

//---------------dance-single - ----------------
#NOTEDATA:;
#CHARTNAME:;
#STEPSTYPE:dance-single;
#DESCRIPTION:;
#CHARTSTYLE:;
#DIFFICULTY:Medium;
#METER:6;
#RADARVALUES:0.242183,0.281208,0.112483,0.168725,0.000000,211.000000,197.000000,14.000000,21.000000,0.000000,0.000000,0.000000,0.000000,0.000000,0.242183,0.281208,0.112483,0.168725,0.000000,211.000000,197.000000,14.000000,21.000000,0.000000,0.000000,0.000000,0.000000,0.000000;
#CREDIT:MILEN;
#NOTES:
0000
0000
0000
0000
,
1000
0001
0100
0100
,
1000
0001
0100
0100
,
0001
1000
0010
0010
,
0001
1000
0010
0010
,
0001
1000
0010
0110
,
1000
0001
0100
0110
,
0001
1000
0001
0100
,
0010
1000
0000
0001
0100
0000
0110
0000
,
0010
1000
0100
0100
,
0010
1000
0100
0100
,
0010
0001
0100
0100
,
0010
0001
0100
0100
,
0010
1000
0010
0000
1000
0000
0001
0000
,
0100
0001
0100
0000
0001
0000
1000
0000
,
0010
0100
0010
0000
1000
0000
0001
0000
,
0100
0010
0100
0100
0000
1001
0010
0000
,
0220
0000
0000
0300
,
2000
0000
0000
0030
,
0002
0000
0000
3000
,
0200
0000
0000
0303
,
0100
0000
0010
0010
0000
1000
0010
0100
,
0000
0001
0100
0010
0000
1000
1001
0000
,
0001
0010
0001
0000
0100
0000
0010
0000
,
1000
0100
1000
0000
0010
0000
0100
0000
,
0001
1000
0001
0000
0100
0000
0010
0000
,
2000
3200
0320
0032
,
1003
0000
1000
0000
0010
0100
0001
0000
,
1000
0000
1000
0000
0100
0010
0001
0000
,
1000
1010
0001
0011
,
1000
1000
0100
0020
0000
0000
0030
0000
,
0001
0100
0010
0000
1000
0000
0001
0000
,
1000
0010
0100
0000
0001
0000
1000
0000
,
0010
0100
0001
0000
0010
0000
0100
0000
,
2000
3020
0230
0302
,
1003
0000
0001
0000
0010
0100
1000
0000
,
0001
0000
1000
0000
0100
0010
0001
0000
,
1000
1100
0001
0101
,
1000
1000
0010
0200
0000
0000
0301
1000
,
2002
0000
0000
3003
,
1000
0010
0001
0100
,
0001
0010
1000
0001
,
0100
1000
0010
1000
,
0100
0000
0001
1000
0000
0100
0010
0100
,
0001
0000
0010
0000
1000
0100
0001
0000
,
1000
0000
0010
0000
0001
0100
1000
0000
,
0010
0000
0100
0000
0001
1000
1001
0000
,
0220
0000
0000
0330
,
2002
0000
0000
0000
,
0000
0000
0000
0000
,
3003
0000
0000
0000
;

//---------------dance-single - ----------------
#NOTEDATA:;
#CHARTNAME:;
#STEPSTYPE:dance-single;
#DESCRIPTION:;
#CHARTSTYLE:;
#DIFFICULTY:Hard;
#METER:8;
#RADARVALUES:0.309903,0.361553,0.265139,0.216932,0.008035,270.000000,237.000000,33.000000,27.000000,0.000000,0.000000,0.000000,0.000000,0.000000,0.309903,0.361553,0.265139,0.216932,0.008035,270.000000,237.000000,33.000000,27.000000,0.000000,0.000000,0.000000,0.000000,0.000000;
#CREDIT:MILEN;
#NOTES:
0000
0000
0000
0000
,
1001
0000
1000
0000
0010
0100
0001
0000
,
1000
0000
0001
0000
0100
0010
1000
0000
,
0001
0010
0100
0000
1000
0100
0010
0000
,
0001
1000
0001
0200
0000
0020
0330
0000
,
0101
0000
1000
0100
0000
0010
0100
0000
,
1100
0000
0001
0010
0000
0100
0010
0000
,
0011
0000
1000
0010
0000
0100
0010
0000
,
1010
0001
0000
0100
0020
0000
1030
1000
,
0001
0000
0100
0000
0010
1000
1100
0000
,
1000
0000
0001
0000
0010
0001
0101
0000
,
0100
0000
0010
0000
1000
0001
1001
0000
,
1000
0100
0010
0002
0000
0103
0010
0110
,
0000
1100
0000
0101
0000
1001
1000
0010
,
0100
0001
0000
0010
0000
1000
0000
0100
,
0001
1000
0001
0100
0010
1000
0100
0010
,
0000
0000
0011
0000
0000
0000
1100
0000
0000
0000
1000
0000
0010
0100
0010
0000
,
0220
0000
0000
0030
,
0002
0000
0000
0300
,
2000
0000
0000
0003
,
0020
0000
0000
3000
,
0130
0000
0100
0001
0000
0000
0001
1000
,
0000
0000
1000
0010
0000
0010
0110
0000
,
0100
0100
0000
0001
0010
0100
1000
0020
,
0100
0130
0000
1000
0100
0010
0001
0200
,
0010
0310
0000
0001
0010
0100
1000
0010
,
0100
0001
1000
0010
0000
0010
0001
0100
,
2100
0001
0000
3001
,
0102
1000
0000
1003
,
2010
3001
0012
1003
,
1000
0100
0010
0001
1000
0010
0110
0000
,
0001
0001
0000
1000
0010
0100
0001
0020
,
0100
0130
0000
0001
0100
0010
1000
0200
,
0010
0310
0000
0001
1000
0010
0100
0001
,
1000
0100
0010
0001
0000
0001
0100
1000
,
1020
0001
0000
0130
,
0201
1000
0000
0310
,
0021
0130
1200
0310
,
0010
0000
1000
0000
0010
0000
0101
0000
0000
0000
0001
0000
1000
0001
1000
0000
,
2002
0000
0000
3003
,
0001
0000
0100
0000
1000
0010
1010
0000
,
1000
0000
0100
0000
0001
0010
0011
0000
,
0001
0000
0100
0000
1000
0010
0110
0000
,
0001
0000
1000
1001
0000
0001
0010
0100
,
1000
0001
0100
0010
1000
0100
0010
0000
,
0001
0100
0010
1000
0001
0010
0100
0000
,
0010
1000
0010
0100
1000
0010
0001
0000
,
0220
0000
0000
0330
,
2002
0000
0000
0000
,
0000
0000
0000
0000
,
3003
0000
0000
0000
;

//---------------dance-double - ----------------
#NOTEDATA:;
#CHARTNAME:;
#STEPSTYPE:dance-double;
#DESCRIPTION:;
#CHARTSTYLE:;
#DIFFICULTY:Easy;
#METER:3;
#RADARVALUES:0.115927,0.160690,0.048207,0.112483,0.000000,101.000000,95.000000,6.000000,14.000000,0.000000,0.000000,0.000000,0.000000,0.000000,0.115927,0.160690,0.048207,0.112483,0.000000,101.000000,95.000000,6.000000,14.000000,0.000000,0.000000,0.000000,0.000000,0.000000;
#CREDIT:MILEN;
#NOTES:
00000000
00000000
00000000
00000000
,
00001000
00000000
00001000
00000000
,
00001000
00000000
00001000
00000000
,
00010000
00000000
00010000
00000000
,
00010000
00000000
00010000
00000000
,
00001000
00000000
00001000
00000000
,
00010000
00000000
00010000
00000000
,
00001000
00000000
00010000
00000000
,
00022000
00000000
00000000
00033000
,
00001000
00000000
01000000
00000000
,
00001000
00000000
00010000
00000000
,
00000010
00000000
00010000
00000000
,
00001000
00000000
00100000
00000000
,
00001000
00000000
00010000
00000000
,
00000100
00000000
00010000
00000000
,
00001000
00000000
00010000
00000000
,
01000000
00000000
10000000
00000000
,
00200000
00000000
00300000
00000000
,
00020000
00000000
00030000
00000000
,
00002000
00000000
00003000
00000000
,
00000020
00000000
00000030
00000000
,
00000001
00000000
00000100
00000000
,
00001000
00000000
00010000
00000000
,
00022000
00033000
01000000
01000000
,
01000000
00000000
00001000
00001000
,
00001000
00000000
00010000
00010000
,
00010000
00000000
00000100
00000000
,
00000010
00000000
00000001
00000000
,
00000100
00000000
00001000
00000000
,
00010000
00000000
00000100
00000000
,
00000010
00000000
00001000
00000000
,
00022000
00033000
00000010
00000010
,
00000010
00000000
00010000
00010000
,
00010000
00000000
00001000
00001000
,
00001000
00000000
00100000
00000000
,
01000000
00000000
10000000
00000000
,
00100000
00000000
00010000
00000000
,
00001000
00000000
00100000
00000000
,
01000000
00000000
00010000
00000000
,
00022000
00000000
00000000
00033000
,
00001000
00000000
00010000
00000000
,
00100000
00000000
10000000
00000000
,
01000000
00000000
00010000
00000000
,
00001000
00001000
00000000
00011000
,
00010000
00000000
00001000
00000000
,
00000010
00000000
00000001
00000000
,
00000100
00000000
00001000
00000000
,
00010000
00000000
00000000
00000000
,
00022000
00000000
00000000
00000000
,
00000000
00000000
00000000
00000000
,
00033000
00000000
00000000
00000000
;

//---------------dance-double - ----------------
#NOTEDATA:;
#CHARTNAME:;
#STEPSTYPE:dance-double;
#DESCRIPTION:;
#CHARTSTYLE:;
#DIFFICULTY:Medium;
#METER:6;
#RADARVALUES:0.229558,0.281208,0.120518,0.120518,0.000000,200.000000,185.000000,15.000000,15.000000,0.000000,0.000000,0.000000,0.000000,0.000000,0.229558,0.281208,0.120518,0.120518,0.000000,200.000000,185.000000,15.000000,15.000000,0.000000,0.000000,0.000000,0.000000,0.000000;
#CREDIT:MILEN;
#NOTES:
00000000
00000000
00000000
00000000
,
00001000
00010000
01000000
00000000
,
00010000
00001000
00000100
00000000
,
00001000
00010000
00100000
00000000
,
00010000
00001000
00000010
00000000
,
00001000
00010000
00001000
01001000
,
00010000
00001000
00010000
00010010
,
00001000
00010000
00001000
00011000
,
00010000
00001000
00000000
00001000
00010000
00000000
01000000
10000000
,
01000000
00010000
00001000
00000000
,
00000100
00001000
00010000
00000000
,
00100000
00010000
00001000
00000000
,
00000010
00001000
00010000
00000000
,
00000100
00000010
00000001
00000100
,
00001000
00010000
00100000
10000000
,
01000000
00100000
00001000
00010000
,
00000100
00000010
00000100
00000000
00001000
00000000
00000001
00000000
,
00000202
00000000
00000000
00000003
,
00002000
00000000
00000000
00000300
,
00020000
00000000
00000000
00003000
,
02000000
00000000
00000000
00030000
,
13000000
00000000
10000000
00100000
00000000
01000000
00100000
00010000
,
00000000
00100000
00010000
00001000
00000000
00010000
00011000
00000000
,
00001000
00010000
00001000
00000000
00100000
00000000
01000000
00000000
,
10000000
00010000
10000000
00000000
01000000
00000000
00100000
00000000
,
00001000
00010000
00001000
00000000
00000010
00000000
00000001
00000000
,
00000200
00001300
00020000
00031000
,
00011000
00000000
00010000
00000000
01000000
10000000
01000000
00000000
,
00010000
00000000
00001000
00000000
00000010
00000001
00000010
00000000
,
00001000
00011000
00010000
00011000
,
00001000
00000000
00100000
02000000
00000000
00000000
03000000
00000000
,
00010000
00001000
00010000
00000000
00000010
00000000
00000100
00000000
,
00000001
00001000
00000001
00000000
00000100
00000000
00000010
00000000
,
00010000
00001000
00010000
00000000
00100000
00000000
10000000
00000000
,
02000000
03010000
00002000
00013000
,
00011000
00000000
00001000
00000000
00000100
00000001
00000100
00000000
,
00001000
00000000
00010000
00000000
00100000
10000000
00100000
00000000
,
00010000
00011000
00001000
00011000
,
00010000
00000000
00000010
00000200
00000000
00000000
00001300
00010000
,
00022000
00000000
00000000
00033000
,
00001000
00010000
00100000
10000000
,
01000000
00010000
00001000
00000010
,
00000001
00000100
00001000
00010000
,
01000000
00000000
10000000
00100000
00000000
00100000
00010000
00001000
,
00011000
00000000
00100000
00000000
01000000
00010000
00001000
00000000
,
00010000
00000000
00000100
00000000
00000010
00001000
00010000
00000000
,
00001000
00000000
00100000
00000000
01000000
00010000
00001000
00000010
,
00000011
00000000
00000000
00000000
,
00002002
00000000
00000000
00000000
,
00000000
00000000
00000000
00000000
,
00003003
00000000
00000000
00000000
;

//---------------dance-double - ----------------
#NOTEDATA:;
#CHARTNAME:;
#STEPSTYPE:dance-double;
#DESCRIPTION:;
#CHARTSTYLE:;
#DIFFICULTY:Hard;
#METER:8;
#RADARVALUES:0.298425,0.327808,0.216932,0.168725,0.000000,260.000000,233.000000,27.000000,21.000000,0.000000,0.000000,0.000000,0.000000,0.000000,0.298425,0.327808,0.216932,0.168725,0.000000,260.000000,233.000000,27.000000,21.000000,0.000000,0.000000,0.000000,0.000000,0.000000;
#CREDIT:MILEN;
#NOTES:
// measure 0
00000000
00000000
00000000
00000000
,  // measure 1
00011000
00010000
01000000
00010000
,  // measure 2
00001000
00000100
00001000
00010000
,  // measure 3
00100000
10000000
01000000
00000000
01000000
00010000
00001000
00000000
,  // measure 4
00001000
00000100
00000001
00000020
00000000
00000200
00000330
00000000
,  // measure 5
00001001
00000000
00000001
00000100
00001000
00000000
00010000
00000000
,  // measure 6
00011000
00000000
00001000
00010000
00100000
00000000
10000000
00000000
,  // measure 7
10010000
00000000
00010000
00100000
01000000
00000000
00010000
00000000
,  // measure 8
00011000
00000100
00000000
00001000
00000020
00000000
00000130
00000100
,  // measure 9
00000001
00000000
00000010
00000000
00001000
00010000
01000000
00000000
,  // measure 10
10000000
00000000
00100000
00000000
00010000
00001000
00000100
00000000
,  // measure 11
00000001
00000000
00000010
00000000
00001000
00010000
00100000
00000000
,  // measure 12
10000000
01000000
00100000
02000000
00000000
03010000
00001000
00011000
,  // measure 13
00000000
00010010
00000000
00101000
00000000
00010100
00000100
00000010
,  // measure 14
00000001
00000100
00000000
00001000
00000000
00010000
00000000
00100000
,  // measure 15
10000000
01000000
00100000
00010000
01000000
00001000
00010000
00000100
,  // measure 16
00000000
00000110
00000000
00001001
00000000
00000001
00000100
00001000
,  // measure 17
00022000
00000000
00000000
00003000
,  // measure 18
00200000
00000000
00000000
00300000
,  // measure 19
00002000
00000000
00000000
00030000
,  // measure 20
00000020
00000000
00000000
00003000
,  // measure 21
00000031
00000000
00000100
00000100
00000000
00000000
00001000
00001000
,  // measure 22
00000000
00000000
00010000
00001000
00010000
01000000
11000000
00000000
,  // measure 23
10000000
00100000
00000000
10000000
01000000
00100000
00010000
00000000
,  // measure 24
01000000
00001000
00000000
00010000
00001000
00000100
00000010
00000000
,  // measure 25
00001000
00000001
00000000
00000010
00001000
00010000
00100000
00000000
,  // measure 26
10000000
01000000
00010000
00011000
00000000
00001000
00000010
00000001
,  // measure 27
00000201
00001000
00000000
00000310
,  // measure 28
00020010
00001000
00000000
00130000
,  // measure 29
20100000
31000000
00120000
01030000
,  // measure 30
10000000
01000000
00100000
00001000
00010000
00000100
00000010
00000000
,  // measure 31
00000001
00000010
00000000
00000001
00000100
00000010
00001000
00000000
,  // measure 32
00000100
00010000
00000000
00001000
00010000
01000000
00100000
00000000
,  // measure 33
00010000
10000000
00000000
00100000
00010000
00001000
00000010
00000000
,  // measure 34
00000001
00000100
00001000
00011000
00000000
00010000
00100000
10000000
,  // measure 35
12000000
00010000
00000000
03100000
,  // measure 36
00102000
00010000
00000000
00003010
,  // measure 37
00000012
00000103
00002010
00003100
,  // measure 38
00000001
00000100
00000010
00010000
00001000
01000000
00100000
10000000
,  // measure 39
20020000
00000000
00000000
30030000
,  // measure 40
00010000
10000000
01000000
00000000
10000000
00010000
01000000
00000000
,  // measure 41
00001000
00010000
00100000
00000000
00010000
00001000
00000010
00000000
,  // measure 42
00000001
00001000
00000100
00000000
00001000
00000001
00000010
00000000
,  // measure 43
00001000
00010000
00001000
00011000
00000000
00010000
00100000
10000000
,  // measure 44
01000000
00010000
00001000
00010000
00000100
00000010
00000001
00000000
,  // measure 45
00000010
00001000
00010000
00001000
00100000
01000000
10000000
00000000
,  // measure 46
00100000
00010000
00001000
00010000
00001000
00000010
00001000
00000000
,  // measure 47
00022000
00000000
00000000
00033000
,  // measure 48
00011000
00000000
00000000
00000000
;
