#TITLE:Etude Op 10-4;
#SUBTITLE:;
#ARTIST:MAX;
#TITLETRANSLIT:;
#SUBTITLETRANSLIT:;
#ARTISTTRANSLIT:;
#GENRE:VARIETY;
#CREDIT:MUINELIM;
#BANNER:Etude Op 10-4.png;
#BACKGROUND:Etude Op 10-4-bg.png;
#LYRICSPATH:;
#CDTITLE:;
#MUSIC:Etude Op 10-4.mp3;
#OFFSET:-0.171000;
#SAMPLESTART:69.375542;
#SAMPLELENGTH:13.636360;
#SELECTABLE:YES;
#BPMS:0.000000=176;
#STOPS:;
#BGCHANGES:0.000=Etude Op 10-4.avi=1.000=1=0=0=StretchNoLoop==CrossFade==,
99999=-nosongbg-=1.000=0=0=0 // don't automatically add -songbackground-
;
#KEYSOUNDS:;
#ATTACKS:;

//---------------dance-single - ----------------
#NOTES:
     dance-single:
     :
     Hard:
     16:
     0.887258,1.036714,0.215354,0.387637,0.693439,721.000000,696.000000,25.000000,45.000000,0.000000,0.000000,0.887258,1.036714,0.215354,0.387637,0.693439,721.000000,696.000000,25.000000,45.000000,0.000000,0.000000:
0000
0000
0000
0000
0000
0000
0000
0000
0000
0000
0000
0000
1000
0001
1000
0001
,
0100
0010
0100
0000
0010
0000
1000
0000
0010
0100
0010
0000
0100
0000
0001
0000
,
0010
0100
0010
0000
0100
0000
1000
0000
0100
0010
0100
0000
0010
0000
0001
0000
,
1000
0001
1000
0000
0010
0000
0100
0000
0001
1000
0001
0000
0100
0000
0010
0000
,
1000
0000
1000
0000
0001
0000
0001
0000
0010
0000
0100
0000
1000
0010
1000
0010
,
0100
0000
0000
0100
0001
0000
0000
0001
0010
0000
0000
0010
0100
0000
0000
0100
,
1000
0000
0000
1000
0001
0000
0000
0001
0100
0000
0000
0100
0010
0000
0000
0010
,
1000
0000
0100
0000
0010
0001
0100
0000
0010
1000
0100
0000
0010
0001
1000
0000
,
0100
0000
1000
0000
0001
0000
0010
0000
0001
0000
0100
0000
0010
1000
0010
1000
,
0001
0100
0001
0000
0100
0000
0010
0000
1000
0010
1000
0000
0010
0000
0100
0000
,
0001
0010
0001
0000
1000
0000
0001
0000
1000
0100
1000
0000
0001
0000
1000
0000
,
0010
0100
0010
0000
0100
0000
0001
0000
0010
0100
0010
0000
0100
0000
1000
0000
,
0010
0000
0100
0000
0001
0000
1000
0000
0100
0000
0010
0000
0001
0100
0001
0100
,
0010
0000
0000
0010
1000
0000
0000
1000
0100
0000
0000
0100
0010
0000
0000
0010
,
0001
0000
0000
0001
1000
0000
0000
1000
0010
0000
0000
0010
0100
0000
0000
0100
,
0001
0000
0000
0001
0010
0000
0000
0010
0100
0000
0000
0100
1000
0100
1000
0100
,
2000
3020
0032
0203
,
1300
0010
1000
0010
0100
0001
0100
0001
,
0010
0100
1000
0010
0100
0001
1000
0100
,
0010
0010
0001
0001
1000
1000
0010
0010
,
0100
0100
0001
0001
0010
0010
0210
0000
,
1300
0010
0100
0001
1000
0100
0010
0001
,
0010
0100
1000
0001
0100
0010
1000
0001
,
0100
0100
1000
1000
0010
0010
0001
0001
,
1000
0010
0100
0000
0001
0100
0010
0000
1000
0100
0010
0000
0001
0010
0001
0010
,
0200
0000
1300
0010
0210
0000
0301
0010
,
0210
0000
1300
0100
0120
0000
0031
0100
,
0110
0010
1000
0100
0001
0100
0010
1000
,
0010
0000
0001
0000
0100
0000
0010
0000
1000
0001
1000
0001
1000
0001
1000
0001
,
2000
0000
0000
3001
0012
0000
0000
1003
,
2100
0000
0000
3001
0201
0000
0000
0310
,
1010
1100
0101
0011
,
0010
0000
0100
0000
1000
0000
0001
0000
0010
0100
0010
0100
0010
0100
0010
0100
,
2000
3020
0001
0230
,
1000
0000
0302
0000
0010
0000
1003
0100
,
0110
0000
0000
0000
0010
0100
1000
0000
0010
0000
0100
0000
0001
0010
0100
0000
,
1000
0000
0010
0000
0100
0001
1000
0000
0010
0000
0100
0000
0010
1000
0001
0000
,
0102
0023
1000
0230
,
0001
0000
2300
0000
0010
0000
3001
0100
,
0110
0000
0000
0000
0010
1000
0100
0000
0010
0000
0100
0000
0010
0001
0100
0000
,
0010
0000
0100
0000
0010
1000
0001
0000
0100
0001
1000
0000
0010
0100
0010
0100
,
0010
1000
0100
0001
0100
1000
0100
0001
,
0100
1000
0010
0001
0010
1000
0010
0001
,
0010
1000
0100
0001
0100
1000
0010
0001
,
0010
0000
1000
0000
0100
0000
0010
0000
0001
0000
0100
0000
0010
1000
0010
1000
,
0002
0203
0320
2030
,
3200
0302
0023
1030
,
1001
0000
1000
0100
0001
0010
0100
0010
,
0110
0000
0001
0010
1000
0100
0010
0100
,
0110
0000
0000
0000
1001
0000
0000
0000
0001
1000
0001
1000
0010
0100
0010
0100
,
0002
0000
0000
0000
2003
0000
0000
0000
3002
0000
0000
0000
0103
0010
0100
0010
,
1000
0100
0010
0000
0001
0000
0100
0000
0010
1000
0100
0000
0010
0000
0001
0000
,
0100
0010
1000
0000
0100
0000
0010
0000
0001
0100
0010
0000
1000
0000
0100
0000
,
0010
0001
1000
0000
0100
0000
0010
0000
0001
1000
0100
0000
0010
0000
0001
0000
,
0100
0000
1000
0000
0001
0000
0010
0000
1000
0000
0100
0000
0010
0001
0010
0001
,
0100
0000
0000
0100
0010
0000
0000
0010
1000
0000
0000
1000
0100
0000
0000
0100
,
0001
0000
0000
0001
0100
0000
0000
0100
1000
0000
0000
1000
0010
0000
0000
0010
,
0100
0000
0001
0000
1000
0100
0010
0000
0001
0010
0100
0000
1000
0001
0100
0000
,
0010
0000
0100
0000
0001
0000
0010
0000
0100
0000
1000
0000
0001
0100
0001
0100
,
0010
1000
0100
0000
0010
0000
0001
0000
0100
0010
1000
0000
0100
0000
0010
0000
,
0001
0100
0010
0000
1000
0000
0100
0000
0010
0001
0100
0000
0010
0000
1000
0000
,
0001
0100
0010
0000
1000
0000
0001
0000
0100
0010
1000
0000
0001
0000
0100
0000
,
1000
0000
0001
0000
0010
0000
1000
0000
0100
0000
0010
0000
0001
0100
0001
0100
,
0010
0000
0000
0010
1000
0000
0000
1000
0001
0000
0000
0001
0100
0000
0000
0100
,
1000
0000
0000
1000
0100
0000
0000
0100
0001
0000
0000
0001
0010
0000
0000
0010
,
1000
0000
0000
1000
0001
0000
0000
0001
0100
0000
0000
0100
1000
0000
0000
1000
,
0010
0000
0000
0010
0100
0000
0000
0100
0001
0000
0000
0001
0010
0001
0010
0001
,
0020
0230
2300
3020
,
0032
0203
2300
3020
,
0130
0000
0000
0000
0000
0000
0000
0000
0100
0001
0010
0000
0100
1000
0010
0000
,
0100
0001
1000
0000
0010
1000
0001
0000
0101
0000
0000
0000
1010
0000
0000
0000
,
1001
0000
0000
0000
0001
0010
0001
0000
0010
0100
0010
0000
0100
1000
0100
0000
,
1000
0010
1000
0000
0001
0100
0001
0000
1000
0001
1000
0000
0010
0100
0010
0100
,
0010
0000
0000
0000
0100
0001
0100
0000
0001
0010
0001
0000
0010
0100
0010
0000
,
0100
1000
0100
0000
1000
0010
1000
0000
0010
0100
0010
0000
1000
0001
1000
0001
,
1000
0000
0000
0000
0001
0010
0100
0000
1000
0010
0100
0000
0001
0010
0100
0000
,
1000
0100
0010
0000
0001
0100
0010
0000
1000
0100
0010
0000
0001
1000
0001
0000
,
1000
0010
0100
0010
1000
0000
0100
0000
0010
0001
1000
0001
0010
0000
0001
0000
,
0100
0001
0100
0001
0010
0100
0010
0100
1000
0010
1000
0010
0100
0001
1000
0100
,
0010
0001
0100
1000
0001
0010
1000
0100
,
0001
1000
0010
0001
0100
1000
0001
0010
,
2020
0000
0000
0000
3030
0000
0000
0000
0202
0000
0000
0000
0303
0000
0000
1000
,
2002
0000
0000
0000
,
3003
0000
0000
0000
;

//---------------dance-single - ----------------
#NOTES:
     dance-single:
     :
     Medium:
     14:
     0.748201,0.893719,0.654676,0.396251,0.219661,608.000000,532.000000,76.000000,46.000000,0.000000,0.000000,0.748201,0.893719,0.654676,0.396251,0.219661,608.000000,532.000000,76.000000,46.000000,0.000000,0.000000:
0000
0000
0000
0000
0000
0000
0000
0000
0000
0000
0000
0000
1000
0001
1000
0001
,
1000
0010
1000
0010
0100
0001
0100
0001
,
0010
0001
0010
0001
1000
0100
1000
0100
,
0010
0001
1000
0010
0100
0001
0010
0100
,
1000
0000
0010
0000
0100
0000
0001
0000
1000
0000
0010
0000
0100
0001
0100
0001
,
0100
0110
1010
1100
,
0011
0101
0110
1010
,
0101
0000
0000
0000
0001
1000
0000
0000
1000
0010
0000
0000
0010
0100
0000
0000
,
0100
0000
0001
0000
0010
0000
0100
0000
1000
0000
0001
0000
0100
0010
0100
0010
,
0100
0001
0100
0001
1000
0010
1000
0010
,
1000
0100
1000
0100
0010
0001
0010
0001
,
1000
0010
0100
0001
0010
0100
1000
0010
,
0100
0000
0001
0000
1000
0000
0100
0000
0010
0000
0001
0000
1000
0010
1000
0010
,
1000
1001
0011
1100
,
1010
0101
1100
0011
,
1010
0000
0000
0000
0101
0000
0000
0000
0110
0000
0000
0000
1000
0001
1000
0001
,
1000
1100
0011
1001
,
2000
3020
0230
0302
,
0023
0230
2300
3002
,
0103
0010
1000
0010
0100
0001
0100
0010
,
1000
0100
1000
0001
0010
0001
1001
0000
,
2000
3200
0320
0032
,
2003
3020
0230
0302
,
0013
0100
1000
0100
0010
0001
0010
0100
,
1000
0010
1000
0000
0010
0000
0100
0000
0001
0100
0001
0000
0100
0000
0010
0000
,
0210
0000
0301
1000
0020
0000
1030
0001
,
0200
0000
0301
1000
0020
0000
1030
0001
,
0100
1000
0100
1000
0100
0001
0100
0001
,
0100
0000
1000
0000
0100
0000
0001
0000
0010
0100
0010
0000
0100
0010
0100
0000
,
2000
0000
0000
3010
0210
0000
0000
0301
,
0021
0000
0000
0130
2100
0000
0000
3001
,
0101
1100
1010
0011
,
0001
0000
1000
0000
0010
0000
0100
0000
0001
0010
0001
0000
1000
0100
1000
0000
,
1020
0032
0000
0203
,
0000
0000
2300
0000
3020
0000
0000
0100
,
0130
0000
1000
0010
0100
0001
0010
0100
,
1000
0001
0100
0010
1000
0100
0010
0001
,
0021
2030
0000
3200
,
0000
0000
0302
0000
0023
0000
0000
0100
,
0130
0000
0001
0010
0100
1000
0010
0100
,
0001
0000
1000
0000
0100
0000
0010
0000
0001
0100
0001
0000
1000
0010
1000
0000
,
0001
0010
0100
0010
0001
0010
1000
0010
,
0001
0010
0100
0001
0100
1000
0100
0010
,
0100
1000
0100
0010
0001
0100
0010
1000
,
0001
0000
0010
0000
0100
0000
1000
0000
0010
0000
0100
0000
0001
1000
0001
1000
,
0002
0000
0000
0000
,
0000
0000
0000
0003
,
0101
0000
1000
0100
0001
0010
0100
0000
,
1100
0000
0001
0100
1000
0010
0100
0000
,
0101
0011
1010
1100
,
0110
1001
0220
0330
,
1000
0010
0100
0001
1000
0100
0010
0001
,
1000
0010
0100
0001
1000
0100
0010
0001
,
1000
0010
0100
1000
0100
0001
1000
0010
,
0001
0000
0010
0000
0100
0000
0001
0000
0010
0000
0100
0000
1000
0010
1000
0010
,
1000
1001
1100
0101
,
1010
0011
1100
0011
,
1001
0000
0000
0000
1000
0010
0000
0000
0010
0100
0000
0000
0100
0001
0000
0000
,
0001
0000
0010
0000
0100
0000
1000
0000
0010
0000
0100
0000
0001
0010
0001
0010
,
0001
1000
0100
0010
0001
1000
0010
0100
,
0001
1000
0100
0010
0001
1000
0010
0100
,
1000
0100
0001
1000
0010
0001
0010
0100
,
0001
0000
0010
0000
0100
0000
1000
0000
0001
0000
0100
0000
0010
1000
0010
1000
,
0010
0110
1100
0101
,
1010
0011
1100
0101
,
0011
1010
0101
1100
,
1010
0000
0000
0000
0011
0000
0000
0000
1001
0000
0000
0000
0010
0100
0010
0100
,
0010
1010
1100
0101
,
0011
1100
1010
0011
,
0101
0000
0000
0000
0000
0000
0000
0000
0100
0010
0000
0000
0010
1000
0000
0000
,
1000
0001
0000
0000
0001
0100
0000
0000
1100
0000
0000
0000
0011
0000
0000
0000
,
1001
0000
1000
0010
0001
1000
0100
0001
,
1000
0000
0010
0000
0001
0000
1000
0000
0100
0000
0010
0000
1000
0001
1000
0001
,
1000
0000
0001
0010
1000
0001
0100
1000
,
0001
0000
0010
0000
1000
0000
0001
0000
0100
0000
0010
0000
0001
1000
0001
1000
,
0001
0100
1000
0100
0001
0010
1000
0010
,
0001
0100
1000
0001
0010
1000
0100
0010
,
0001
0100
0001
0000
1000
0100
1000
0000
0001
0010
0001
0000
1000
0010
1000
0000
,
0001
1000
0001
0000
0100
0010
0100
0000
0010
1000
0001
0000
0100
0001
1000
0000
,
0002
0203
2300
3020
,
0032
0203
2300
3010
,
0011
0000
0000
0000
0000
0000
0000
0000
1100
0000
0000
0000
0000
0000
0000
0020
,
0200
0000
0000
0000
,
0330
0000
0000
0000
;

//---------------dance-single - ----------------
#NOTES:
     dance-single:
     :
     Easy:
     9:
     0.430708,0.571980,0.413479,0.120598,0.000000,350.000000,302.000000,48.000000,14.000000,0.000000,0.000000,0.430708,0.571980,0.413479,0.120598,0.000000,350.000000,302.000000,48.000000,14.000000,0.000000,0.000000:
0000
0000
0000
0000
,
1000
0100
1000
0100
,
0010
0001
0010
0001
,
1000
0010
0100
0001
,
0010
0100
1000
1001
,
0001
0100
0001
0100
,
0010
1000
0010
1000
,
0100
0100
0010
0010
,
0001
1000
0001
1001
,
1000
0010
1000
0010
,
1000
0010
0100
0001
,
0100
0001
0010
0100
,
1000
0010
0100
0110
,
0010
1000
0100
1000
,
0001
0010
0001
0100
,
0010
1000
0100
0010
,
0001
0001
1000
1000
,
1001
0000
0010
0000
,
0100
0000
0010
0000
,
1000
0010
0100
0001
,
0100
0010
1000
1001
,
0110
0000
0001
0000
,
1000
0000
0001
0000
,
0100
0010
1000
0001
,
0100
0100
0010
0010
,
1010
0000
0101
0000
,
0011
0000
1100
0000
,
1001
0001
0100
0010
,
1000
0001
0010
0100
,
1001
0000
0000
1000
1000
0000
0000
0010
,
0010
0000
0000
0001
0001
0000
0000
0100
,
0100
1000
0010
0100
,
0001
0010
0100
1000
,
1001
0201
0000
0320
,
0000
0000
2030
0000
3200
0000
0000
0010
,
0310
0100
1000
0001
,
0010
0100
1000
0001
,
1001
1200
0000
0320
,
0000
0000
0032
0000
0203
0000
0000
0010
,
0310
0100
1000
0010
,
0100
0001
0010
0100
,
1000
0010
0001
0010
,
1000
0010
0001
0010
,
1000
0100
0001
0100
,
1000
0100
0001
0100
,
1001
1000
0010
0001
,
0010
1000
0100
0010
,
0011
0001
0100
0010
,
0110
0100
0010
1000
,
1100
0001
1001
1000
,
0110
1001
0220
0330
,
1000
0010
0100
0001
,
1000
0100
0010
0001
,
0010
0100
1000
0001
,
0100
0010
1000
1001
,
0001
0100
1000
0100
,
0001
0010
1000
0010
,
0001
0101
0110
1010
,
1000
0100
0010
1001
,
0001
0010
0100
1000
,
0001
0100
0010
1000
,
0001
0010
0100
1000
,
0010
0100
0001
1001
,
1000
0100
0001
0100
,
1000
0010
0001
0010
,
0100
1000
0100
0001
,
0010
1000
0010
0001
,
0101
0100
1010
0010
,
1100
1000
0011
0001
,
0110
0000
1100
1010
,
0110
0101
0011
0110
,
1001
1000
0010
0001
,
1000
0100
0001
0010
,
0110
0001
0100
1000
,
0001
0010
1000
0100
,
0110
1000
0010
0001
,
1000
0100
0001
0010
,
0100
1000
0100
0000
0010
0001
0010
0000
,
0001
0100
0001
0000
1000
0010
1000
0000
,
2002
0000
0000
0000
,
0000
0000
0000
3003
,
1010
0000
0101
0000
,
0220
0000
0000
0000
,
0330
0000
0000
0000
;

//---------------dance-single - ----------------
#NOTES:
     dance-single:
     :
     Beginner:
     4:
     0.184589,0.357487,0.155055,0.043071,0.000000,150.000000,132.000000,18.000000,5.000000,0.000000,0.000000,0.184589,0.357487,0.155055,0.043071,0.000000,150.000000,132.000000,18.000000,5.000000,0.000000,0.000000:
0000
0000
0000
0000
,
1000
0000
0000
0000
,
1000
0000
0000
0000
,
1000
0000
0000
0000
,
1000
0000
1000
0000
,
0001
0000
0000
0000
,
0001
0000
0000
0000
,
0001
0000
0001
0000
,
0001
0000
0000
0000
,
0100
0000
0000
0000
,
0100
0000
0000
0000
,
0100
0000
0000
0000
,
0100
0000
0100
0000
,
0010
0000
0000
0000
,
0010
0000
0000
0000
,
0010
0000
0000
0000
,
0010
0000
0010
0000
,
0010
0000
0000
0000
,
0000
0000
0000
0000
,
1000
0000
0001
0000
,
1000
0000
0001
0000
,
1001
0000
0000
0000
,
0000
0000
0000
0000
,
0001
0000
1000
0000
,
0001
0000
1000
0000
,
1001
0000
1001
0000
,
1001
0000
1001
0000
,
0001
0000
1000
0000
,
0001
0000
1000
0000
,
0010
0000
0110
0000
,
0100
0000
0110
0000
,
0010
0000
1000
0000
,
0001
0000
0100
0000
,
0020
0000
0000
0000
,
0000
0000
0030
0000
,
0010
0000
0000
0000
,
0000
0000
0000
0000
,
0200
0000
0000
0000
,
0000
0000
0300
0000
,
0100
0000
0000
0000
,
0000
0000
0000
0000
,
0001
0000
1000
0000
,
0001
0000
1000
0000
,
0100
0000
0010
0000
,
0100
0000
0010
0000
,
0002
0000
0000
0000
,
0000
0000
0003
0000
,
1001
0000
0000
0000
,
1001
0000
0000
0000
,
1000
0000
0001
0000
,
1000
1000
1000
0000
,
0001
0000
0010
0000
,
0100
0000
1000
0000
,
0001
0000
0010
0000
,
0100
0000
0100
0000
,
1000
0000
0010
0000
,
0100
0000
0001
0000
,
1000
0000
0010
0000
,
0100
0100
0100
0000
,
0001
0000
0100
0000
,
0010
0000
1000
0000
,
0001
0000
0100
0000
,
0010
0000
0010
0000
,
1000
0000
0100
0000
,
0010
0000
0001
0000
,
1000
0000
0100
0000
,
0010
0000
0001
0000
,
1001
0000
1001
0000
,
1001
0000
1001
0000
,
1001
0000
0100
0100
,
0100
0100
0100
0100
,
0100
0000
0001
0000
,
1000
0000
0010
0000
,
0100
0000
0001
0000
,
1000
0000
0010
0000
,
0100
0000
0001
0000
,
0010
0000
0100
0000
,
1000
1000
1000
0000
,
0001
0001
0001
0000
,
1001
0000
0000
0000
,
0000
0000
0000
0000
,
0110
0000
0110
0000
,
0220
0000
0000
0000
,
0330
0000
0000
0000
;

//---------------dance-double - ----------------
#NOTES:
     dance-double:
     :
     Easy:
     9:
     0.420863,0.571980,0.379023,0.120598,0.000000,342.000000,298.000000,44.000000,14.000000,0.000000,0.000000,0.420863,0.571980,0.379023,0.120598,0.000000,342.000000,298.000000,44.000000,14.000000,0.000000,0.000000:
00000000
00000000
00000000
00000000
,
10000000
00100000
10000000
00100000
,
01000000
00010000
01000000
00010000
,
00100000
00001000
00010000
00000100
,
00001000
00000010
00010000
00011000
,
00001000
00100000
00001000
00100000
,
00010000
01000000
00010000
01000000
,
00001000
00001000
00010000
00010000
,
00000100
00001000
00000001
00001001
,
00000001
00000010
00000001
00000010
,
00000100
00001000
00000100
00001000
,
00000010
00010000
00001000
01000000
,
00010000
00100000
00001000
00011000
,
00010000
00000010
00010000
00000010
,
00001000
00000100
00001000
00000100
,
00010000
00010000
00001000
00001000
,
01000000
00010000
10000000
00010000
,
10010000
00000000
10000000
00000000
,
01000000
00000000
00010000
00000000
,
00001000
00010000
00000010
00010000
,
00001000
01000000
00001000
00010000
,
00011000
00000000
00001000
00000000
,
00000100
00000000
00000001
00000000
,
00000010
00001000
00100000
00001000
,
00010000
00000100
00010000
00001000
,
00011000
00000000
01010000
00000000
,
11000000
00000000
10100000
00000000
,
00110000
00010000
00001000
00000100
,
00000001
00000010
00000100
00000010
,
00001001
00000000
00000000
00000001
00000001
00000000
00000000
00000100
,
00000100
00000000
00000000
00001000
00001000
00000000
00000000
00010000
,
00010000
00001000
00100000
00010000
,
00100000
01000000
10000000
00100000
,
00010000
00012000
00000000
00003200
,
00000000
00000000
00000302
00000000
00000023
00000000
00000000
00000100
,
00000130
00000010
00000001
00001000
,
00000100
00000010
00001000
00010000
,
00001000
00021000
00000000
00230000
,
00000000
00000000
20300000
00000000
32000000
00000000
00000000
00100000
,
03100000
01000000
10000000
00010000
,
00100000
01000000
00010000
00001000
,
00000010
00000001
00000100
00001000
,
00000100
00000001
00000010
00001000
,
00010000
00100000
10000000
01000000
,
00010000
01000000
10000000
00100000
,
01100000
10000000
01000000
00010000
,
00001000
00000010
00000001
00000100
,
00000110
00000010
00010000
00001000
,
00011000
00010000
01000000
00100000
,
01100000
10000000
10010000
00010000
,
01100000
01000000
00022000
00033000
,
00001000
00010000
01000000
10000000
,
01000000
00010000
00001000
00010000
,
00100000
10000000
00100000
00010000
,
00001000
00000100
00001000
00011000
,
00010000
00001000
00000100
00000001
,
00000100
00001000
00010000
00000100
,
00000010
00000011
00001100
00001001
,
00000001
00000100
00001000
00011000
,
00010000
00001000
00000100
00000001
,
00000100
00001000
00010000
00001000
,
00000010
00000001
00000010
00001000
,
00010000
01000000
00010000
00011000
,
00001000
00010000
01000000
10000000
,
01000000
00010000
00001000
00100000
,
01000000
10000000
00100000
00010000
,
00001000
00000100
00000001
00000010
,
00000110
00001000
00011000
00100000
,
01100000
10000000
10010000
00010000
,
01100000
00000000
11000000
10100000
,
00110000
00011000
00001100
00000101
,
00001001
00000001
00000010
00000100
,
00001000
00010000
00100000
01000000
,
01100000
10000000
01000000
00100000
,
00010000
00001000
00000100
00000010
,
00000110
00000001
00000100
00001000
,
00010000
00100000
10000000
01000000
,
00100000
00010000
00001000
00000100
,
00000010
00000001
00000100
00001000
,
00022000
00000000
00000000
00000000
,
00000000
00000000
00000000
00033000
,
00010010
00000000
01001000
00000000
,
00022000
00000000
00000000
00000000
,
00033000
00000000
00000000
00000000
;

//---------------dance-double - ----------------
#NOTES:
     dance-double:
     :
     Medium:
     14:
     0.705130,0.679226,0.482393,0.396251,0.163669,573.000000,517.000000,56.000000,46.000000,0.000000,0.000000,0.705130,0.679226,0.482393,0.396251,0.163669,573.000000,517.000000,56.000000,46.000000,0.000000,0.000000:
00000000
00000000
00000000
00000000
,
10000000
00100000
10000000
00100000
01000000
00010000
01000000
00010000
,
00100000
00001000
00100000
00001000
00010000
00000100
00010000
00000100
,
00001000
00000010
00000100
00000001
00000010
00000100
00001000
00000100
,
00010000
00000000
00001000
00000000
00100000
00000000
00010000
00000000
00100000
00000000
01000000
00000000
10000000
00100000
10000000
00100000
,
10000000
11000000
01000000
01010000
,
00010000
00011000
00001000
00001010
,
00000010
00000000
00000000
00000000
00000001
00000100
00000000
00000000
00000100
00001000
00000000
00000000
00001000
00010000
00000000
00000000
,
00001000
00100000
00010000
01000000
00001000
00010000
00000100
00001000
,
00000001
00000010
00000001
00000010
00000100
00001000
00000100
00001000
,
00000010
00010000
00000010
00010000
00001000
01000000
00001000
01000000
,
00010000
00100000
01000000
10000000
00100000
01000000
00010000
01000000
,
00001000
00000000
00010000
00000000
00000010
00000000
00001000
00000000
00000010
00000000
00000100
00000000
00000001
00000010
00000001
00000010
,
00000001
00000101
00000100
00001100
,
00001000
00011000
00010000
00110000
,
00100000
00000000
00000000
00000000
10100000
00000000
00000000
00000000
10000000
00000000
00000000
00000000
01000000
00100000
01000000
00100000
,
01000000
01100000
00101000
00011000
,
00020000
00030200
00000320
00000032
,
00000203
00002300
00023000
00230000
,
10300000
01000000
00100000
01000000
10000000
00100000
00010000
00001000
,
00010000
00001000
00000100
00000001
00000010
00001000
00010000
00000000
,
00002000
02003000
03200000
20300000
,
32000000
03020000
00032000
00003020
,
00000031
00000100
00000010
00000100
00000001
00000010
00001000
00010000
,
00100000
01000000
00100000
00000000
00010000
00000000
00001000
00000000
00000100
00000010
00000100
00000000
00001000
00000000
00010000
00000000
,
02000000
00000000
13000000
00100000
00020000
00000000
00031000
00000100
,
00000002
00000000
00000013
00001000
00020000
00000000
00130000
10000000
,
01000000
00010000
01000000
10000000
00100000
00010000
00100000
00010000
,
00001000
00000000
00000100
00000000
00000001
00000000
00000010
00000000
00000100
00000010
00000100
00000000
00000010
00000100
00000010
00000000
,
00002000
00000000
00000000
00013000
00020010
00000000
00000000
00031000
,
00102000
00000000
00000000
00013000
00020100
00000000
00000000
00031000
,
01001000
00010100
00101000
00010010
,
00010000
00000000
00001000
00000000
00100000
00000000
00010000
00000000
01000000
00100000
01000000
00000000
00100000
01000000
00100000
00000000
,
20000000
32000000
00000000
03020000
,
00000000
00000000
00032000
00000000
00003020
00000000
00000000
00000100
,
00000130
00000000
00000100
00000010
00000001
00000100
00001000
00010000
,
00100000
10000000
01000000
00100000
00001000
00010000
00000100
00000010
,
00000002
00000203
00000000
00002300
,
00000000
00000000
00023000
00000000
00230000
00000000
00000000
01000000
,
01300000
00000000
00100000
01000000
00010000
10000000
01000000
00010000
,
00001000
00000000
00000100
00000000
00000001
00000000
00000010
00000000
00001000
00000000
00010000
00000000
00001000
00010000
00001000
00000000
,
00100000
00010000
00100000
01000000
00100000
10000000
00100000
00010000
,
00100000
00001000
00010000
00000100
00001000
00000100
00000010
00000100
,
00000001
00000100
00001000
00000100
00000010
00000001
00000100
00000010
,
00001000
00000000
00000100
00000000
00010000
00000000
00001000
00000000
00100000
00000000
00010000
00000000
01000000
00100000
01000000
00100000
,
02000000
00000000
00000000
00000000
,
00000000
00000000
00000000
03000000
,
01010000
00000000
10000000
01000000
00010000
00001000
00000100
00000000
,
00001010
00000000
00000001
00000010
00001000
00010000
00100000
00000000
,
10010000
11000000
01010000
00011000
,
00001010
00000011
00002002
00003003
,
00000001
00000010
00000100
00001000
00000100
00010000
00001000
00100000
,
00010000
00100000
01000000
10000000
00100000
01000000
00010000
00100000
,
01000000
00010000
00001000
00000010
00000100
00001000
00000010
00000100
,
00000001
00000000
00001000
00000000
00000100
00000000
00000010
00000000
00000001
00000000
00000100
00000000
00001000
00010000
00001000
00010000
,
00001000
01001000
00010000
00010100
,
00001000
00101000
00010000
00010010
,
00001000
00000000
00000000
00000000
00001000
00010000
00000000
00000000
00010000
01000000
00000000
00000000
01000000
10000000
00000000
00000000
,
10000000
00000000
00100000
00000000
01000000
00000000
00010000
00000000
00100000
00000000
01000000
00000000
10000000
01000000
10000000
01000000
,
10000000
00100000
01000000
00010000
01000000
00001000
00010000
00000010
,
00001000
00000010
00000100
00000001
00000010
00000100
00001000
00000010
,
00000100
00001000
00010000
00100000
01000000
00010000
00100000
01000000
,
10000000
00000000
00010000
00000000
01000000
00000000
00100000
00000000
10000000
00000000
01000000
00000000
00010000
00001000
00010000
00001000
,
00010000
00010100
00001000
01001000
,
00010000
00010010
00001000
00101000
,
00110000
01001000
00011000
00010010
,
00001100
00000000
00000000
00000000
00010100
00000000
00000000
00000000
00101000
00000000
00000000
00000000
00001000
00010000
00001000
00010000
,
00001000
00011000
01010000
11000000
,
00110000
00011000
00001010
00000011
,
00001100
00000000
00000000
00000000
00000000
00000000
00000000
00000000
00000100
00010000
00000000
00000000
00010000
00001000
00000000
00000000
,
00001000
01000000
00000000
00000000
01000000
00100000
00000000
00000000
10100000
00000000
00000000
00000000
01010000
00000000
00000000
00000000
,
10010000
00000000
10000000
00100000
00010000
00001000
00000100
00000001
,
00000010
00000000
00001000
00000000
00010000
00000000
01000000
00000000
10000000
00000000
00100000
00000000
00010000
00001000
00010000
00001000
,
00010000
00000000
00001000
00000100
00000001
00000010
00001000
00010000
,
01000000
00000000
10000000
00000000
00100000
00000000
00010000
00000000
00001000
00000000
00000100
00000000
00000001
00001000
00000001
00001000
,
00000001
00000010
00000100
00001000
00000010
00000100
00001000
00010000
,
00100000
01000000
00010000
00100000
01000000
10000000
00100000
00010000
,
00001000
00001000
00000100
00000100
00000001
00000001
00000010
00000010
,
00010000
00010000
00100000
00100000
00001000
00001000
01000000
01000000
,
20000000
32000000
03200000
00320000
,
00032000
00003200
00000320
00000031
,
00001010
00000000
00000000
00000000
00000000
00000000
00000000
00000000
01010000
00000000
00000000
00000000
00000000
00000000
00000000
20000000
,
00020000
00000000
00000000
00000000
,
30030000
00000000
00000000
00000000
;

//---------------dance-double - ----------------
#NOTES:
     dance-double:
     :
     Hard:
     16:
     0.862646,1.036714,0.206740,0.361795,0.637447,701.000000,677.000000,24.000000,42.000000,0.000000,0.000000,0.862646,1.036714,0.206740,0.361795,0.637447,701.000000,677.000000,24.000000,42.000000,0.000000,0.000000:
// measure 0
00000000
00000000
00000000
00000000
,  // measure 1
00010000
00001000
00010000
00000000
00000100
00000000
00001000
00000000
00000010
00000100
00000010
00000000
00001000
00000000
00000100
00000000
,  // measure 2
00010000
00001000
00010000
00000000
00000010
00000000
00001000
00000000
00000100
00000010
00000100
00000000
00001000
00000000
00000010
00000000
,  // measure 3
00010000
00001000
00010000
00000000
00000100
00000000
00001000
00000000
00000001
00000010
00000001
00000000
00001000
00000000
00000100
00000000
,  // measure 4
00010000
00000000
00010000
00000000
00001000
00000000
00001000
00000000
00100000
00000000
01000000
00000000
10000000
00100000
10000000
00100000
,  // measure 5
01000000
00000000
00000000
01000000
00010000
00000000
00000000
00010000
00100000
00000000
00000000
00100000
00001000
00000000
00000000
00001000
,  // measure 6
00010000
00000000
00000000
00010000
00000100
00000000
00000000
00000100
00001000
00000000
00000000
00001000
00000010
00000000
00000000
00000010
,  // measure 7
00000100
00000000
00000001
00000000
00000010
00000100
00000010
00000000
00001000
00010000
00001000
00000000
00000010
00000100
00000010
00000000
,  // measure 8
00000001
00000000
00000100
00000000
00001000
00000000
00010000
00000000
00100000
00000000
10000000
00000000
01000000
00100000
01000000
00100000
,  // measure 9
00001000
00010000
00001000
00000000
01000000
00000000
00010000
00000000
00100000
01000000
00100000
00000000
00010000
00000000
01000000
00000000
,  // measure 10
00001000
00010000
00001000
00000000
00100000
00000000
00010000
00000000
01000000
00100000
01000000
00000000
00010000
00000000
00100000
00000000
,  // measure 11
00001000
00010000
00001000
00000000
01000000
00000000
00010000
00000000
10000000
00100000
10000000
00000000
00010000
00000000
01000000
00000000
,  // measure 12
00001000
00000000
00001000
00000000
00010000
00000000
00010000
00000000
00000010
00000000
00000100
00000000
00000001
00000010
00000001
00000010
,  // measure 13
00000100
00000000
00000000
00000100
00001000
00000000
00000000
00001000
00000010
00000000
00000000
00000010
00010000
00000000
00000000
00010000
,  // measure 14
00001000
00000000
00000000
00001000
01000000
00000000
00000000
01000000
00010000
00000000
00000000
00010000
00100000
00000000
00000000
00100000
,  // measure 15
01000000
00000000
00000000
01000000
10000000
00000000
00000000
10000000
00100000
00000000
00000000
00100000
00010000
00001000
00010000
00001000
,  // measure 16
00020000
00000010
00032000
01000000
,  // measure 17
00013000
00001000
00000100
00000010
00001000
00000100
00010000
00001000
,  // measure 18
00100000
00010000
01000000
00100000
00010000
00001000
00000100
00000010
,  // measure 19
00001000
00001000
00000100
00000100
00010000
00010000
00001000
00001000
,  // measure 20
00100000
00100000
00010000
00010000
01000000
01000000
01200000
00000000
,  // measure 21
10300000
01000000
00100000
00010000
01000000
00100000
00010000
00001000
,  // measure 22
00000100
00000010
00001000
00000100
00000010
00000001
00000100
00000010
,  // measure 23
00001000
00001000
00000100
00000100
00010000
00010000
01000000
01000000
,  // measure 24
10000000
00100000
10000000
00000000
00100000
01000000
00100000
00000000
01000000
00010000
01000000
00000000
00001000
00010000
00001000
00010000
,  // measure 25
00000200
00000000
00001300
00000010
00020010
00000000
00031000
00100000
,  // measure 26
00120000
00000000
01030000
00001000
00021000
00000000
00030100
00000010
,  // measure 27
00000011
00000001
00000100
00001000
00000100
00001000
00010000
00100000
,  // measure 28
00010000
00000000
00100000
00000000
10000000
00000000
01000000
00000000
00010000
00001000
00010000
00001000
00010000
00001000
00010000
00001000
,  // measure 29
00020000
00000000
00000000
00030010
00012000
00000000
00000000
00103000
,  // measure 30
00021000
00000000
00000000
00030100
00012000
00000000
00000000
01003000
,  // measure 31
01001000
00010100
00101000
00010010
,  // measure 32
00010000
00000000
00001000
00000000
00000100
00000000
00000001
00000000
00000010
00000100
00000010
00000100
00000010
00000100
00000010
00000100
,  // measure 33
00000020
00000032
00000100
00002003
,  // measure 34
00000010
00000000
00023000
00000000
01000000
00000000
10030000
01000000
,  // measure 35
01100000
00000000
00010000
10000000
00100000
00010000
00001000
00000100
,  // measure 36
00000001
00000010
00001000
00010000
01000000
10000000
00100000
01000000
,  // measure 37
01200000
20300000
01000000
30020000
,  // measure 38
00100000
00000000
00032000
00000000
00000100
00000000
00003001
00000100
,  // measure 39
00000110
00000000
00001000
00000001
00000100
00001000
00010000
00100000
,  // measure 40
10000000
00000000
01000000
00000000
00010000
00000000
00001000
00000000
00000010
00000001
00000010
00000000
00000100
00001000
00000100
00000000
,  // measure 41
00010000
00001000
00000010
00001000
00010000
00001000
00000010
00001000
,  // measure 42
00010000
01000000
00010000
00001000
00010000
01000000
00010000
00001000
,  // measure 43
00000100
00001000
00010000
00100000
00010000
00001000
00000010
00001000
,  // measure 44
00010000
00000000
01000000
00000000
00010000
00000000
00001000
00000000
00000100
00000000
00000001
00000000
00000010
00000100
00000010
00000100
,  // measure 45
00000020
00000032
00000203
00002300
,  // measure 46
00023000
00230000
20300000
31000000
,  // measure 47
01100000
00000000
10000000
01000000
00100000
00010000
00001000
00000100
,  // measure 48
00000110
00000000
00000001
00000010
00000100
00001000
00010000
00100000
,  // measure 49
01100000
00000000
00000000
00000000
10010000
00000000
00000000
00000000
00010000
01000000
00010000
01000000
00001000
00010000
00001000
00010000
,  // measure 50
00000200
00000000
00000000
00000000
00002300
00000000
00000000
00000000
00003020
00000000
00000000
00000000
00010030
00001000
00010000
00001000
,  // measure 51
00100000
00010000
01000000
00000000
00001000
00000000
00010000
00000000
00000100
00001000
00000010
00000000
00010000
00000000
00001000
00000000
,  // measure 52
01000000
00010000
00100000
00000000
00001000
00000000
00010000
00000000
00000010
00001000
00000100
00000000
00010000
00000000
00001000
00000000
,  // measure 53
00000100
00000010
00010000
00000000
00001000
00000000
00010000
00000000
00100000
01000000
00001000
00000000
00010000
00000000
00001000
00000000
,  // measure 54
00000100
00000000
00000001
00000000
00000010
00000000
00001000
00000000
00010000
00000000
01000000
00000000
10000000
00100000
10000000
00100000
,  // measure 55
01000000
00000000
00000000
01000000
00010000
00000000
00000000
00010000
00100000
00000000
00000000
00100000
01000000
00000000
00000000
01000000
,  // measure 56
00010000
00000000
00000000
00010000
00001000
00000000
00000000
00001000
00000010
00000000
00000000
00000010
00000100
00000000
00000000
00000100
,  // measure 57
00001000
00000000
00000001
00000000
00000100
00001000
00010000
00000000
00100000
00010000
00001000
00000000
00000010
00001000
00010000
00000000
,  // measure 58
01000000
00000000
10000000
00000000
00100000
00000000
01000000
00000000
00010000
00000000
00100000
00000000
00001000
00010000
00001000
00010000
,  // measure 59
00000010
00001000
00000100
00000000
00010000
00000000
00001000
00000000
01000000
00010000
00100000
00000000
00001000
00000000
00010000
00000000
,  // measure 60
00000100
00001000
00000010
00000000
00010000
00000000
00001000
00000000
00100000
00010000
01000000
00000000
00001000
00000000
00010000
00000000
,  // measure 61
01000000
00100000
00001000
00000000
00010000
00000000
00001000
00000000
00000010
00000100
00010000
00000000
00001000
00000000
00010000
00000000
,  // measure 62
01000000
00000000
10000000
00000000
00100000
00000000
00010000
00000000
00001000
00000000
00000100
00000000
00000001
00000010
00000001
00000010
,  // measure 63
00000100
00000000
00000000
00000100
00001000
00000000
00000000
00001000
00000010
00000000
00000000
00000010
00000100
00000000
00000000
00000100
,  // measure 64
00001000
00000000
00000000
00001000
00010000
00000000
00000000
00010000
00100000
00000000
00000000
00100000
01000000
00000000
00000000
01000000
,  // measure 65
00010000
00000000
00000000
00010000
10000000
00000000
00000000
10000000
00100000
00000000
00000000
00100000
00010000
00000000
00000000
00010000
,  // measure 66
00001000
00000000
00000000
00001000
00000100
00000000
00000000
00000100
00000001
00000000
00000000
00000001
00000010
00000100
00000010
00000100
,  // measure 67
00000020
00002030
00023000
02030000
,  // measure 68
03200000
00302000
00023000
00030200
,  // measure 69
00000310
00000000
00000000
00000000
00000000
00000000
00000000
00000000
00000001
00000100
00000000
00000000
00001000
00010000
00000000
00000000
,  // measure 70
00100000
10000000
00000000
00000000
01000000
00010000
00000000
00000000
00011000
00000000
00000000
00000000
01001000
00000000
00000000
00000000
,  // measure 71
00010010
00000000
00000000
00000000
00010000
00001000
00010000
00000000
00000100
00001000
00000100
00000000
00000010
00000001
00000010
00000000
,  // measure 72
00000001
00000100
00000001
00000000
00001000
00000010
00001000
00000000
00000100
00010000
00000100
00000000
00010000
00001000
00010000
00001000
,  // measure 73
00010000
00000000
00000000
00000000
00001000
00100000
00001000
00000000
00100000
00010000
00100000
00000000
01000000
10000000
01000000
00000000
,  // measure 74
10000000
00100000
10000000
00000000
00010000
01000000
00010000
00000000
00100000
00001000
00100000
00000000
00001000
00010000
00001000
00010000
,  // measure 75
00001000
00000000
00000000
00000000
00010000
00000100
00001000
00000000
00000001
00000000
00000100
00000000
00001000
00100000
00010000
00000000
,  // measure 76
10000000
00000000
00100000
00000000
00010000
00000010
00001000
00000000
00000001
00000000
00000100
00000000
00001000
01000000
00010000
00000000
,  // measure 77
10000000
01000000
10000000
01000000
00100000
00000000
00010000
00000000
01000000
00001000
01000000
00001000
00010000
00000000
00000100
00000000
,  // measure 78
00000010
00000001
00000010
00000001
00001000
00000100
00001000
00000100
00010000
00001000
00010000
00001000
01000000
00010000
01000000
00010000
,  // measure 79
10000000
00100000
00010000
00001000
00000100
00000001
00000010
00010000
,  // measure 80
00001000
01000000
10000000
00100000
00001000
00010000
00000100
00000001
,  // measure 81
00000022
00000000
00000000
00000000
00000003
00000000
00000000
00000000
00002000
00000000
00000000
00000000
00000030
00000000
00000000
00013000
,  // measure 82
00022000
00000000
00000000
00000000
,  // measure 83
00033000
00000000
00000000
00000000
;
