#TITLE:エータ・ベータ・イータ;
#SUBTITLE:;
#ARTIST:ルゼ;
#TITLETRANSLIT:Eta Beta Eta;
#SUBTITLETRANSLIT:;
#ARTISTTRANSLIT:Luze;
#GENRE:VARIETY;
#CREDIT:MUINELIM;
#BANNER:Eta Beta Eta.png;
#JACKET:Eta Beta Eta-jacket.png;
#BACKGROUND:Eta Beta Eta-bg.png;
#LYRICSPATH:;
#CDTITLE:;
#MUSIC:Eta Beta Eta.ogg;
#OFFSET:0.201000;
#SAMPLESTART:10.766742;
#SAMPLELENGTH:10.787738;
#SELECTABLE:YES;
#BPMS:0.000000=186,34.000000=372,224.000000=186,296.000000=372,297.000000=186,298.000000=372,299.000000=186,300.000000=372,301.000000=186,302.000000=372,303.000000=186,320.000000=372,444.000000=93,460.000000=372;
#STOPS:162.000000=0.081,162.500000=0.081,223.000000=0.161,296.000000=0.161,298.000000=0.161,300.000000=0.161,302.000000=0.161,383.000000=0.323,442.000000=0.161,443.000000=0.161,538.000000=0.161;
#BGCHANGES:;
#KEYSOUNDS:;
#ATTACKS:;

//---------------dance-single - ----------------
#NOTES:
     dance-single:
     :
     Challenge:
     18:
     1.083588,2.192611,0.692590,0.867824,0.450601,909.000000,826.000000,83.000000,104.000000,0.000000,0.000000,1.083588,2.192611,0.692590,0.867824,0.450601,909.000000,826.000000,83.000000,104.000000,0.000000,0.000000:
0000
0000
0000
0000
,
0000
0000
0000
0000
,
0000
0000
0000
0000
,
0000
0000
0000
0000
,
0000
0000
0220
0330
0110
0002
0003
0110
,
2000
3010
0010
1000
1100
0010
0001
0101
,
0100
0010
1000
0001
0100
0010
0000
0010
0200
0000
0302
0000
0023
0000
0130
1000
,
0200
0000
0000
0000
2300
0000
3020
0000
0130
0001
0100
0001
1000
0000
0100
1000
,
0100
1000
0001
0100
0002
0000
0000
0000
0013
0000
0000
0000
0001
0000
0000
0000
,
0101
0000
0100
0010
2000
0000
0100
3000
,
0001
0000
0011
0000
0200
0000
0310
1000
,
0100
0000
1000
0010
0100
0000
0010
1000
,
0001
0000
0010
0001
0100
0000
0010
0000
,
1010
0000
1000
0100
0020
0000
0001
0030
,
0100
0000
1100
0000
0020
0000
0130
0001
,
0010
0000
0001
0100
0010
0000
0100
0001
,
1000
0100
0010
0001
1000
0000
0010
0000
,
0110
0000
0100
0001
0020
0000
0100
0030
,
0001
0000
0101
0000
2000
0000
3010
0100
,
0001
0000
0010
0100
1000
0000
0010
0100
,
0001
0000
1000
0100
0010
0000
0001
0000
,
0101
0000
0000
0000
0000
0000
0100
0000
0000
0010
0000
0000
1000
0000
0000
0000
0001
0000
0000
0000
0010
0000
0000
0000
,
0100
0000
1000
0010
0210
0000
0301
0000
,
0120
0000
1030
0000
1000
0100
0010
0001
,
0100
0000
0110
0000
0010
0100
0001
0000
,
0010
0000
0010
0000
0001
0100
0010
0000
,
0100
0000
0100
0000
0010
1000
0100
0000
,
1000
0000
1000
0000
0100
1000
0010
0000
,
0100
0000
0100
0000
0001
0010
0100
0000
,
1000
0010
0001
1000
,
0100
0001
0010
0100
,
1000
0000
0010
0000
0110
0000
0100
0001
,
0010
0000
0011
0000
0001
0100
0010
0000
,
0001
0000
0001
0000
0010
0100
0001
0000
,
0010
0000
0010
0000
0100
1000
0010
0000
,
0100
0000
0100
0000
0010
2000
0000
3100
,
0020
0000
0031
0000
0001
0100
0010
0100
,
0001
0010
0100
1000
,
1010
0000
0010
0000
0100
0001
0100
0010
,
1000
0100
0010
0001
2000
0000
3010
0200
,
0000
0301
0020
0000
0100
0130
0110
0000
,
0010
0001
0100
0000
0010
1000
0100
0000
,
0010
0100
1000
0000
0001
0010
0100
0000
,
1000
0010
0100
0000
0001
0100
0010
0000
,
1000
0100
0010
0100
1000
0000
0010
0000
,
0001
1000
0100
0001
,
0010
0000
0100
0010
0001
0100
0010
1000
,
0100
0000
0110
0000
0010
0100
1000
0000
,
1010
0000
0010
0100
0001
0000
0010
0100
,
1000
0000
0100
0010
0001
0000
1000
0010
,
0100
0000
1000
0100
0001
0000
1000
0010
,
0001
0000
0010
0100
0001
0010
0100
1000
,
0010
0100
0002
0000
0013
0200
0000
1300
,
0020
0000
0031
0010
0100
0001
0011
0000
,
1100
2000
3020
0230
,
0302
0000
0013
0100
1000
0010
0110
0000
,
2020
0030
0000
0200
3000
0000
0301
0100
,
0100
1000
0010
0001
0010
0100
0001
0010
,
0022
0030
0000
0200
0003
0000
1300
0100
,
0100
0000
0001
0000
0010
0000
0100
0000
1000
0010
1000
0010
0100
0001
0100
0001
,
0020
0000
0000
0230
0000
0000
2300
0000
0000
3020
0000
0000
0032
0000
0023
0000
,
0000
2030
0000
0000
3200
0000
0000
0302
0000
0000
0203
0000
0000
0320
0000
0032
,
0000
0000
0203
0000
0000
2300
0000
0000
3200
0000
0000
0320
0000
0000
1030
0000
,
1010
0000
0000
1000
0100
0000
0000
0100
0001
0000
0000
0001
0010
0001
0010
0001
,
0010
0000
0210
0000
0000
0000
1300
0000
1010
0000
0000
0011
0000
0000
0001
0200
,
0000
0000
0310
0000
0110
0000
0000
0100
2000
0000
3100
0002
0000
0013
0200
0000
,
1300
0010
1000
0010
0100
0010
0100
0010
0100
0001
0100
0001
1000
0001
1000
0100
,
0010
0001
0100
0010
1000
0001
0010
0100
1000
0010
0200
0000
1300
0100
0010
0000
,
2010
0100
0001
3010
,
0110
0000
0000
0000
0101
0000
0000
0000
0001
0010
0100
1000
0020
0000
0030
0000
,
0102
0010
1000
0103
,
0110
0000
0000
0000
1010
0000
0000
0000
1000
0100
0010
0001
0200
0000
0300
0000
,
1002
0010
0100
1003
,
1000
0010
0100
0000
0001
0010
0100
0000
1000
0100
0010
0001
0100
0010
1000
0001
,
0020
0030
0101
0000
2000
3000
0011
0000
,
0200
0300
1010
0000
0002
0003
1100
0000
,
1010
0000
0000
0000
0101
0000
0000
0000
0011
0000
0000
0000
1100
0000
0000
1010
,
0000
0000
0011
0000
0000
1100
0000
0000
0101
0000
0000
1001
0000
0000
0110
0000
,
2002
0000
0000
0000
,
0000
0000
3003
1001
,
0001
0100
0010
0100
0001
0000
1000
0000
,
0100
0010
0001
0010
0100
0000
1000
0000
,
0010
0100
0002
0000
0103
0010
2000
0000
,
3100
0010
0001
1000
0010
0100
0001
0000
,
0010
0100
1000
0100
0010
0000
0001
0000
,
1000
0010
0100
0010
1000
0000
0001
0000
,
0010
0100
2000
0000
3100
0010
0002
0000
,
1003
0010
0100
0001
1000
0100
0010
0000
,
0001
0100
0010
0100
0001
0100
0010
0000
,
1000
0100
0010
0100
1000
0100
0010
0000
,
0001
0100
0010
1000
0010
0100
0001
0100
,
0010
1000
0100
0010
0001
0100
0010
1000
,
0001
0010
0100
0010
0001
0010
0100
0000
,
1000
0010
0100
0010
1000
0010
0100
0000
,
0001
0010
1000
0010
0001
0100
0010
1000
,
0200
0000
0010
0000
0010
0000
0310
0000
0000
0110
0000
0000
,
1001
0000
2001
3000
0000
1200
0300
0000
,
0120
0030
0000
0012
0003
0000
0201
0300
,
0000
0120
0030
1000
0100
0010
0100
1000
,
0010
0001
0010
1000
0100
0000
0110
0000
,
0012
0003
0000
0201
0300
0000
0120
0030
,
0000
2010
3000
0000
1200
0300
0000
0120
,
0030
0000
0012
0003
0100
0010
1000
0001
,
0010
0100
0001
0100
1000
0010
0100
0001
,
0010
0100
1000
0001
0010
0001
1000
0100
,
1000
0010
0100
0001
0010
1000
0010
0100
,
1000
0100
0010
0001
0100
0010
0001
0010
,
1000
0100
0010
0002
2000
0000
0000
0000
,
0000
0000
0000
0000
,
0000
0000
0000
0000
,
0000
3003
0110
1001
,
1000
0100
0001
1000
0010
0001
0100
0010
1010
0000
0001
0010
1000
0001
0100
1000
,
0010
0000
0100
0000
1000
0000
0100
0000
0001
0000
0010
0000
0100
0000
0010
0000
0011
0000
0000
0000
0001
0000
0100
0000
0110
0000
0000
0000
0010
0000
1000
0100
,
2000
0000
0000
0000
3100
0000
0010
0000
0001
0000
0100
0000
0101
0000
0000
0000
1000
0000
0100
0000
0010
0000
0001
0000
0101
0000
0000
1100
0000
0000
1010
0000
,
0010
0000
0100
0000
0101
0000
0000
0000
0010
0000
1010
0000
0000
0000
0100
0000
0110
0000
1000
0000
0001
0000
0010
0100
1000
0100
0010
0100
2000
0000
0000
0000
,
3001
0000
0000
0100
0000
0000
0010
1000
0010
1000
0000
0000
,
0100
0000
0010
0000
0001
0100
1000
0100
,
0010
0000
0000
1000
0000
0000
0001
0100
0001
0100
0000
0000
,
0010
0000
1000
0000
0100
0001
0100
0010
,
0002
0000
0100
0000
1003
0010
0100
1000
,
0200
0000
0010
0000
0301
0010
0100
1000
,
0020
0000
0001
0000
0130
0001
0010
0100
,
2000
0000
0010
0000
3100
0001
0100
1000
,
0010
0100
0002
0000
0013
0001
0200
0000
,
0310
1000
0010
1000
0001
0100
0001
0100
,
0010
1000
0200
0000
0310
0100
2000
0000
,
3010
0100
0010
0100
0001
1000
0001
1000
,
0100
0010
0002
0000
1003
0100
0020
0000
,
0031
0100
0001
0100
1000
0100
1000
0100
,
0010
0100
0010
0100
0001
0100
1000
0100
,
0001
0100
0010
1000
0100
0010
0001
0100
,
0010
0000
0000
1000
0000
0000
0001
0000
0100
0000
0001
0000
0100
0000
0000
0000
0000
0000
0010
0000
1000
0000
0010
0000
,
1000
0000
0000
0100
0010
0100
0010
0000
0000
0001
1000
0001
,
1000
0000
0000
0100
1000
0100
1000
0000
0000
0001
0010
0001
,
0010
0100
1000
0020
0200
0330
1001
0000
;

//---------------dance-single - ----------------
#NOTES:
     dance-single:
     :
     Beginner:
     7:
     0.244373,0.562208,0.066756,0.058411,0.000000,205.000000,197.000000,8.000000,7.000000,0.000000,0.000000,0.244373,0.562208,0.066756,0.058411,0.000000,205.000000,197.000000,8.000000,7.000000,0.000000,0.000000:
// measure 0
0000
0000
0000
0000
,  // measure 1
0000
0000
0000
0000
,  // measure 2
0000
0000
0000
0000
,  // measure 3
0000
0000
0000
0000
,  // measure 4
0000
0000
0010
0000
,  // measure 5
0010
0000
0010
0000
,  // measure 6
0010
0010
0010
0000
,  // measure 7
0000
0000
0001
0000
,  // measure 8
1000
0000
0100
0000
,  // measure 9
0000
0000
0100
0000
,  // measure 10
0000
0000
0100
0000
,  // measure 11
0000
0000
0000
0000
,  // measure 12
0000
0000
0010
0000
,  // measure 13
0000
0000
0010
0000
,  // measure 14
0000
0000
0010
0000
,  // measure 15
0000
0000
0000
0000
,  // measure 16
0000
0000
0001
0000
,  // measure 17
0000
0000
0001
0000
,  // measure 18
0000
0000
0001
0000
,  // measure 19
0000
0000
0000
0000
,  // measure 20
0000
0000
1000
0000
,  // measure 21
0000
0000
1000
0000
,  // measure 22
1000
0000
1000
0000
,  // measure 23
0010
0000
0100
0000
,  // measure 24
0001
0000
1000
0000
,  // measure 25
0000
0000
0100
0000
,  // measure 26
0000
0000
0010
0000
,  // measure 27
0000
0000
0001
0000
,  // measure 28
0000
0000
0100
0000
,  // measure 29
0000
0000
0000
0000
,  // measure 30
0000
0000
0000
0000
,  // measure 31
0000
0000
0010
0000
,  // measure 32
0010
0000
0010
0000
,  // measure 33
0000
0000
1000
0000
,  // measure 34
0000
0000
0001
0000
,  // measure 35
0000
0000
0100
0000
,  // measure 36
0000
0000
0010
0000
,  // measure 37
0010
0000
0000
0000
,  // measure 38
0000
0000
1000
0000
,  // measure 39
0000
0000
0001
0000
,  // measure 40
0000
0000
1001
0000
,  // measure 41
0000
1000
0000
0000
,  // measure 42
0000
0100
0000
0000
,  // measure 43
0000
0010
0000
0000
,  // measure 44
0000
0001
0000
0000
,  // measure 45
0000
0000
0000
0000
,  // measure 46
0000
0100
0000
0100
,  // measure 47
0000
0100
0000
0100
,  // measure 48
0000
0010
0000
0000
,  // measure 49
0000
1000
0000
0000
,  // measure 50
0000
0001
0000
0000
,  // measure 51
0000
0010
0000
0000
,  // measure 52
0000
0100
0000
0000
,  // measure 53
0000
1000
0000
0000
,  // measure 54
0000
0020
0000
0000
,  // measure 55
0000
0030
0000
0010
,  // measure 56
0010
0000
0010
0100
,  // measure 57
0001
0000
0001
0000
,  // measure 58
0100
0000
0100
0010
,  // measure 59
1000
0000
1000
0000
,  // measure 60
0001
0010
0100
0000
,  // measure 61
0100
0000
1000
0000
,  // measure 62
1000
0010
0100
0000
,  // measure 63
0100
0000
0001
0000
,  // measure 64
1000
1000
1000
0000
,  // measure 65
0001
0001
0001
0000
,  // measure 66
0100
0010
1000
0001
,  // measure 67
0100
0100
0110
0000
,  // measure 68
0010
0000
0010
0000
,  // measure 69
0010
0000
0010
0000
,  // measure 70
1000
0000
1000
0000
,  // measure 71
1000
0000
1000
0000
,  // measure 72
0001
0000
0001
0000
,  // measure 73
0100
0000
0100
0000
,  // measure 74
0010
0000
0010
0000
,  // measure 75
0010
0000
0010
0000
,  // measure 76
0020
0000
0000
0000
,  // measure 77
0000
0000
0000
0000
,  // measure 78
0200
0000
0000
0000
,  // measure 79
0000
0000
0330
0110
,  // measure 80
0010
0000
0000
0000
,  // measure 81
1000
0000
0000
0000
,  // measure 82
0100
0000
0010
0000
,  // measure 83
0001
0000
0000
0000
,  // measure 84
1000
0000
0000
0000
,  // measure 85
0010
0000
0000
0000
,  // measure 86
0100
0000
0001
0000
,  // measure 87
0010
0000
0000
0000
,  // measure 88
0100
0000
1000
0000
,  // measure 89
0010
0000
0000
0000
,  // measure 90
0100
0000
0001
0000
,  // measure 91
1000
0000
0000
0000
,  // measure 92
0100
0000
0000
0000
,  // measure 93
0010
0000
0000
0000
,  // measure 94
0001
0000
1000
0000
,  // measure 95
0020
0000
0000
0030
,  // measure 96
0100
0000
0000
0000
,  // measure 97
0001
0000
0001
0000
,  // measure 98
0001
0000
0001
0000
,  // measure 99
0000
0000
0100
0000
,  // measure 100
0000
0000
0010
0000
,  // measure 101
0000
0000
1000
0000
,  // measure 102
1000
0000
1000
0000
,  // measure 103
0000
0000
0001
0000
,  // measure 104
0001
0000
0100
0000
,  // measure 105
0100
0000
0010
0000
,  // measure 106
0010
0000
1000
0000
,  // measure 107
1000
0000
2002
0000
,  // measure 108
0000
0000
0000
0000
,  // measure 109
0000
0000
0000
0000
,  // measure 110
3003
0000
0100
0100
,  // measure 111
0001
0010
0100
1000
,  // measure 112
0010
0100
0001
1001
,  // measure 113
0100
0000
0000
0100
0000
0000
0100
0000
,  // measure 114
0000
0100
0000
0000
0100
0010
0200
0000
,  // measure 115
0310
0000
0000
0000
,  // measure 116
1001
0000
0000
0000
,  // measure 117
0010
0000
0000
0000
,  // measure 118
1001
0000
0000
0000
,  // measure 119
0100
0000
0000
0000
,  // measure 120
0100
0000
0000
0000
,  // measure 121
0100
0000
0000
0000
,  // measure 122
0100
0000
0000
0000
,  // measure 123
0100
0000
0100
0000
,  // measure 124
0001
0000
1000
0000
,  // measure 125
0100
0000
0100
0000
,  // measure 126
1000
0000
0001
0000
,  // measure 127
0010
0000
0010
0000
,  // measure 128
0001
0000
1000
0000
,  // measure 129
0010
0000
0010
0000
,  // measure 130
1000
0000
0001
0000
,  // measure 131
0010
0000
0100
0000
,  // measure 132
1000
0000
0010
0000
,  // measure 133
0100
0000
0001
0000
,  // measure 134
1000
0000
0000
1001
;

//---------------dance-single - ----------------
#NOTES:
     dance-single:
     :
     Easy:
     11:
     0.464906,0.843312,0.333778,0.150200,0.000000,390.000000,350.000000,40.000000,18.000000,0.000000,0.000000,0.464906,0.843312,0.333778,0.150200,0.000000,390.000000,350.000000,40.000000,18.000000,0.000000,0.000000:
0000
0000
0000
0000
,
0000
0000
0000
0000
,
0000
0000
0000
0000
,
0000
0000
0000
0000
,
0000
0000
1001
1000
,
0010
0000
0100
0000
0001
0000
0000
1000
,
0000
0000
0001
0000
0100
0100
0010
0000
,
1000
0000
0001
0000
0100
0010
0100
0000
,
0010
0100
0010
0000
1000
0000
0000
0000
,
0001
0000
0100
0000
,
0010
1000
0010
0000
,
1000
0000
0100
0000
,
0010
0000
0001
0000
,
1000
0000
0100
0000
,
0010
0001
0010
0000
,
0001
0000
0100
0000
,
0010
0000
1000
0000
,
0001
0000
0010
0000
,
0100
0010
0100
0000
,
1000
0000
0010
0000
,
0100
0000
0001
0000
,
1000
0000
0010
0100
,
0010
0100
0110
0000
,
0110
0000
0010
0100
,
0002
0000
1003
0000
,
0100
0000
0010
0000
,
0001
0100
0001
0000
,
1000
0100
0000
0100
,
1000
0001
0100
0000
,
0001
0000
1000
0000
,
0100
0000
0010
0000
,
0001
0000
1000
0010
,
0100
0010
1000
0000
,
0001
0000
0010
0000
,
0100
1000
0100
0000
,
0010
0001
0010
0000
,
0100
1000
0010
0100
,
0010
0000
1000
0000
,
0001
0000
1001
0000
,
1001
0000
0110
0000
,
1001
0000
0200
0310
,
0000
0010
0000
1000
,
0100
0010
0000
0010
,
0001
0100
0000
0100
,
0010
1000
0010
0100
,
0000
0001
0000
0010
,
0000
0100
0000
1000
,
0000
0010
0100
0001
,
0100
0010
0000
1000
,
0000
0001
0000
0010
,
0100
1000
0000
0001
,
0010
0100
0000
0010
,
0001
0010
0001
0100
,
0000
0010
0000
0110
,
0000
2002
0000
0000
,
0000
0000
3003
1001
,
0001
0000
0000
0100
0000
0000
0001
0001
,
1000
0100
0010
0001
,
1000
0000
0000
0010
0000
0000
1000
1000
,
0001
0010
0100
1000
,
0010
0000
0000
0100
0000
0000
0001
0000
,
0000
1000
0000
0000
0100
0000
0010
0000
,
0001
0000
0000
1000
0000
0000
0010
0000
,
0000
0100
0000
0000
0001
0000
0010
0000
,
0100
0100
0000
0000
0010
0000
0001
0000
,
0100
0010
1000
0001
,
0100
1000
0100
0001
,
0010
0100
0110
0110
,
2000
0000
0000
3000
,
0020
0000
0000
0030
,
0200
0000
0000
0300
,
0002
0000
0000
0003
,
0020
0030
0200
0300
,
2000
3000
0002
0003
,
1001
0000
1001
0000
,
1001
0000
1001
0000
,
1001
1001
1001
1001
,
0001
0100
1000
0010
,
0220
0000
0000
0000
,
0000
0000
0330
0110
,
0010
0000
1000
0000
,
0010
0000
1000
0000
,
0100
0010
0001
0000
,
1000
0100
0010
0000
,
0001
0000
0010
0000
,
0001
0000
0010
0000
,
0001
0100
0010
0000
,
0100
0010
1000
0000
,
0001
0000
1000
0000
,
0001
0000
1000
0000
,
0001
0010
0100
0000
,
0010
0100
1000
0000
,
0010
0000
0100
0000
,
0001
0000
1000
0000
,
0100
0010
0001
1000
,
0200
0000
0310
0110
,
0001
0001
0000
0000
,
1000
0000
0010
0000
,
1000
0000
0100
0010
,
0001
0000
1000
1000
,
1000
0000
0010
0000
,
0100
0000
0001
0000
,
0010
0000
0100
1000
,
0100
0000
0010
0001
,
0010
0000
0100
0010
,
0100
0000
1000
0010
,
0100
0001
1000
0010
,
0100
0000
2002
0000
,
0000
0000
0000
0000
,
0000
0000
0000
0000
,
0000
3003
1001
1001
,
0010
0000
0010
0000
1000
0100
0001
0000
,
0010
0000
0010
0000
1000
0100
0101
0000
,
1000
1000
0000
0001
0001
0000
0100
0100
,
0000
0010
0010
1000
0100
0010
0002
1003
,
1001
0000
0100
0100
,
0000
0000
1000
0000
,
1001
0000
0010
0010
,
0000
0000
0001
0000
,
1001
0000
0000
0000
,
1001
0000
0000
0000
,
1001
0000
0000
0000
,
1001
0000
0000
0000
,
1001
0000
1001
0000
,
0010
1000
0100
0000
,
1001
0000
1001
0000
,
0010
0001
0100
0000
,
1001
0000
1001
0000
,
0010
1000
0100
0000
,
0010
0001
0100
0000
,
0010
0100
0010
0000
,
1000
0100
0010
0100
,
1000
0100
0010
0100
,
1000
0100
0001
0100
,
1000
0100
0010
1001
;

//---------------dance-single - ----------------
#NOTES:
     dance-single:
     :
     Medium:
     14:
     0.767690,1.405520,0.675901,0.392190,0.146028,644.000000,563.000000,81.000000,47.000000,0.000000,0.000000,0.767690,1.405520,0.675901,0.392190,0.146028,644.000000,563.000000,81.000000,47.000000,0.000000,0.000000:
0000
0000
0000
0000
,
0000
0000
0000
0000
,
0000
0000
0000
0000
,
0000
0000
0000
0000
,
0000
0000
1001
0000
0001
0100
0000
1000
,
0100
0010
0001
0100
1010
0000
0100
0011
,
0000
0100
0010
1000
0100
0100
0100
0010
,
0002
0000
0000
0000
0103
0000
0100
0000
0010
0000
1000
0100
1000
0000
0010
0000
,
0100
0001
0100
0000
0102
0000
0000
0000
1003
0000
0000
0000
0100
0000
0000
0000
,
0010
0010
0200
0000
,
1300
0010
0110
0100
,
0001
0010
0100
0010
,
0001
0100
0001
0010
,
0100
0100
0020
0000
,
0031
0100
0110
0010
,
1000
0100
0010
0100
,
1000
0010
0100
0001
,
0010
0010
0200
0000
,
1300
0001
1001
1000
,
0100
0010
0001
0100
,
0010
1000
0001
0010
,
0100
0000
0000
0100
0000
0000
1000
0000
0010
0000
1000
0000
,
0010
0100
0101
0000
,
1010
0000
0000
0000
1000
0100
1000
0100
,
1000
0002
0103
0100
,
0010
1000
0001
0010
,
0100
1000
0010
0100
,
0001
1000
0100
0010
,
0001
0100
0010
1000
,
0001
0010
0100
1000
,
0010
0100
0001
0100
,
0010
0000
1000
0000
0010
0000
0100
0001
,
0200
0310
0010
1000
,
0100
0010
0001
1000
,
0010
0100
0001
0010
,
0100
0000
1000
0000
0001
0100
0000
0100
,
0001
1000
0020
0230
,
0310
0010
1000
0100
,
0010
0000
0001
0000
1000
0100
1000
0000
,
0010
0000
0100
0000
0001
0000
0010
0100
,
0000
0100
2000
0000
3010
0100
0110
0000
,
0010
1000
0100
0001
,
0100
1000
0010
0100
,
0001
0010
1000
0010
,
0001
0100
0010
1000
,
0001
0010
0100
1000
,
0010
0000
0100
0001
0000
0001
0020
0000
,
0031
0000
1000
0100
0000
0100
0020
0000
,
0130
0100
1000
0010
,
0001
0010
1000
0100
,
0010
0001
0100
0010
,
1000
0000
0001
0010
0000
0010
0200
0000
,
1300
0000
1100
0000
0000
1010
0000
0000
,
0011
0000
0000
0101
0000
0000
1001
0000
,
1000
0010
0100
0001
,
1000
0000
0010
0100
0010
0100
0001
0000
,
0022
0033
0000
0202
0303
0000
0011
0000
,
0010
0001
0100
1000
,
2020
3030
0000
2200
3300
0000
1010
0000
,
0010
0000
1000
0000
0100
0001
0010
0100
,
0110
0000
0000
0010
0000
0000
0011
0000
0000
0001
0000
0000
1001
0000
1000
0000
,
0000
1010
0000
0000
0010
0000
0000
0110
0000
0000
0100
0000
0000
0101
0000
0001
,
0000
0000
0011
0000
0000
0010
0000
0000
0110
0000
0000
0100
0000
0000
1100
0000
,
1000
0000
0000
0010
0100
0000
0000
0001
0100
0000
0000
0010
0100
0000
0001
0000
,
1000
0000
1100
0000
0000
0000
0100
0000
0110
0000
0000
0010
0000
0000
0011
0000
,
0000
0000
0001
0000
0101
0000
0000
0100
0000
0000
0110
0000
0000
0010
0000
0000
,
1010
1000
0100
0001
0100
0010
0001
0100
,
1000
0000
0100
0000
0010
0000
1000
0000
0001
0010
0001
0000
1000
0010
1000
0000
,
0002
0100
0100
0103
,
2000
0010
0010
3010
,
0002
0010
0010
0013
,
2000
0100
0100
3100
,
0002
0013
2000
3010
,
0002
0103
2000
3100
,
0002
0003
0010
0000
0200
0300
0001
0000
,
2000
3000
0010
0000
0200
0300
1000
0000
,
1010
0000
0000
0000
0001
0000
0000
0000
0011
0000
0000
0000
1000
0000
0000
0110
,
0000
0000
0001
0000
0000
0110
0000
0000
1000
0000
0000
0110
0000
0000
0001
0000
,
2002
0000
0000
0000
,
0000
0000
3003
1001
,
0001
0010
0110
0000
,
1000
0100
0110
0000
,
0001
0010
0100
1000
,
0010
0100
0101
0000
,
1000
0010
0110
0000
,
0001
0100
0110
0000
,
1000
0010
0100
0001
,
0010
0100
1100
0000
,
0001
0100
0010
1000
,
0001
0010
0100
1000
,
0010
0001
0010
1000
,
0010
0001
0110
0000
,
1000
0100
0001
0100
,
1000
0100
0001
0100
,
1000
0010
0100
0001
,
0010
0000
0100
0000
0010
0000
0100
0000
0000
0110
0000
0000
,
1000
0000
1000
0000
0000
1010
0000
0000
,
0110
0000
0000
0101
0000
0000
0011
0000
,
0000
0110
0000
0000
1100
0000
1000
0000
,
0010
0000
0100
0001
0100
0000
0010
0000
,
1010
0000
0000
1100
0000
0000
1001
0000
,
0000
0011
0000
0000
0101
0000
0000
0110
,
0000
0000
1010
0000
0000
0101
0000
0000
,
0110
0000
0010
1000
0010
0000
0001
0000
,
0010
0100
0001
0010
,
0100
0000
1000
0000
0010
0100
0001
0000
,
0100
0010
1000
0000
0001
0000
0010
0000
,
0100
2000
0002
0000
,
0000
0000
0000
0000
,
0000
0000
0000
0000
,
0000
3003
1001
0110
,
0001
0010
0100
1000
0010
0000
0100
0010
0100
0000
0001
0000
1000
0000
1001
0000
,
1000
0100
0010
0001
0100
0000
0010
0100
0010
0000
1000
0000
1100
0000
0000
0100
,
0010
0001
0100
0110
0010
1000
1001
0001
,
0100
0000
0110
0000
0000
0011
0000
0000
1100
0000
0100
0010
0001
1000
0200
0000
,
0320
0000
1000
0032
,
0000
0013
1000
0001
,
0200
0000
1000
0302
,
0000
0103
1000
0001
,
0020
0000
0031
0100
,
0020
0000
1030
0100
,
0020
0000
0130
1000
,
0020
0000
0130
0001
,
0011
1000
0011
1000
,
0100
0010
0001
1000
,
1100
0001
1100
0001
,
0010
0100
1000
0001
,
1001
0100
1001
0010
,
1000
0100
0001
0100
,
1000
0010
0001
0010
,
1000
0100
0010
0001
,
0100
0000
0010
1000
0010
0000
0100
0010
,
0100
0000
0001
0100
0001
0000
0010
0001
,
0010
0000
0100
1000
0100
0000
1000
0010
,
1000
0010
0100
0001
2000
0000
3001
0000
;

//---------------dance-single - ----------------
#NOTES:
     dance-single:
     :
     Hard:
     16:
     0.942924,1.742845,0.692590,0.425567,0.296228,791.000000,708.000000,83.000000,51.000000,0.000000,0.000000,0.942924,1.742845,0.692590,0.425567,0.296228,791.000000,708.000000,83.000000,51.000000,0.000000,0.000000:
0000
0000
0000
0000
,
0000
0000
0000
0000
,
0000
0000
0000
0000
,
0000
0000
0000
0000
,
0000
0000
1001
0000
0001
0100
0000
1000
,
0100
0001
0010
0100
1100
0000
0010
0011
,
0001
0100
0001
0000
1000
0000
0100
0000
0010
0000
0100
0000
1000
0000
0010
0000
,
0200
0000
0000
0000
0301
0000
0001
0000
1000
0100
1000
0000
0001
0000
1000
0010
,
1000
0010
1000
0000
1002
0000
0000
0000
0103
0000
0000
0000
0001
0000
0000
0000
,
0010
0000
0001
0010
0100
0000
0010
0000
,
0002
0000
0203
0000
0320
0000
1030
0100
,
0010
0000
0100
0010
0001
0000
1000
0010
,
0100
0110
0010
1000
,
0100
0000
1000
0100
0010
0000
0100
0000
,
2000
0000
3020
0000
0230
0000
0301
0010
,
0100
0000
0010
0100
1000
0000
0001
0100
,
0010
0100
0001
0000
1000
0000
0100
0000
,
1100
0000
1000
0100
0010
0000
0100
0000
,
2000
0000
3020
0000
0230
0000
0301
0010
,
0100
0000
0010
0001
0100
0000
0010
1000
,
0001
0010
0110
0100
,
0010
0000
0000
0011
0000
0000
0001
0000
0100
0000
0010
0000
,
1000
0000
0001
0000
0010
0100
0010
0000
,
0001
0100
0001
0000
1000
0010
0100
0010
,
1000
1001
0001
0100
,
1000
0100
0001
1000
,
0010
0001
0010
1000
,
0100
0010
0100
1000
,
0010
0001
0100
0001
,
0010
1000
0100
0010
,
0001
1000
0010
0100
,
0001
0000
0010
0000
0011
0000
0001
0100
,
0010
1010
1000
0100
,
0001
0100
1000
0001
,
0010
1000
0010
0001
,
0100
0000
0010
0000
1000
0200
0000
0310
,
0002
0000
0103
0000
0010
1000
0010
0100
,
0010
0100
0001
0010
,
0100
0000
1000
0000
0001
0100
0010
0100
,
0001
0000
1000
0000
1100
0000
0010
0200
,
0000
0301
2000
0000
3010
0010
0110
0000
,
0100
0001
0010
1000
,
0001
0100
1000
0010
,
0001
1000
0100
0001
,
0010
0000
0100
0010
0200
0000
1300
0000
,
0100
0000
0010
0001
0010
0000
0001
0000
,
0100
0000
0010
1000
0001
1000
0010
0000
,
0110
0000
0100
0000
0001
0010
0100
0000
,
1100
1000
0010
0001
,
1000
0100
0001
0010
,
0100
0001
0100
1000
,
0010
0000
0100
0002
0000
1003
0020
0000
,
0130
0001
0010
0000
0010
0001
0000
0001
,
0100
0000
0100
1000
0010
1000
0100
1000
,
0020
0000
0000
0000
,
0000
0000
0130
0001
0010
0100
1000
0000
,
2020
3030
0000
0220
0330
0000
0102
0000
,
0013
0010
0100
1000
0010
0001
0010
0000
,
0022
0033
0000
0220
0330
0000
2100
0000
,
3010
0000
0010
0000
0100
0000
0001
0000
1000
0010
0100
0000
0010
1000
0100
0000
,
1100
0000
0000
1100
0000
0000
1100
0000
0000
1010
0000
0000
0010
0000
0100
0000
,
0000
0101
0000
0000
0101
0000
0000
0101
0000
0000
0011
0000
0000
0010
0000
0100
,
0000
0000
1100
0000
0000
1010
0000
0000
0101
0000
0000
0011
0000
0000
0110
0000
,
0100
0000
0000
1000
0010
0000
0000
0010
0001
0000
0000
0001
0100
0001
0100
0001
,
0100
0000
0120
0000
0000
0000
1030
0000
0100
0000
0000
0110
0000
0000
0010
0001
,
0000
0000
0100
0000
0110
0000
0000
0010
1000
0000
0100
1000
0000
0001
1000
0001
,
1000
0001
0100
0000
0001
1000
0100
0000
1000
0001
0010
0000
0001
1000
0010
0000
,
0100
0001
0100
0001
1000
0100
1000
0100
0010
0001
0100
0000
0010
1000
0100
0000
,
0020
0001
0100
1000
,
0100
0000
0000
0000
0001
0000
0000
0000
0130
0010
0100
0010
0001
0000
0000
0000
,
0200
1000
0010
0001
,
0010
0000
0000
0000
1000
0000
0000
0000
0310
0100
0010
0100
0001
0000
0000
0000
,
2000
0100
0001
0010
,
0001
0000
0000
0000
0100
0000
0000
0000
3001
0010
0001
0010
0100
0000
0000
0000
,
0110
1000
0110
0001
,
0110
1000
0110
0001
,
0110
0000
0000
0000
1001
0000
0000
0000
0110
0000
0000
0000
1001
0000
0000
0101
,
0000
0000
0011
0000
0000
1100
0000
0000
1010
0000
0000
0110
0000
0000
1001
0000
,
2002
0000
0000
0000
,
0000
0000
3003
1001
,
0001
0100
0010
0000
0100
0000
0001
0000
,
0010
0001
0100
0000
0010
0000
0100
0000
,
0010
1000
0100
0000
0010
0001
0100
0000
,
0010
1000
0001
0000
0100
0001
1000
0000
,
0100
1000
0010
0000
0100
0000
0010
0000
,
1000
0010
0100
0000
0010
0000
1000
0000
,
0100
1000
0001
0000
0100
0001
1000
0000
,
0010
1000
0100
0000
0010
0001
0100
0000
,
0010
1000
0100
0010
0100
0000
1000
0000
,
0010
0001
0010
1000
,
0100
0001
0100
0010
0001
0000
0100
0000
,
1000
0100
0001
0010
,
0100
1000
0010
0000
0100
0000
0101
0000
,
0001
0010
0100
0000
1000
0000
1100
0000
,
0100
1000
0010
0100
0010
0100
0001
0010
,
0100
0000
1000
0000
0010
0000
0100
0000
0000
0110
0000
0000
,
1010
0000
1010
0000
0000
1100
0000
0000
,
0110
0000
0000
0011
0000
0000
0101
0000
,
0000
0110
0000
0000
1010
0000
0000
1000
,
0200
0000
0310
0100
0010
0000
0011
0000
,
0011
0000
0000
0101
0000
0000
1100
0000
,
0000
1010
0000
0000
0110
0000
0000
0101
,
0000
0000
1001
0000
0000
1010
0000
0000
,
0110
0000
0100
0001
0010
0001
0100
0000
,
1000
0100
0001
0010
,
0100
1000
0100
0000
0010
0100
0010
0000
,
0001
0010
0001
0000
0100
0010
1000
0001
,
0010
0100
1000
0020
0200
0000
0000
0000
,
0000
0000
0000
0000
,
0000
0000
0000
0000
,
0000
0330
1001
0110
,
0010
1000
0010
0100
0001
0100
0010
1000
0200
0000
0310
0002
0000
1003
0010
0100
,
1000
0100
0010
0001
0010
0100
0001
0010
0200
0000
1300
0010
0110
0000
0001
0100
,
0110
0000
0000
0000
0010
0000
0000
0000
1000
0000
0000
0000
1100
0000
0000
0000
0010
0000
0000
0000
0001
0000
0000
0000
0101
0000
0000
1100
0000
0000
1000
0000
,
0010
0000
0100
0000
2000
0000
0000
0000
3100
0000
0002
0000
0000
0000
0103
0000
1000
0000
0100
0000
0001
0000
0010
0000
0100
1000
0100
1000
0020
0000
0000
0000
,
0230
0000
0000
0000
0301
0010
1000
0000
,
0010
0000
0001
0000
0100
0010
1000
0100
,
0020
0000
0000
0000
0031
0100
1000
0000
,
0100
0000
0001
0000
0010
0100
1000
0010
,
0200
0000
0000
0000
0310
1000
0100
0010
,
0002
0000
0000
0000
0103
0010
1000
0001
,
0020
0000
0000
0000
0130
1000
0010
0100
,
0002
0000
0000
0000
1003
0100
0010
0001
,
0100
0010
1000
0000
0010
0100
0001
0000
,
0010
0100
0010
0100
1000
0010
0100
0000
,
0001
1000
0100
0000
1000
0001
0010
0000
,
0100
1000
0100
1000
0010
0100
0001
0000
,
1000
0100
0010
0000
0100
0010
0001
0000
,
0010
0100
0010
0001
0010
0000
0100
0000
,
1000
0010
1000
0100
0001
0000
0100
0000
,
0010
0001
0100
1000
0100
0000
0110
0000
,
1001
0000
0001
0100
1000
0000
1000
0100
,
0001
0000
1000
0010
0001
0000
0001
0010
,
1000
0000
0100
0010
0100
0000
1000
0010
,
0100
0001
0010
0100
2000
0000
3001
0000
;

//---------------dance-double - ----------------
#NOTES:
     dance-double:
     :
     Challenge:
     18:
     1.044250,2.192611,0.667557,0.734312,0.379673,876.000000,796.000000,80.000000,88.000000,0.000000,0.000000,1.044250,2.192611,0.667557,0.734312,0.379673,876.000000,796.000000,80.000000,88.000000,0.000000,0.000000:
00000000
00000000
00000000
00000000
,
00000000
00000000
00000000
00000000
,
00000000
00000000
00000000
00000000
,
00000000
00000000
00000000
00000000
,
00000000
00000000
00022000
00033000
00011000
02000000
03000000
00011000
,
00000200
00001300
00001000
00000001
00000101
00001000
00000100
00010100
,
00010000
00001000
00010000
00001000
00010000
00001000
00000000
00100000
00020000
00000000
20030000
00000000
30200000
00000000
01300000
00010000
,
02000000
00000000
00000000
00000000
03002000
00000000
00023000
00000000
00030100
00001000
00000100
00001000
00000001
00000000
00000100
00000001
,
00000100
00000001
00001000
00000100
00020000
00000000
00000000
00000000
00031000
00000000
00000000
00000000
00010000
00000000
00000000
00000000
,
00011000
00000000
00100000
00010000
02000000
00000000
03100000
00000000
,
10000000
00000000
11000000
00000000
01000000
00000000
00100000
00001000
,
00010000
00000000
00001000
00100000
00010000
00000000
00100000
00001000
,
00010000
00000000
00001000
00100000
00010000
00000000
01000000
00000000
,
01001000
00000000
00001000
00010000
00000200
00000000
00000310
00000000
,
00000001
00000000
00000011
00000000
00001000
00000010
00010000
00000000
,
00001000
00010000
00000010
00000000
00001000
00000010
00010000
00001000
,
00010000
00000010
00001000
00000010
00000100
00000000
00000001
00000000
,
00000011
00000000
00000010
00000100
00002000
00000000
00003010
00000000
,
00010000
00000000
00011000
00000000
00200000
00000000
00310000
01000000
,
00001000
00000000
00010000
00001000
01000000
00000000
00010000
01000000
,
00001000
00000000
00010000
00001000
01000000
00000000
00100000
00000000
,
10100000
00000000
00000000
00000000
00000000
00000000
10000000
00000000
00000000
01000000
00000000
00000000
00100000
00000000
00000000
00000000
00010000
00000000
00000000
00000000
00001000
00000000
00000000
00000000
,
00000100
00000000
00001000
00000010
00000200
00000000
00000301
00000000
,
00002000
00000000
00003010
00000000
00000010
00000100
00000001
00000010
,
00000100
00000000
00001100
00000000
00001000
00000010
00010000
00000000
,
00001000
00100000
01000000
10000000
,
00100000
00010000
00100000
10000000
,
01000000
00010000
00001000
00000010
,
00000001
00000100
00001000
00000100
,
00000001
00000010
00000100
00010000
,
00001000
00100000
01000000
10000000
,
00100000
00000000
01000000
00000000
01010000
00000000
00001000
00010000
,
00000100
00000000
00001100
00000000
00001000
00000100
00000010
00000000
,
00000001
00000100
00001000
00010000
,
00100000
00000000
00010000
00000000
00001000
00000010
00001000
00000000
,
00010000
00000000
01000000
00000000
10000000
00200000
00000000
01300000
,
00020000
00000000
00130000
00000000
00100000
01000000
00010000
00001000
,
00000010
00000001
00000100
00001000
,
00001100
00000000
00000100
00000000
00000001
00000010
00000100
00000010
,
00000001
00000100
00000010
00001000
00000200
00000000
00010300
00002000
,
00000000
00013000
00200000
00000000
01000000
01300000
01100000
00000000
,
00100000
10000000
01000000
00000000
00100000
00000000
00001000
00000000
,
00010000
00001000
00000010
00000000
00000001
00000000
00000100
00000000
,
00001000
00000100
00000001
00000000
00000010
00000000
00000100
00000000
,
00001000
00000010
00010000
00001000
00100000
00000000
01000000
00000000
,
10000000
00100000
00010000
00001000
,
00100000
00000000
01000000
10000000
00100000
01000000
00010000
00100000
,
00001000
00000000
00011000
00000000
00010000
00000100
00000010
00000000
,
00000011
00000000
00001000
00000100
00000010
00000000
00001000
00000000
,
00010000
00000000
01000000
10000000
00100000
00000000
01000000
00000000
,
10000000
00000000
01000000
00010000
00100000
00000000
01000000
00000000
,
00010000
00000000
00001000
00100000
00001000
00010000
00000010
00010000
,
00001000
00000100
00000002
00000000
00000103
00002000
00000000
00003100
,
00000002
00000000
00000013
00000100
00001000
00000010
00010000
00000000
,
00011000
00002000
01003000
00020000
,
00030100
00000000
00010000
00001000
00100000
01000000
10000000
00000000
,
10020000
00000000
00000000
00032000
00000000
00000000
00003001
00000100
,
00000100
00000010
00000001
00000010
00001000
00000100
00000010
00000001
,
00002001
00000000
00000000
00023000
00000000
00000000
10030000
00100000
,
00100000
00000000
01000000
00000000
10000000
00000000
01000000
00000000
00010000
00100000
00010000
00100000
00001000
00010000
00001000
00010000
,
00000200
00000000
00000000
00000320
00000000
00000000
00000032
00000000
00000000
00002003
00000000
00000000
00003020
00000000
00020030
00000000
,
00000000
00230000
00000000
00000000
20300000
00000000
00000000
32000000
00000000
00000000
03020000
00000000
00000000
00032000
00000000
00003200
,
00000000
00000000
00000302
00000000
00000000
00002003
00000000
00000000
00003020
00000000
00000000
00020030
00000000
00000000
00031000
00000000
,
00011000
00000000
00000000
00010000
01000000
00000000
00000000
00010000
00001000
00000000
00000000
00010000
01000000
00010000
01000000
10000000
,
00100000
00000000
02100000
00000000
00000000
00000000
03010000
00000000
00110000
00000000
00000000
00101000
00000000
00000000
00001000
00020000
,
00000000
00000000
00030100
00000000
00001100
00000000
00000000
00001000
00000002
00000000
00001003
00000200
00000000
00001300
00000020
00000000
,
00010030
00001000
00010000
00001000
01000000
00100000
01000000
00100000
10000000
01000000
10000000
01000000
00100000
00010000
00100000
00010000
,
01000000
00001000
00010000
00000100
00001000
00000010
00000100
00000001
00001000
00000100
00020000
00000000
00031000
00100000
00010000
00000000
,
02010000
10000000
00010000
03001000
,
00011000
00000000
00000000
00000000
00001100
00000000
00000000
00000000
00000100
00000001
00000010
00000100
00002000
00000000
00003000
00000000
,
00001020
00000001
00001000
00010030
,
00011000
00000000
00000000
00000000
00110000
00000000
00000000
00000000
00100000
10000000
01000000
00100000
00020000
00000000
00030000
00000000
,
02010000
03001000
00010020
00001030
,
00001000
00000001
00000100
00000000
00001000
00010000
00100000
00000000
10000000
01000000
00010000
00001000
00100000
00000000
00001000
00010000
,
00000020
00000030
00011000
00000000
00200000
00300000
00011000
00000000
,
00000200
00000300
00011000
00000000
02000000
03000000
00011000
00000000
,
00101000
00000000
00000000
00000000
00010010
00000000
00000000
00000000
01001000
00000000
00000000
00000000
00010100
00000000
00000000
00001100
,
00000000
00000000
00000011
00000000
00000000
00001010
00000000
00000000
00110000
00000000
00000000
11000000
00000000
00000000
01010000
00000000
,
00022000
00000000
00000000
00000000
,
00000000
00000000
00033000
00011000
,
00001000
00010000
01000000
00010000
00002000
00000000
00003000
00000000
,
00010000
00001000
00000100
00001000
00020000
00000000
00030000
00000000
,
00001000
00100000
00010000
00000000
01000000
00100000
10000000
00000000
,
01000000
00100000
00010000
01000000
00100000
00010000
00001000
00000000
,
00010000
00001000
00000010
00001000
00020000
00000000
00030000
00000000
,
00001000
00010000
00100000
00010000
00002000
00000000
00003000
00000000
,
00010000
00000100
00001000
00000000
00000010
00000100
00000001
00000000
,
00000010
00000100
00001000
00000010
00000100
00001000
00010000
00000000
,
00100000
10000000
01000000
10000000
00100000
00000000
00010000
00000000
,
00001000
00000010
00000001
00000010
00001000
00000000
00010000
00000000
,
00100000
10000000
01000000
00100000
00010000
01000000
00100000
10000000
,
00010000
00100000
00001000
00000000
00010000
00000100
00000010
00000000
,
00000001
00000100
00000010
00000100
00000001
00000000
00000010
00000000
,
00001000
00010000
01000000
00010000
00001000
00000000
00000100
00000000
,
00000001
00000010
00000100
00001000
00000010
00010000
00001000
00100000
,
00010000
00000000
01000000
00000000
00100000
00000000
10000000
00000000
00000000
10010000
00000000
00000000
,
01010000
00000000
01010000
00000000
00000000
01001000
00000000
00000000
,
00011000
00000000
00000000
00010100
00000000
00000000
00000110
00000000
,
00000000
00000011
00000000
00000001
00000100
00001000
00000100
00000001
,
00000010
00000100
00001000
00000010
00010000
00000000
00011000
00000000
,
00101000
00000000
00000000
00110000
00000000
00000000
01010000
00000000
,
00000000
10100000
00000000
00000000
11000000
00000000
00000000
01100000
,
00000000
00000000
00101000
00000000
00001000
00010000
00000100
00010000
,
00001000
01000000
00001000
00010000
00000100
00001000
00000001
00001000
,
00000100
00010000
00001000
00010000
00000100
00000010
00000001
00001000
,
00000100
00000010
00000100
00001000
00000010
00000100
00001000
00010000
,
00100000
01000000
00010000
00100000
01000000
00100000
00010000
10000000
,
01000000
00100000
00001000
00000000
00022000
00000000
00000000
00000000
,
00000000
00000000
00000000
00000000
,
00000000
00000000
00000000
00000000
,
00000000
00033000
00101000
00010010
,
00010000
00001000
00000100
00000001
00001000
00000100
00000010
00000001
00000101
00000000
00001000
00010000
00100000
10000000
00010000
00100000
,
01000000
00000000
10000000
00000000
01000000
00000000
00010000
00000000
01000000
00000000
00100000
00000000
00010000
00000000
00001000
00000000
00001010
00000000
00000000
00000000
00000001
00000000
00000010
00000000
00000011
00000000
00000000
00000000
00000100
00000000
00001000
00010000
,
00002000
00000000
00000000
00000000
00103000
00000000
01000000
00000000
10000000
00000000
00100000
00000000
00110000
00000000
00000000
00000000
00010000
00000000
00001000
00000000
00000100
00000000
00000001
00000000
00000011
00000000
00000000
00001100
00000000
00000000
00000110
00000000
,
00000001
00000000
00000100
00000000
00001010
00000000
00000000
00000000
00010000
00000000
00101000
00000000
00000000
00000000
00010000
00000000
01100000
00000000
10000000
00000000
01000000
00000000
00100000
00001000
00100000
00001000
00100000
00001000
00020000
00000000
00000000
00000000
,
00030100
00000000
00000100
00000000
00000010
00000001
00000200
00000000
,
00000310
00000000
00010000
00000000
00001000
00000100
00000001
00000100
,
00001000
00000000
00010000
00000000
00100000
10000000
02000000
00000000
,
03100000
00000000
00001000
00000000
00010000
01000000
10000000
01000000
,
00020000
00000000
00031000
00000000
00001000
00100000
01000000
00100000
,
00002000
00000000
00013000
00000000
00010000
00000100
00000010
00000100
,
00020000
00000000
00031000
00000000
00001000
00000100
00000001
00000100
,
00002000
00000000
00013000
00000000
00010000
00100000
10000000
01000000
,
00010000
00001000
00000100
00000000
00001000
00000100
00000002
00000000
,
00000013
00000100
00001000
00000010
00000100
00000001
00001000
00000100
,
00000010
00001000
00010000
00000000
00001000
00010000
00200000
00000000
,
10300000
01000000
00100000
00010000
10000000
00100000
01000000
00010000
,
00100000
01000000
00010000
00000000
00001000
00000010
00000200
00000000
,
00001300
00000001
00001000
00000001
00000100
00001000
00000100
00001000
,
00010000
01000000
00010000
01000000
10000000
00010000
10000000
00010000
,
01000000
00001000
00010000
00000100
00001000
00000001
00000100
00000010
,
00001000
00000100
00000010
00000001
00000200
00000000
00001300
00010000
,
00200000
00000000
10300000
01000000
00020000
00000000
00031000
00000010
,
00000002
00000000
00000103
00001000
00020000
00000000
00130000
10000000
,
01000000
00010000
00001000
00000010
00000002
00000000
00001003
00000000
;

//---------------dance-double - ----------------
#NOTES:
     dance-double:
     :
     Easy:
     11:
     0.456561,0.787091,0.358812,0.158545,0.000000,383.000000,340.000000,43.000000,19.000000,0.000000,0.000000,0.456561,0.787091,0.358812,0.158545,0.000000,383.000000,340.000000,43.000000,19.000000,0.000000,0.000000:
00000000
00000000
00000000
00000000
,
00000000
00000000
00000000
00000000
,
00000000
00000000
00000000
00000000
,
00000000
00000000
00000000
00000000
,
00000000
00000000
00011000
00001000
,
00100000
00000000
00010000
00000000
01000000
00000000
00000000
01000000
,
00000000
00000000
01000000
00000000
00100000
00100000
10000000
00000000
,
01000000
00010000
00001000
00010000
,
00001000
00011000
00010000
00000000
,
00000100
00000000
00001000
00000000
,
00000010
00000100
00000010
00000000
,
00000100
00000000
00000001
00000000
,
00001000
00000000
00000100
00000000
,
00010000
00000000
00001000
00000000
,
00100000
00010000
00100000
00000000
,
00010000
00000000
01000000
00000000
,
00100000
00000000
10000000
00000000
,
00010000
00000000
01000000
00000000
,
00100000
10000000
00100000
00000000
,
01000000
00000000
00010000
00000000
,
00100000
00000000
00001000
00000000
,
00010000
00000000
00000100
00001000
,
00000001
00000000
00000101
00000000
,
00000101
00000000
00000100
00001000
,
00020000
00000000
00031000
00000000
,
00010000
00000000
00100000
00000000
,
10000000
01000000
10000000
00000000
,
01000000
00010000
01000000
00000000
,
00010000
00001000
00010000
00000000
,
00000100
00000000
00000010
00000000
,
00000001
00000000
00001000
00000000
,
00000010
00000000
00010000
00001000
,
00010000
00000000
00011000
00000000
,
00001000
00000000
00000100
00000000
,
00000001
00000010
00000001
00000000
,
00000010
00001000
00000010
00000000
,
00001000
00010000
00001000
00000000
,
00100000
00000000
01000000
00000000
,
10000000
00000000
10100000
00000000
,
01010000
00000000
00101000
00000000
,
00010100
00000000
00022000
00033000
,
00000000
00001000
00000000
00010000
,
00100000
00010000
00000000
00001000
,
00000010
00001000
00000000
00010000
,
00100000
00010000
00100000
10000000
,
00000000
01000000
00000000
00100000
,
00000000
00010000
00000000
01000000
,
00000000
00001000
00010000
00001000
,
00000000
00011000
00000000
00010000
,
00000000
00000100
00000000
00000010
,
00000001
00000010
00000000
00000100
,
00001000
00000100
00000000
00000010
,
00000000
00000001
00000100
00001000
,
00000000
00010000
00000000
00011000
,
00000000
00022000
00000000
00000000
,
00000000
00000000
00033000
00011000
,
00001000
00000000
00000000
01000000
00000000
00000000
00001000
00001000
,
00010000
00000100
00000010
00000100
,
00010000
00000000
00000000
00000010
00000000
00000000
00010000
00010000
,
00001000
00100000
01000000
00100000
,
00001000
00000000
00000000
00010000
00000000
00000000
01000000
00000000
,
00000000
10000000
00000000
00000000
00100000
00000000
01000000
00000000
,
00010000
00000000
00000000
00100000
00000000
00000000
00001000
00000000
,
00000000
00010000
00000000
00000000
00000100
00000000
00000010
00000000
,
00000001
00000001
00000000
00000000
00001000
00000000
00000010
00000000
,
00010000
00001000
00100000
01000000
,
10000000
00100000
00010000
00001000
,
00000010
00000001
00000101
00000101
,
00002000
00000000
00000000
00003000
,
00000200
00000000
00000000
00000300
,
00020000
00000000
00000000
00030000
,
00002000
00000000
00000000
00003000
,
00200000
00300000
00020000
00030000
,
20000000
30000000
00200000
00300000
,
01100000
00000000
00011000
00000000
,
00000110
00000000
00011000
00000000
,
00101000
00010010
01001000
00010100
,
00010000
00001000
00010000
00001000
,
00022000
00000000
00000000
00000000
,
00000000
00000000
00033000
00011000
,
00010000
00000000
00001000
00000000
,
00000100
00000000
00000010
00000000
,
00000100
00000001
00000010
00000000
,
00000001
00000100
00000010
00000000
,
00001000
00000000
00000100
00000000
,
00010000
00000000
00001000
00000000
,
00100000
00010000
01000000
00000000
,
00100000
01000000
00010000
00000000
,
10000000
00000000
01000000
00000000
,
00100000
00000000
00010000
00000000
,
01000000
00001000
00010000
00000000
,
00001000
01000000
00010000
00000000
,
00100000
00000000
00001000
00000000
,
00010000
00000000
00000100
00000000
,
00000010
00000001
00001000
00000000
,
00000020
00000000
00000130
00000110
,
00001000
00000001
00000000
00000000
,
00001000
00000000
00000100
00000000
,
00010000
00000000
00001000
00000000
,
00100000
00000000
01000000
00000000
,
10000000
00000000
00100000
00000000
,
00010000
00000000
00001000
00000000
,
00000100
00000000
00000001
00000010
,
00000100
00000000
00000010
00000100
,
00001000
00000000
00000100
00010000
,
00001000
00000000
00100000
00010000
,
01000000
00001000
00100000
00010000
,
01000000
00001000
00022000
00000000
,
00000000
00000000
00000000
00000000
,
00000000
00000000
00000000
00000000
,
00000000
00033000
00011000
00011000
,
00010000
00000000
00010000
00000000
00100000
10000000
00000000
10000000
,
00100000
00000000
00010000
00000000
00001000
00010000
00011000
00000000
,
00000100
00000001
00000000
00000001
00000010
00000000
00000010
00001000
,
00000000
00001000
00010000
00100000
01000000
00100000
00010000
00001000
,
00000020
00000030
00000001
00000001
,
00000000
00000000
00001000
00000000
,
00001100
00000000
00010000
00010000
,
00000000
00000000
00001000
00000000
,
01001000
00000000
00000000
00000000
,
00010100
00000000
00000000
00000000
,
00101000
00000000
00000000
00000000
,
00010010
00000000
00000000
00000000
,
00011000
00000000
00011000
00000000
,
00010000
00100000
10000000
00000000
,
10010000
00000000
10010000
00000000
,
10000000
01000000
00010000
00000000
,
00011000
00000000
00011000
00000000
,
00001000
00000010
00000001
00000000
,
00000010
00000001
00000100
00000000
,
00000001
00000100
00001000
00000000
,
00000100
00001000
00010000
00001000
,
00000100
00001000
00010000
00001000
,
00000100
00001000
00010000
00001000
,
00000010
00001000
00010000
00011000
;

//---------------dance-double - ----------------
#NOTES:
     dance-double:
     :
     Medium:
     14:
     0.756962,1.405520,0.675901,0.342123,0.141856,635.000000,554.000000,81.000000,41.000000,0.000000,0.000000,0.756962,1.405520,0.675901,0.342123,0.141856,635.000000,554.000000,81.000000,41.000000,0.000000,0.000000:
00000000
00000000
00000000
00000000
,
00000000
00000000
00000000
00000000
,
00000000
00000000
00000000
00000000
,
00000000
00000000
00000000
00000000
,
00000000
00000000
00011000
00000000
00010000
00000100
00000000
00010000
,
00001000
00000100
00000010
00000001
00000011
00000000
00001000
00001010
,
00000000
00000010
00010000
00001000
00100000
01000000
00100000
00001000
,
00020000
00000000
00000000
00000000
00031000
00000000
00001000
00000000
00000100
00000000
00000001
00000100
00000001
00000000
00000100
00000000
,
00001000
00010000
00012000
00000000
01003000
00000000
00100000
00000000
,
10000000
10000000
02000000
00000000
,
03100000
00001000
00011000
00010000
,
00000100
00001000
00000001
00001000
,
00000100
00010000
00001000
00000010
,
00000001
00000001
00000200
00000000
,
00000310
00010000
00011000
00001000
,
00100000
01000000
10000000
01000000
,
00100000
00001000
00010000
00100000
,
10000000
10000000
02000000
00000000
,
03100000
00010000
01010000
01000000
,
00001000
00010000
00001000
01000000
,
00010000
01000000
00001000
00010000
,
00000100
00000000
00000000
00000100
00000000
00000000
00000010
00000000
00000001
00000000
00000010
00000000
,
00000001
00000100
00000110
00000000
,
00000110
00000000
00000000
00000000
00000010
00010000
00001000
00000000
,
00100000
00020000
01030000
01000000
,
00100000
10000000
01000000
00010000
,
01000000
10000000
00100000
00010000
,
00001000
00000010
00000001
00000010
,
00001000
00000100
00000001
00000100
,
00000010
00000001
00000100
00001000
,
00010000
00100000
00010000
00001000
,
00000010
00000000
00001000
00000000
00010000
00000000
00100000
01000000
,
00200000
10300000
10000000
01000000
,
00100000
00001000
00010000
00000100
,
00000010
00000001
00001000
00000100
,
00010000
00000000
00001000
00000000
00100000
00010000
00000000
00010000
,
01000000
00100000
10000000
00010000
,
10010000
10000000
01000000
00010000
,
00001000
00000000
00100000
00000000
00010000
01000000
00010000
00000000
,
00100000
00000000
00001000
00000000
00010000
00000000
00000100
00000010
,
00000000
00000010
00000002
00000000
00001003
00000001
00001001
00000000
,
00001000
00000100
00000001
00000100
,
00010000
00001000
00100000
01000000
,
10000000
00100000
00001000
00100000
,
01000000
00010000
00100000
01000000
,
10000000
00100000
00010000
00001000
,
00000100
00000000
00000001
00000010
00000000
00000010
00000200
00000000
,
00001300
00000000
00001000
00000010
00000000
00000010
00020000
00000000
,
00031000
00001000
00010000
01000000
,
10000000
01000000
00010000
00001000
,
00000100
00000010
00001000
00000001
,
00000010
00000000
00000100
00001000
00000000
00001000
00000020
00000000
,
00010030
00000000
00011000
00000000
00000000
00101000
00000000
00000000
,
00011000
00000000
00000000
00010010
00000000
00000000
00011000
00000000
,
00010000
00100000
00010000
00001000
,
00000010
00000000
00001000
00010000
00001000
00010000
00001000
00000000
,
00021000
00000000
00000000
02030000
00000000
00000000
13000000
00000000
,
00100000
00010000
00001000
00010000
,
00012000
00000000
00000000
00003020
00000000
00000000
00000031
00000000
,
00000100
00000000
00001000
00000000
00010000
00001000
00100000
00010000
,
01010000
00000000
00000000
10000000
00000000
00000000
11000000
00000000
00000000
00100000
00000000
00000000
01100000
00000000
01000000
00000000
,
00000000
01001000
00000000
00000000
00010000
00000000
00000000
00010100
00000000
00000000
00000010
00000000
00000000
00001010
00000000
00001000
,
00000000
00000000
00000101
00000000
00000000
00000001
00000000
00000000
00000011
00000000
00000000
00000100
00000000
00000000
00010100
00000000
,
00010000
00000000
00000000
00001000
00100000
00000000
00000000
00100000
00010000
00000000
00000000
00010000
10000000
00000000
01000000
00000000
,
00100000
00000000
00110000
00000000
00000000
00000000
00010000
00000000
01010000
00000000
00000000
01000000
00000000
00000000
01001000
00000000
,
00000000
00000000
00001000
00000000
00011000
00000000
00000000
00010000
00000000
00000000
00010100
00000000
00000000
00000100
00000000
00000000
,
00000110
00000010
00000001
00000100
00001000
00010000
00100000
10000000
,
01000000
00000000
00010000
00000000
00001000
00000000
00100000
00000000
00010000
01000000
00000000
00000000
00001000
00010000
00000000
00000000
,
00000200
00001000
00000001
00001300
,
00200000
00010000
10000000
00310000
,
00000020
00001000
00000001
00001030
,
02000000
00010000
10000000
03010000
,
00002000
00103000
00020000
00030010
,
00002000
01003000
00020000
00030100
,
00010000
00100000
00001000
00000010
,
00010000
01000000
00001000
00000100
,
00000110
00000000
00000000
00000000
00001010
00000000
00000000
00000000
00011000
00000000
00000000
00000000
00110000
00000000
00000000
10100000
,
00000000
00000000
11000000
00000000
00000000
01010000
00000000
00000000
00011000
00000000
00000000
00101000
00000000
00000000
00010010
00000000
,
00022000
00000000
00000000
00000000
,
00000000
00000000
00033000
00011000
,
00001000
00100000
02000000
00000000
,
03100000
00001000
00020000
00000000
,
00031000
00100000
01000000
10000000
,
00100000
00010000
00011000
00000000
,
00010000
00000100
00000020
00000000
,
00000130
00010000
00002000
00000000
,
00013000
00000100
00000010
00000001
,
00000100
00001000
00011000
00000000
,
00001000
00010000
01000000
10000000
,
00100000
01000000
00010000
00100000
,
00001000
00010000
00000010
00000100
,
00000001
00001000
00001001
00000000
,
00000001
00000100
00001000
00000100
,
00000001
00000100
00001000
00010000
,
00100000
10000000
00100000
00010000
,
00100000
00000000
10000000
00000000
01000000
00000000
00100000
00000000
00000000
01100000
00000000
00000000
,
00010000
00000000
00010000
00000000
00000000
01010000
00000000
00000000
,
01001000
00000000
00000000
00011000
00000000
00000000
00010100
00000000
,
00000000
00001100
00000000
00000000
00001001
00000000
00000001
00000000
,
00001000
00000000
00000100
00010000
00000100
00000000
00000010
00000000
,
00000011
00000000
00000000
00000101
00000000
00000000
00001100
00000000
,
00000000
00011000
00000000
00000000
01010000
00000000
00000000
11000000
,
00000000
00000000
10100000
00000000
00000000
01100000
00000000
00000000
,
01010000
00000000
00010000
00100000
00010000
00000000
10000000
00000000
,
01000000
00100000
00001000
00010000
,
00000100
00000000
00000010
00000000
00000001
00000100
00000001
00000000
,
00001000
00000100
00001000
00000000
00000010
00000000
00000100
00000000
,
00001000
00010000
00022000
00000000
,
00000000
00000000
00000000
00000000
,
00000000
00000000
00000000
00000000
,
00000000
00033000
00011000
00011000
,
00001000
00100000
01000000
10000000
00100000
00000000
00010000
00100000
01000000
00000000
00010000
00000000
00001000
00000000
00011000
00000000
,
00010000
00000100
00000010
00000001
00000100
00000000
00001000
00000100
00000010
00000000
00001000
00000000
00011000
00000000
00000000
00100000
,
00010000
01000000
00001000
00011000
00010000
00000100
00001100
00001000
,
00000001
00000000
00000101
00000000
00000000
00001100
00000000
00000000
00011000
00000000
00010000
00100000
01000000
10000000
02000000
00000000
,
03200000
00000000
00010000
20300000
,
00000000
31000000
00010000
00001000
,
00000020
00000000
00000001
00002030
,
00000000
00013000
01000000
10000000
,
00200000
00000000
00310000
00001000
,
00000020
00000000
00000031
00000100
,
00002000
00000000
00013000
00100000
,
20000000
00000000
31000000
00010000
,
00011000
01000000
00011000
01000000
,
00100000
10000000
01000000
00010000
,
00011000
00000100
00011000
00000100
,
00000010
00000001
00000100
00001000
,
00011000
01000000
00011000
00000100
,
00000010
00000001
00001000
00000010
,
00010000
00100000
00001000
00000100
,
00010000
01000000
10000000
00100000
,
01100000
00000000
10000000
01000000
00000000
00000000
01000000
00100000
,
00000000
00000000
00100000
00010000
00000000
00000000
00010000
00001000
,
00000000
00000000
00001000
00000100
00000000
00000000
00000100
00000010
,
00000100
00000010
00000100
00000010
00000002
00000000
00001003
00000000
;

//---------------dance-double - ----------------
#NOTES:
     dance-double:
     :
     Hard:
     16:
     0.903586,1.742845,0.659212,0.408879,0.271195,758.000000,679.000000,79.000000,49.000000,0.000000,0.000000,0.903586,1.742845,0.659212,0.408879,0.271195,758.000000,679.000000,79.000000,49.000000,0.000000,0.000000:
00000000
00000000
00000000
00000000
,
00000000
00000000
00000000
00000000
,
00000000
00000000
00000000
00000000
,
00000000
00000000
00000000
00000000
,
00000000
00000000
00011000
00000000
00010000
01000000
00000000
10000000
,
01000000
00010000
00001000
00010000
00010100
00000000
00001000
01001000
,
01000000
00010000
01000000
00000000
00100000
00000000
10000000
00000000
01000000
00000000
00100000
00000000
00010000
00000000
01000000
00000000
,
00002000
00000000
00000000
00000000
00013000
00000000
00010000
00000000
00000100
00001000
00000100
00000000
00010000
00000000
00001000
00100000
,
00001000
00010000
00021000
00000000
00030010
00000000
00010000
00000000
,
00000100
00000000
00001000
00000010
00001000
00000000
00000100
00000000
,
00020000
00000000
00031000
00000000
00200000
00000000
00310000
01000000
,
00010000
00000000
10000000
01000000
10000000
00000000
00010000
01000000
,
00010000
00110000
00100000
01000000
,
10000000
00000000
00100000
01000000
00100000
00000000
00010000
00000000
,
00002000
00000000
00103000
00000000
00020000
00000000
01030000
00100000
,
01000000
00000000
00001000
00010000
00001000
00000000
00010000
00000100
,
00010000
00000100
00000010
00000000
00000001
00000000
00000100
00000000
,
00000110
00000000
00000010
00001000
00000010
00000000
00010000
00000000
,
00002000
00000000
00103000
00000000
02000000
00000000
13000000
00100000
,
10000000
00000000
00100000
00010000
00100000
00000000
00010000
00001000
,
00010000
00001000
00001010
00000010
,
00000001
00000000
00000000
00000100
00000000
00000000
00000010
00000000
00010000
00000000
00001000
00000000
,
00100000
01000000
11000000
00000000
,
00110000
00000000
00000000
00000000
00100000
00001000
00010000
00001000
,
00010000
00010100
00000100
00000010
,
00000001
00000100
00001000
00010000
,
00001000
00000100
00000001
00000010
,
00001000
00010000
00100000
10000000
,
01000000
00010000
00001000
00010000
,
01000000
10000000
00100000
00010000
,
00001000
00000010
00000001
00000100
,
00000010
00000000
00010000
00000000
00011000
00000000
00001000
00100000
,
01000000
01100000
00100000
00010000
,
10000000
00100000
01000000
00010000
,
00100000
00001000
00010000
00000100
,
00000010
00000000
00000001
00000000
00001000
00000020
00000000
00001030
,
00000200
00000000
00010300
00000000
00010000
00001000
00010000
00001000
,
00100000
01000000
10000000
00100000
,
00010000
00000000
00001000
00000000
00100000
00010000
00100000
00010000
,
00100000
00000000
00001000
00000000
00011000
00000000
00010000
00000200
,
00000000
00001300
00000020
00000000
00000100
00000130
00000110
00000000
,
00000010
00001000
00000001
00000100
,
00001000
00010000
00100000
10000000
,
01000000
00010000
00001000
00010000
,
00100000
00000000
01000000
00100000
02000000
00000000
03010000
00000000
,
00010000
00000000
00100000
00001000
00100000
00000000
00010000
00000000
,
01000000
00000000
00100000
10000000
01000000
10000000
00100000
00000000
,
01100000
00000000
01000000
00000000
00010000
00100000
00001000
00000000
,
00011000
00010000
00000100
00000010
,
00000001
00001000
00000100
00000010
,
00001000
00010000
00100000
10000000
,
01000000
00000000
00100000
00002000
00000000
00013000
00000020
00000000
,
00001030
00000100
00000010
00000000
00000010
00000001
00000000
00000001
,
00000100
00000000
00000100
00001000
00010000
00001000
00010000
00001000
,
00200000
00000000
00000000
00000000
,
00000000
00000000
00310000
01000000
00001000
00010000
00001000
00000000
,
00022000
00030000
00000000
00000002
00000003
00000000
00013000
00000000
,
00010000
00001000
00010000
00100000
10000000
01000000
00010000
00000000
,
00022000
00003000
00000000
20000000
30000000
00000000
00031000
00000000
,
00001000
00000000
00010000
00000000
00001000
00000000
00000100
00000000
00000001
00000000
00000010
00000000
00001000
00010000
00001000
00000000
,
00101000
00000000
00000000
00101000
00000000
00000000
00101000
00000000
00000000
00110000
00000000
00000000
00010000
00000000
01000000
00000000
,
00000000
01100000
00000000
00000000
01100000
00000000
00000000
01100000
00000000
00000000
10100000
00000000
00000000
10000000
00000000
01000000
,
00000000
00000000
01010000
00000000
00000000
00011000
00000000
00000000
00001100
00000000
00000000
00000101
00000000
00000000
00001001
00000000
,
00001000
00000000
00000000
00000100
00010000
00000000
00000000
00010000
00001000
00000000
00000000
00001000
01000000
00001000
01000000
00001000
,
01000000
00000000
01200000
00000000
00000000
00000000
10300000
00000000
01000000
00000000
00000000
01100000
00000000
00000000
00100000
00001000
,
00000000
00000000
00010000
00000000
00011000
00000000
00000000
00001000
00010000
00000000
00000100
00001000
00000000
00000001
00000100
00000001
,
00000100
00000001
00000010
00000000
00000100
00000000
00001000
00000000
00010000
00000000
00100000
00000000
01000000
00000000
10000000
00000000
,
00100000
01000000
00100000
01000000
00001000
00010000
00001000
00010000
00000010
00001000
00000000
00000000
00000001
00000100
00000000
00000000
,
00002000
00010000
01000000
00100000
,
00010000
00000000
00000000
00000000
00003010
00000000
00000000
00000000
00000010
00000001
00000010
00000001
00000100
00000000
00001000
00000000
,
00020000
00001000
00000010
00000100
,
00001000
00000000
00000000
00000000
00130000
00000000
00000000
00000000
00100000
10000000
00100000
10000000
01000000
00000000
00010000
00000000
,
00002000
00100000
00000010
00010000
,
01000000
00000000
00000000
00000000
00003100
00000000
00000000
00000000
00000100
00000001
00000100
00000001
00000010
00000000
00001000
00000000
,
00011000
01000000
00011000
00000100
,
00011000
00100000
00011000
00000010
,
00011000
00000000
00000000
00000000
00101000
00000000
00000000
00000000
01100000
00000000
00000000
00000000
11000000
00000000
00000000
10100000
,
00000000
00000000
00110000
00000000
00000000
00011000
00000000
00000000
00001010
00000000
00000000
00000101
00000000
00000000
00001100
00000000
,
00022000
00000000
00000000
00000000
,
00000000
00000000
00033000
00011000
,
00001000
00010000
00100000
10000000
,
01000000
10000000
00100000
00010000
,
00001000
00100000
00001000
00000000
00010000
00000010
00010000
00000000
,
00001000
01000000
00001000
00000000
00010000
00000100
00010000
00000000
,
00010000
00001000
00000100
00000001
,
00000010
00000001
00000100
00001000
,
00010000
00000100
00010000
00000000
00001000
01000000
00001000
00000000
,
00010000
00000010
00010000
00000000
00001000
00100000
00001000
00000000
,
00001000
00010000
00001000
00010000
01000000
00000000
10000000
00000000
,
00100000
00010000
00001000
00010000
,
00010000
00001000
00010000
00001000
00000010
00000000
00000001
00000000
,
00000100
00001000
00010000
00001000
,
00001000
00100000
01000000
00000000
00100000
00000000
00001000
00000000
,
00010000
00000100
00000010
00000000
00000100
00000000
00010000
00000000
,
00001000
00010000
00001000
00010000
00001000
00010000
00001000
00010000
,
00001000
00000000
00100000
00000000
00010000
00000000
01000000
00000000
00000000
01100000
00000000
00000000
,
10100000
00000000
10100000
00000000
00000000
11000000
00000000
00000000
,
01100000
00000000
00000000
00110000
00000000
00000000
00101000
00000000
,
00000000
00011000
00000000
00000000
00010100
00000000
00000000
00000100
,
00001000
00000000
00001000
00000100
00000010
00000000
00000011
00000000
,
00000011
00000000
00000000
00000101
00000000
00000000
00001100
00000000
,
00000000
00011000
00000000
00000000
00110000
00000000
00000000
10100000
,
00000000
00000000
11000000
00000000
00000000
01100000
00000000
00000000
,
00110000
00000000
00100000
00001000
00010000
00001000
00100000
00000000
,
00010000
10000000
01000000
00100000
,
00001000
00010000
00001000
00000000
00010000
00000100
00010000
00000000
,
00000100
00001000
00000100
00000000
00001000
00000010
00000100
00000001
,
00000010
00000100
00010000
00000000
00022000
00000000
00000000
00000000
,
00000000
00000000
00000000
00000000
,
00000000
00000000
00000000
00000000
,
00000000
00033000
00010100
01001000
,
00001000
00010000
00100000
01000000
00010000
00100000
01000000
00010000
00002000
00000000
00013000
02000000
00000000
03010000
00001000
00000100
,
00000010
00001000
00000100
00000010
00001000
00010000
00100000
10000000
02000000
00000000
03010000
00001000
00011000
00000000
00001000
00010000
,
00011000
00000000
00000000
00000000
00000100
00000000
00000000
00000000
00000010
00000000
00000000
00000000
00000011
00000000
00000000
00000000
00001000
00000000
00000000
00000000
00000100
00000000
00000000
00000000
00010100
00000000
00000000
00011000
00000000
00000000
00001000
00000000
,
00100000
00000000
01000000
00000000
20000000
00000000
00000000
00000000
30100000
00000000
00020000
00000000
00000000
00000000
00130000
00000000
10000000
00000000
01000000
00000000
00010000
00000000
00001000
00000000
00010000
00001000
00010000
00000000
00002000
00000000
00000000
00000000
,
02003000
00000000
00000000
00000000
03100000
10000000
00100000
00000000
,
00010000
00001000
00000100
00000001
,
00000020
00000000
00000000
00000000
00000031
00000100
00000001
00000000
,
00000010
00000000
00001000
00000000
00010000
00000000
00100000
10000000
,
02000000
00000000
00000000
00000000
03100000
00010000
00100000
00010000
,
00200000
00000000
00000000
00000000
00301000
00010000
00001000
00010000
,
00002000
00000000
00000000
00000000
00003010
00000001
00000010
00000001
,
00000020
00000000
00000000
00000000
00000031
00000100
00000001
00000100
,
00000020
00000030
00020000
00030000
,
00001000
00010000
00001000
00000000
00100000
00010000
00100000
00010000
,
02000000
03000000
00200000
00300000
,
10000000
01000000
10000000
00000000
01000000
00010000
01000000
00010000
,
00002000
00003000
00020000
00030000
,
00000100
00001000
00000100
00000010
00000100
00000000
00001000
00000000
,
00000010
00000100
00000001
00001000
00000100
00000000
00010000
00000000
,
00001000
00010000
00100000
01000000
00100000
00000000
10100000
00000000
,
11000000
00000000
10000000
01000000
00010000
00000000
01000000
00010000
,
00001000
00000000
00010000
00001000
00000100
00000000
00001000
00000100
,
00000001
00000000
00000010
00000100
00000010
00000000
00000001
00001000
,
00000100
00010000
00001000
00100000
00020000
00000000
10030000
00000000
;
